#TITLE:Keep Out LSX;
#SUBTITLE:-Hard Edit-;
#ARTIST:DJ Sharpnel;
#TITLETRANSLIT:;
#SUBTITLETRANSLIT:;
#ARTISTTRANSLIT:;
#CREDIT:;
#BANNER:;
#BACKGROUND:;
#LYRICSPATH:;
#CDTITLE:;
#MUSIC:DJ Sharpnel - Keep Out LSX.mp3;
#OFFSET:-4.400;
#SAMPLESTART:86.945;
#SAMPLELENGTH:19.700;
#SELECTABLE:YES;
#BPMS:0.000=93.000,64.000=186.100,192.000=92.800,256.000=186.100;
#STOPS:256.000=0.500
;
#BGCHANGES:;
// cache tags:
#FIRSTBEAT:0.000;
#LASTBEAT:956.000;
#SONGFILENAME:Songs/toune/Keep Out LSX/Keep Out LSX.sm;
#HASMUSIC:1;
#HASBANNER:0;
#MUSICLENGTH:354.282;
// end cache tags

//---------------dance-single - ----------------
#NOTES:
     dance-single:
     :
     Hard:
     12:
     1.000,1.000,0.917,0.000,1.000,3066.000,325.000,0.000,0.000,0.000:
1000
0100
0010
0001
0010
0100
0001
0010
0001
0100
0010
1000
0001
1000
0010
0100
,
0001
0010
0001
0100
0010
1000
0001
1100
0000
0001
0010
0100
0001
0010
0001
0100
,
0010
1000
0100
0010
0001
0010
0100
0011
0000
0101
0010
1000
0100
0010
0001
0010
,
0100
0001
0010
0001
0100
0010
1000
0011
0000
0011
0010
1000
0100
0010
0001
0010
,
0100
0001
0010
0001
0100
0010
1000
0001
1000
0010
1000
0001
0100
0001
0010
0001
,
0100
0010
1000
0100
0010
0001
0010
0100
0001
0010
0001
0100
0010
1000
0100
0010
,
0001
0010
0100
0001
0010
0001
0100
0010
1000
0100
0001
0010
1000
0100
0010
0001
,
0010
0100
0001
0010
0001
0010
0100
0001
0010
0001
0100
0010
1000
0010
1000
0001
,
1000
0001
1000
0001
1000
0100
0010
0001
0000
0010
0100
0001
0010
0001
0100
0010
,
1000
0100
0010
0001
0010
0100
0001
0010
0001
0100
0001
1000
0000
0001
0010
1000
,
0100
0010
0001
0010
0100
0001
0010
0001
0100
0010
1000
0001
0000
0001
0010
1000
,
0100
0010
0001
0010
0100
0001
0010
0001
0100
0010
1000
0001
0000
0001
0010
1000
,
0100
0010
0001
0010
0100
0001
0010
0001
0100
0010
1000
0001
1000
0001
1000
0010
,
0100
0010
0001
0100
0010
1000
0100
0010
0001
0010
0100
0001
0000
0001
0010
1000
,
0100
0010
0011
0000
0100
0001
0010
0001
0100
0010
1000
0001
0000
0001
0010
1000
,
0100
0010
0001
0010
0100
0001
0010
0001
0100
0010
1000
0100
0010
0001
0010
0100
,
1010
0100
0110
0001
1010
0100
0101
0010
,
1001
0100
0110
1000
0101
0010
0101
0010
,
1100
0001
0110
0001
0110
0010
1001
0100
,
0110
0001
0110
0100
1001
0010
0101
0100
,
0011
1000
0110
0010
0101
0010
1100
0001
,
0110
0001
1100
0010
1100
0001
1100
0001
,
1010
0100
1010
0100
1001
0100
1100
0000
,
1000
0100
0010
0001
1000
0100
0010
0001
1000
0100
0010
0001
1000
0100
0010
0001
,
1000
0100
1000
0100
0010
0100
0010
0001
0010
0001
0010
0100
0010
0100
1000
0100
,
0010
0001
0010
0100
1000
0100
0010
0001
0010
0100
0010
0001
0010
0100
0010
0100
,
0010
1000
0001
0010
0100
0001
0010
0100
1000
0010
0100
1000
0100
0010
0001
0100
,
0010
0001
0010
0100
0010
1000
0100
0010
0001
0010
0100
1000
0100
0010
0100
0001
,
0010
0100
1000
0010
0100
0001
0010
1000
0100
0010
0100
0010
0001
0010
0100
0010
,
1000
0100
0010
0100
0001
0010
0100
1000
0100
0010
0100
0001
0010
0100
0010
1000
,
0100
0010
0100
0001
0010
0100
1000
0100
0010
0100
0001
0010
0100
0010
1000
0001
,
0010
0100
1000
0100
0010
0100
0001
0010
0100
1000
0010
0100
0001
0010
0100
1000
,
0100
0010
0100
0001
0010
0100
1000
0100
0010
0100
0001
0010
0100
1000
0100
1000
,
0010
0100
0001
0010
0001
0100
0010
1000
0100
0010
0100
0010
0001
0010
0100
1000
,
0100
0010
0100
0001
0010
0100
1000
0100
0010
0100
0001
0010
0100
0010
0001
0010
,
0100
1000
0100
0010
0100
0010
0100
0001
0010
0001
0010
0100
1000
0100
0010
0001
,
0010
0001
0010
0100
0010
0100
0010
1000
0100
0010
0001
0010
0100
0010
0001
0010
,
0100
1000
0100
0010
0100
0010
0001
0010
0001
0010
0100
0010
0100
1000
0100
0010
,
0001
0100
0010
0001
0010
0100
0010
0100
0001
0010
0001
0010
0100
1000
0100
1000
,
0010
0100
0010
0001
0010
0100
0010
0100
1000
0100
0010
0100
0001
0010
1000
0100
,
0010
0001
0010
0100
1000
0100
0010
0100
0001
0010
0100
1000
0010
0100
0001
0010
,
0100
1000
0100
0010
0100
0001
0010
0001
0010
0100
1000
0010
0100
0001
0010
0100
,
1000
0100
0010
0100
0001
0010
0100
1000
0100
0010
0100
0001
0010
0100
1000
0100
,
0010
0100
0001
0010
0001
0010
0100
0010
0100
1000
0100
0010
0100
0010
0100
0010
,
0001
0010
0100
1000
0100
0010
0100
0010
0100
1000
0100
1000
0100
1000
0100
0010
,
0100
0010
0001
0010
0001
0010
0100
0010
1000
0100
0010
0001
0010
0100
0010
0100
,
1000
0001
0010
0100
1000
0100
0010
0001
0010
0100
1000
0100
0010
0100
0001
1000
,
0100
0010
0001
0010
0100
1000
0100
0010
0001
0010
0100
0010
0001
0010
0100
1000
,
0100
0000
0010
1000
0001
0000
1000
0000
0010
0000
1000
0001
1000
0000
0010
0000
,
0100
0000
0001
0100
0010
0000
1000
0000
0100
0000
0010
0001
0010
0000
0100
0000
,
0001
0000
0010
0001
0100
0000
0010
0000
1000
0000
0001
1000
0010
0000
1000
0000
,
0100
0000
0010
0001
0010
0000
0100
0000
0001
0000
0010
0001
0100
0000
0001
0000
,
1001
1001
1001
1001
1001
1001
1001
1001
,
0110
0110
0110
0110
0110
0110
0110
0110
,
1001
0110
1001
0110
0011
0101
1100
1010
,
1001
0000
0000
0101
0000
0000
0011
0000
0000
0101
0000
0000
1000
0100
0010
0000
0100
0001
0010
0001
0100
1000
0000
0000
,
0000
1000
0100
0010
0001
0010
0100
0001
0010
0001
0100
0001
1000
0010
1000
0100
,
0010
0001
0010
0100
0001
0010
0001
0100
0010
1000
0100
0010
0001
0010
0100
0001
,
1000
0100
0001
0010
0100
0001
0010
0001
0100
0010
1000
0100
0010
0001
0010
0100
,
0001
0010
0001
0100
0010
1000
0100
0001
0010
0100
0001
0010
0001
0100
0010
1000
,
0100
0010
0001
0010
0100
0001
0010
0001
0100
0010
1000
0100
0010
0001
0010
0100
,
0001
0010
0000
0001
0100
0010
1000
0100
0010
0001
0010
0100
0001
0010
0001
0100
,
0010
1000
0100
0010
0001
0010
0100
0001
0010
0001
0100
0010
1000
0001
1000
0010
,
1000
0100
0010
0001
1000
0100
0010
0001
1000
0100
0010
0001
1000
0100
0010
0001
1000
0100
0010
0001
1000
0100
0010
0001
1000
0100
0010
0001
1000
0100
0010
0001
,
0000
0000
0000
0000
1000
0100
0010
0001
0010
0100
0010
0001
0010
1000
0100
0010
,
0001
0100
0010
0001
1000
0100
0010
0001
0010
0100
1000
0100
0010
0001
0010
0100
,
0001
0010
0100
0010
0001
1000
0100
0010
0100
1000
0010
0100
0010
0001
0010
0100
,
0010
1000
0100
0010
0001
0010
0100
1000
0100
0010
0001
0010
0100
0010
0100
1000
,
0001
0000
0010
0000
0001
0010
0100
1000
0100
0010
0100
0001
0010
0100
1000
0010
,
0100
0001
0010
0100
1000
0100
0010
0001
0010
0100
1000
0100
0010
0001
0010
1000
,
0100
0000
0001
0000
0010
0100
0010
0001
0100
0010
0001
0010
0100
1000
0100
0010
,
0100
0001
0010
0100
1000
0100
0010
0100
0001
0010
0001
0010
0100
1000
0100
0010
,
0001
0000
0010
0000
0001
0010
0100
1000
0100
0010
0100
0001
0010
0100
0010
1000
,
0100
0010
0100
0010
0001
0010
0100
1000
0100
0010
0100
0001
0010
0100
1000
0010
,
0100
0000
0010
0000
0001
0100
1000
0100
0010
0001
0010
0100
0010
0001
0010
0100
,
0010
0100
1000
0100
0010
0100
0001
0010
0100
1000
0010
0100
0001
0010
0100
1000
,
0001
0000
0010
0000
0001
0100
0010
1000
0100
0010
0001
0010
0100
1000
0010
0100
,
0001
0010
0100
1000
0100
0010
0100
0001
0010
0100
1000
0100
0010
0001
0010
0100
,
1000
0100
0010
1000
0001
0010
0100
0010
0001
0010
0100
1000
0100
0010
0100
0001
,
0010
0100
1000
0010
0100
0001
0010
0100
1000
0100
0010
0001
0010
0100
0010
0001
,
0010
0100
1000
0100
0010
0100
0001
0010
0100
1000
0100
0010
0100
0001
0010
0100
,
1000
0100
0010
0100
0001
0010
1000
0100
0010
0001
0010
0100
0010
1000
0001
0010
,
0100
0010
0001
0010
0100
1000
0100
0010
0100
0001
0010
0100
1000
0100
0010
0100
,
0001
0010
0100
0010
0001
0100
0010
1000
0100
0010
0100
0001
0010
0100
0010
0001
,
0010
0100
1000
0100
0010
0100
0001
1000
0010
0100
0001
1000
0010
0100
0010
1000
,
0100
0010
0100
0001
0010
0100
1000
0100
0010
0100
0001
0010
0100
1000
0010
0100
,
0001
0010
0100
0010
0001
0010
0100
1000
0100
0010
0100
0001
0100
0010
0100
1000
,
0100
0010
0001
0010
0100
0001
0010
0100
1000
0100
0010
0100
0001
0010
0100
0010
,
1000
0001
0010
0100
1000
0100
0010
0001
0100
0010
0100
0001
1000
0100
0010
0100
,
0001
0010
0100
0010
0100
1000
0001
0010
1100
0000
1000
0000
1100
0000
0100
0000
,
1001
0010
1010
0010
1010
0010
0101
0010
,
1001
0010
0110
0100
1010
0100
0011
0100
,
1100
0100
0110
0010
0101
0010
1100
0100
,
0110
0010
0011
0001
1010
0001
0110
0001
,
1010
0001
1100
0001
1100
0010
1100
0010
,
0011
0000
0010
0000
1100
0000
0010
0000
0001
0000
1000
0100
0010
0001
1000
0100
,
0010
0001
1000
0100
0010
0001
1000
0100
1000
0100
0010
0001
0010
0100
1000
0100
,
0010
0001
0010
0100
0001
0000
0010
0000
0001
0100
1000
0100
0010
0100
0001
0010
,
0100
1000
0100
0010
0001
0000
0100
0000
0001
0010
0100
1000
0100
0010
0001
0010
,
0100
1000
0010
1000
0100
0000
0010
0000
0001
0010
0100
1000
0100
0010
0100
0001
,
1000
0010
0100
1000
0100
0000
0010
0000
0001
0100
1000
0100
0010
0001
0010
0100
,
1000
0010
0100
0001
0010
1000
0100
0000
0010
0000
0001
0100
0010
0100
1000
0100
,
0010
0001
0010
0100
0010
1000
0001
0000
0010
0000
0001
0010
0100
1000
0100
0010
,
0100
0001
0010
0100
0001
0000
0010
0000
1000
0100
0010
0001
0010
0100
0010
0001
,
0010
0100
0010
1000
0001
0000
0100
0000
0001
0010
0100
1000
0010
0100
0001
0010
,
0100
0010
1000
0100
0010
0100
0001
0010
0001
0100
0010
0100
1000
0100
0010
0100
,
0010
0001
0010
0100
1000
0100
0010
0001
0010
0100
1000
0100
0010
0100
0010
0001
,
0010
0100
1000
0100
0010
0100
0001
0010
0001
0010
0100
1000
0100
0010
0001
0000
,
0110
0000
0101
0000
1010
0000
1001
0100
,
0010
0001
0010
0100
1000
0100
0010
0100
0001
0010
0100
1000
0100
0010
0100
0001
,
0010
0100
0010
0100
1000
0001
0010
0100
0010
0001
0010
0100
0010
1000
0010
0100
,
0001
0010
0100
1000
0100
0010
0001
0100
1000
0000
0010
0000
0001
0100
1000
0100
,
0010
0100
0001
0010
0100
1000
0100
0010
0100
0001
0010
0100
1000
0100
0010
0100
,
0001
0010
0100
1000
0100
0010
0100
0001
0010
0100
0010
0001
1000
0100
0010
0100
,
0010
0001
0100
0010
0100
0001
0010
0100
1000
0100
0010
0001
0010
0100
0010
0001
,
0010
0100
0010
0001
0010
0100
0010
0100
1001
0000
0000
0000
0101
0000
0000
0000
,
1010
0000
0000
0000
0101
0000
0010
0000
0001
0100
0010
1000
0100
0010
0100
0001
,
0010
0100
1000
0100
0010
0001
0100
0010
0001
1000
0100
0010
0100
0010
0001
0010
,
0100
0010
0100
0001
1000
0001
1000
0100
0010
0001
0010
0100
1000
0100
0010
0100
,
0001
0010
0100
0001
0010
0100
0010
0100
1001
0000
0000
0000
1001
0000
0000
0000
,
0101
0000
0000
0000
0011
0000
0100
0000
0001
1000
0100
0010
0100
0001
0010
0100
,
0001
1000
0100
0010
0100
0001
0010
0100
1000
0100
0010
0100
0001
0010
0100
1000
,
0100
0010
0001
0100
0010
0001
0010
0100
0010
0001
0010
0100
1000
0100
0010
0100
,
0001
0010
0100
1000
0100
0010
0001
0010
1001
0000
0000
0000
1001
0000
0000
0000
,
1001
0000
0000
0000
1001
0000
0010
0000
0001
0100
1000
0100
0010
0100
0001
0010
,
0100
1000
0010
0100
0001
0010
0100
0010
1000
0001
0100
0010
0001
1000
0100
1000
,
0010
0100
0001
0010
0100
1000
0100
0010
0001
0010
0100
0001
0010
0100
1000
0010
,
0100
0001
0010
0100
1000
0100
0010
0100
1001
0000
0000
0000
1001
0000
0000
0000
,
1001
0000
0000
0000
1001
0000
0010
0000
0001
0100
0010
0100
0001
0010
0100
0010
,
0100
0001
1000
0100
0010
0001
0010
0100
1000
0100
0010
0100
0001
0010
0100
1000
,
0100
0010
0100
0001
0010
0100
0010
0001
0010
0100
1000
0010
0100
0001
0010
1000
,
0100
0010
0001
0010
0100
0010
1000
0100
1001
0000
0000
0000
1001
0000
0000
0000
,
1001
0000
1001
0010
0101
0010
1010
0100
,
1100
0100
0110
0010
1001
0010
0101
0010
,
1001
0100
1010
0100
1001
0010
0101
1000
,
0110
0001
0110
0010
1001
0000
1001
0000
,
1001
0000
1001
0010
0101
0010
0101
0010
,
1001
0100
1010
0100
0011
0001
0110
1000
,
0110
0100
1100
0100
0011
0100
1100
0100
,
0011
0010
0110
0010
1001
0000
1001
0000
,
1001
0000
0000
0000
1001
0000
0010
0000
0001
0100
1000
0100
0010
0001
0010
0100
,
0001
0010
1000
0100
0010
0100
0001
0010
0100
0010
0001
0010
0100
1000
0100
0010
,
0100
0001
0010
0100
0001
0010
0100
1000
0100
0010
0001
0010
1001
0000
0000
0000
,
1001
0000
0000
0000
1001
0000
0010
0000
0001
0010
0100
0001
0010
0100
1000
0010
,
0100
0001
1000
0100
0010
0100
0001
0010
0100
0010
1000
0001
0010
0001
0100
0010
,
1000
0100
0010
0100
1000
0001
0010
0100
0010
0001
0010
0100
1000
0010
0001
0100
,
1000
0100
0010
0001
0010
0100
0011
0000
0010
0000
0101
0000
0010
0000
1001
0000
,
0100
1010
0001
0110
0100
1001
0010
0101
,
0100
0011
1000
0101
0000
0101
0010
1100
,
0001
0110
0001
0110
0010
1001
0100
1010
,
0001
0100
0110
1000
0100
0011
0010
1100
,
0100
0011
0001
0110
0100
1001
0010
0101
,
0100
0011
1100
0000
0011
0010
1001
0100
,
1010
0001
0110
0100
1001
0010
0101
0100
,
0011
1000
0110
0010
0101
0010
1100
0001
,
0110
0001
0101
0010
1100
0100
1010
0001
,
0110
0100
1001
0000
0101
0010
1001
0100
,
0110
0001
1010
0100
0101
0010
0011
0100
,
1010
0100
0011
0001
1010
0100
0011
0010
,
0101
0100
0011
1000
0110
0000
0101
0000
,
0011
0000
0000
0000
1100
0000
0010
0000
0001
0010
0100
0001
0010
0100
1000
0010
,
0100
1000
0100
0010
0100
0001
0010
0100
1000
0010
0100
0001
1000
0100
0010
0001
,
0010
0100
1000
0010
0100
0001
0010
0100
1000
0100
0010
0100
0001
0010
1000
0010
,
0100
0001
0010
1000
0100
0010
0100
0001
0010
0100
1000
0010
0100
0001
0010
0100
,
1000
0010
0100
1000
0001
0010
0100
0001
1000
0100
0010
0001
0100
0010
1000
0100
,
0010
0001
0010
0100
0001
0010
0100
1000
0100
0010
0001
0010
0100
0010
0100
1000
,
0001
0010
0100
0001
0010
0100
1000
0010
0100
0001
0010
0100
1000
0100
0010
0100
,
0001
0010
0100
1000
0100
0010
0001
0010
1001
0000
0000
0000
0101
0000
0000
0000
,
0011
0000
0000
0000
0101
0000
0010
0000
0001
0010
0100
1000
0100
0010
0100
0001
,
0010
0100
1000
0100
0010
0100
0001
0010
0100
1000
0100
0010
0100
0001
0010
1000
,
0100
0010
0100
0001
0010
0001
0010
0100
1000
0100
0010
0100
0001
0010
0100
1000
,
0100
0010
0001
0010
0100
0001
0010
0100
1001
0000
0000
0000
1001
0000
0000
0000
,
1001
0000
0000
0000
1001
0000
0010
0001
1000
0100
0010
0001
1000
0100
0010
0001
,
1000
0100
0010
0001
0010
0100
1000
0001
0010
0100
1000
0001
0010
0100
1000
0001
,
0010
0100
1000
0001
0010
0100
1000
0001
0010
0100
1000
0001
0010
0100
1000
0100
,
0010
0001
1000
0100
0010
0001
1000
0100
0010
0001
0010
0100
1000
0100
0010
0100
,
0001
0000
1100
0000
0010
0100
1000
0100
0010
0001
0100
0010
0100
1000
0100
0010
,
0100
0010
0001
0010
0100
1000
0100
0010
0100
0010
0100
1000
0100
0010
0001
0100
,
0010
1000
0100
0001
0010
0100
0010
1000
0100
0010
0100
0001
0010
0100
0010
1000
,
0100
0010
0100
0001
0010
0100
0010
0001
0100
1000
0100
0010
0100
0001
0010
0100
,
0010
0100
1000
0001
0010
0100
0010
0001
0010
0100
1000
0010
0100
0001
0010
1000
,
0100
0010
0100
0001
0010
0100
1000
0100
0010
0100
0001
0010
0100
1000
0010
0100
,
0001
0010
0100
1000
0010
0100
0001
0010
0100
1000
0100
0010
0001
0100
0010
0001
,
0010
0100
0010
1000
0001
0010
0100
0010
0001
0010
0100
1000
0100
0010
0100
0001
,
0010
0100
1000
0100
0010
0100
0001
0010
0100
1000
0010
0100
0001
0010
0100
1000
,
0010
0100
0001
1000
0100
0010
0100
0001
0010
0001
0010
0100
1000
0100
0010
0100
,
0001
0010
0100
0010
0100
0001
0010
0100
1000
0100
0010
0100
0001
0010
1000
0100
,
0010
0100
0001
0010
0100
1000
0010
0100
0001
0010
0100
0010
0001
0010
0100
1000
,
0010
0100
0001
0010
1000
0100
0010
0100
0001
0010
0001
1000
0100
0010
0100
0001
,
0010
0100
0010
0001
0010
0100
0010
0001
0100
0010
1000
0001
0010
1000
0100
0010
,
0100
0001
0010
0100
1000
0010
0100
0001
1000
0100
0010
0100
0001
0010
0001
0010
,
0100
1000
0100
0010
0100
0001
0010
1000
0001
0010
0100
0010
0001
0010
0100
1000
,
0100
0010
0100
0001
1000
0010
0100
0001
0010
0100
1000
0100
0010
0100
0001
0010
,
0100
0010
0100
1000
0100
0010
0001
0010
0001
0100
0010
0100
1000
0100
0010
0100
,
0001
1000
0010
0100
0001
0010
0100
0010
1000
0100
0010
0001
0010
0100
1000
0100
,
0010
0100
0001
0010
0100
0001
0010
0100
1000
0010
0100
0001
0010
0100
0010
0001
,
0010
0100
1000
0010
0100
0001
0010
0100
0010
0001
0100
0010
1000
0010
0100
0001
,
0010
0100
1000
0010
0100
0001
0010
1000
0001
0010
0100
0010
0001
1000
0010
0100
,
0001
0010
0100
1000
0010
0100
0001
0010
1000
0100
0010
0001
0010
0100
1000
0010
,
0100
0001
0010
1000
0100
0010
0001
0010
0100
1000
0100
0010
0001
0100
0010
0001
,
0010
0100
0010
1000
0001
0010
0100
1000
0001
0010
0100
1000
0010
0100
1000
0001
,
0010
0100
1000
0001
0010
0100
0001
0010
0100
1000
0100
0010
0100
0001
0010
0100
,
0001
0010
0100
1000
0010
0100
0001
0100
1000
0010
0100
0001
0010
1000
0100
0010
,
0100
0001
0010
0100
1000
0010
0100
0001
0010
1000
0100
0010
0100
0001
0010
0100
,
0001
0010
1000
0100
0010
0100
0001
0010
0100
0010
1000
0001
0010
0100
0001
0010
,
0100
1000
0010
0100
0010
0001
0100
0010
1000
0001
0010
0100
0010
0001
0100
0010
,
1000
0001
0010
0100
0010
0001
0100
0010
1000
0001
0010
0100
1000
0010
0100
0001
,
0010
0100
0010
1000
0001
0010
0100
0001
0010
0100
1000
0010
0100
1000
0100
0001
,
0100
0010
1000
0100
0010
0001
0100
0010
1000
0100
0010
0001
0010
0100
1000
0100
,
0010
0100
0001
0010
0100
1000
0100
0010
0001
0010
0100
0010
0001
0010
0100
0010
,
1001
1001
1001
1001
,
1000
0010
1100
0001
1010
0000
0101
0010
,
0101
1000
0110
0000
0011
0000
1100
0000
,
1100
0010
0101
0010
1100
0001
1100
0000
,
0101
0010
1001
0000
0110
0000
0011
0000
,
1100
0000
0110
0010
1001
0010
0110
0000
,
0101
0010
1001
0000
0110
0000
1010
0000
,
1100
0001
1100
0010
1100
0001
0110
0001
,
1010
0101
0011
0110
,
0011
1000
0110
1000
0011
1000
0011
1000
,
0101
0000
1001
0000
0011
0000
1010
0100
,
1010
0001
0110
0100
1001
0010
0011
0100
,
0011
1000
0110
0000
1001
0000
0011
0000
,
1100
0010
1001
0100
0110
0001
1010
0100
,
0101
0010
0011
0000
0101
0010
1001
0100
,
0110
0001
1010
0100
0101
0010
0011
0100
,
1001
0000
0011
0000
0101
0010
1001
0100
,
1010
0001
0110
0100
1001
0010
0101
0100
,
0011
0000
1001
0000
0011
0010
1001
0100
,
1010
0001
0110
0001
0101
0000
1001
0000
,
1010
0000
1001
0000
0011
0010
1100
0001
,
0110
0001
0110
0001
1001
0000
1001
0000
,
1010
0000
1001
0000
0011
0010
1100
0001
,
0110
0001
0110
0001
1001
0000
1001
0000
,
1010
0000
1001
0000
0011
0010
1100
0001
,
0110
0001
0110
0001
1001
0010
1010
0100
,
0010
0001
1100
0000
0011
0000
1100
0000
,
0011
0101
0011
0101
,
1010
1001
1001
1001
,
1001
0000
0000
0000
;

//---------------dance-single - ----------------
#NOTES:
     dance-single:
     :
     Challenge:
     13:
     1.000,1.000,1.000,0.000,1.000,3068.000,407.000,0.000,0.000,0.000:
0101
0010
0100
1000
0101
0010
1000
0100
1001
0010
0100
0001
1100
0001
0100
0010
,
1001
0100
1000
0010
0110
0001
1000
0001
0110
1000
0100
0010
1001
0100
1000
0010
,
1100
0001
0010
0100
1001
0100
0010
0100
0000
1010
0100
0001
0011
0100
1000
0100
,
0011
1000
0100
1000
0011
0100
0001
1100
0000
1100
0100
0001
0011
0100
1000
0100
,
0011
1000
0100
1000
0110
0100
0001
1000
0011
0100
0001
1000
0011
1000
0100
1000
,
0011
0100
0001
0010
0101
1000
0100
0010
1001
0100
1000
0010
1100
0001
0010
0100
,
1001
0100
0010
1000
0101
1000
0010
0100
1001
0010
1000
0100
0101
0010
0100
1000
,
0101
0010
1000
0100
1001
0100
0010
1000
0101
1000
0010
0100
0011
0100
0001
1000
,
0011
1000
0001
1000
0101
0010
0100
1000
0000
0100
0010
1000
0101
1000
0010
0100
,
1001
0010
0100
1000
0101
0010
1000
0100
1100
0010
1000
0001
0000
1000
0100
0001
,
0011
0100
1000
0100
0011
1000
0100
1000
0011
0100
0001
1000
0000
1000
0100
0001
,
0011
0100
1000
0100
0011
1000
0100
1000
0011
0100
0001
1000
0000
1000
0100
0001
,
0011
0100
1000
0100
0011
1000
0100
1000
0011
0100
0001
1000
0101
1000
0001
0100
,
0011
0100
1000
0010
1100
0001
0010
0100
1001
0100
0010
1000
0000
1000
0100
0001
,
0011
0100
1100
0000
0011
1000
0100
1000
0011
0100
0001
1000
0000
1000
0100
0001
,
0011
0100
1000
0100
0011
1000
0100
1000
0011
0100
0001
0010
0101
1000
0100
0010
,
0101
0110
0110
1010
0101
0110
1010
0110
,
1001
0110
0110
0101
1010
0101
1010
1100
,
0011
1001
0110
1001
0110
0110
1001
0110
,
0110
1001
0110
0110
1001
0110
1010
0011
,
1100
0011
0110
1100
1010
1100
0011
1100
,
0110
1100
0011
1100
0011
1100
0011
1100
,
0101
1010
0101
0110
1001
0110
0011
1100
,
0001
0010
0100
1000
0001
0010
0100
1000
0001
0010
0100
1000
0001
0010
0100
1000
,
0001
0010
0001
0010
0100
0010
0100
1000
0100
1000
0100
0010
0100
0010
0001
0010
,
0100
1000
0100
0010
0001
0010
0100
1000
0100
0010
0100
1000
0100
0010
0100
0010
,
0100
0001
1000
0100
0010
1000
0100
0010
0001
0100
0010
0001
0010
0100
1000
0010
,
0100
1000
0100
0010
0100
0001
0010
0100
1000
0100
0010
0001
0010
0100
0010
1000
,
0100
0010
0001
0100
0010
1000
0100
0001
0010
0100
0010
0100
1000
0100
0010
0100
,
0001
0010
0100
0010
1000
0100
0010
0001
0010
0100
0010
1000
0100
0010
0100
0001
,
0010
0100
0010
1000
0100
0010
0001
0010
0100
0010
1000
0100
0010
0100
0001
1000
,
0100
0010
0001
0010
0100
0010
1000
0100
0010
0001
0100
0010
1000
0100
0010
0001
,
0010
0100
0010
1000
0100
0010
0001
0010
0100
0010
1000
0100
0010
0001
0010
0001
,
0100
0010
1000
0100
1000
0010
0100
0001
0010
0100
0010
0100
1000
0100
0010
0001
,
0010
0100
0010
1000
0100
0010
0001
0010
0100
0010
1000
0100
0010
0100
1000
0100
,
0010
0001
0010
0100
0010
0100
0010
1000
0100
1000
0100
0010
0001
0010
0100
1000
,
0100
1000
0100
0010
0100
0010
0100
0001
0010
0100
1000
0100
0010
0100
1000
0100
,
0010
0001
0010
0100
0010
0100
1000
0100
1000
0100
0010
0100
0010
0001
0010
0100
,
1000
0010
0100
1000
0100
0010
0100
0010
1000
0100
1000
0100
0010
0001
0010
0001
,
0100
0010
0100
1000
0100
0010
0100
0010
0001
0010
0100
0010
1000
0100
0001
0010
,
0100
1000
0100
0010
0001
0010
0100
0010
1000
0100
0010
0001
0100
0010
1000
0100
,
0010
0001
0010
0100
0010
1000
0100
1000
0100
0010
0001
0100
0010
1000
0100
0010
,
0001
0010
0100
0010
1000
0100
0010
0001
0010
0100
0010
1000
0100
0010
0001
0010
,
0100
0010
1000
0100
1000
0100
0010
0100
0010
0001
0010
0100
0010
0100
0010
0100
,
1000
0100
0010
0001
0010
0100
0010
0100
0010
0001
0010
0001
0010
0001
0010
0100
,
0010
0100
1000
0100
1000
0100
0010
0100
0001
0010
0100
1000
0100
0010
0100
0010
,
0001
1000
0100
0010
0001
0010
0100
1000
0100
0010
0001
0010
0100
0010
1000
0001
,
0010
0100
1000
0100
0010
0001
0010
0100
1000
0100
0010
0100
1000
0100
0010
0001
,
0010
0000
0100
0001
1000
0000
0001
0000
0100
0000
0001
1000
0001
0000
0100
0000
,
0010
0000
1000
0010
0100
0000
0001
0000
0010
0000
0100
1000
0100
0000
0010
0000
,
1000
0000
0100
1000
0010
0000
0100
0000
0001
0000
1000
0001
0100
0000
0001
0000
,
0010
0000
0100
1000
0100
0000
0010
0000
1000
0000
0100
1000
0010
0000
1000
0000
,
1001
1001
1001
1001
1001
1001
1001
1001
,
0110
0110
0110
0110
0110
0110
0110
0110
,
1001
0110
1001
0110
1100
1010
0011
0101
,
1001
0000
0000
1010
0000
0000
1100
0000
0000
1010
0000
0000
0001
0010
0100
0000
0010
1000
0100
1000
0010
0001
0000
0000
,
0000
0001
0010
0100
1000
0100
0010
1000
0100
1000
0010
1000
0001
0100
0001
0010
,
0100
1000
0100
0010
1000
0100
1000
0010
0100
0001
0010
0100
1000
0100
0010
1000
,
0001
0010
1000
0100
0010
1000
0100
1000
0010
0100
0001
0010
0100
1000
0100
0010
,
1000
0100
1000
0010
0100
0001
0010
1000
0100
0010
1000
0100
1000
0010
0100
0001
,
0010
0100
1000
0100
0010
1000
0100
1000
0010
0100
0001
0010
0100
1000
0100
0010
,
1000
0100
0000
1000
0010
0100
0001
0010
0100
1000
0100
0010
1000
0100
1000
0010
,
0100
0001
0010
0100
1000
0100
0010
1000
0100
1000
0010
0100
0001
1000
0001
0100
,
0001
0010
0100
1000
0001
0010
0100
1000
0001
0010
0100
1000
0001
0010
0100
1000
0001
0010
0100
1000
0001
0010
0100
1000
0001
0010
0100
1000
0001
0010
0100
1000
,
0000
0000
0000
0000
0001
0010
0100
1000
0100
0010
0100
1000
0100
0001
0010
0100
,
1000
0010
0100
1000
0001
0010
0100
1000
0100
0010
0001
0010
0100
1000
0100
0010
,
1000
0100
0010
0100
1000
0001
0010
0100
0010
0001
0100
0010
0100
1000
0100
0010
,
0100
0001
0010
0100
1000
0100
0010
0001
0010
0100
1000
0100
0010
0100
0010
0001
,
1000
0000
0100
0000
1000
0100
0010
0001
0010
0100
0010
1000
0100
0010
0001
0100
,
0010
1000
0100
0010
0001
0010
0100
1000
0100
0010
0001
0010
0100
1000
0100
0001
,
0010
0000
1000
0000
0100
0010
0100
1000
0010
0100
1000
0100
0010
0001
0010
0100
,
0010
1000
0100
0010
0001
0010
0100
0010
1000
0100
1000
0100
0010
0001
0010
0100
,
1000
0000
0100
0000
1000
0100
0010
0001
0010
0100
0010
1000
0100
0010
0100
0001
,
0010
0100
0010
0100
1000
0100
0010
0001
0010
0100
0010
1000
0100
0010
0001
0100
,
0010
0000
0100
0000
1000
0010
0001
0010
0100
1000
0100
0010
0100
1000
0100
0010
,
0100
0010
0001
0010
0100
0010
1000
0100
0010
0001
0100
0010
1000
0100
0010
0001
,
1000
0000
0100
0000
1000
0010
0100
0001
0010
0100
1000
0100
0010
0001
0100
0010
,
1000
0100
0010
0001
0010
0100
0010
1000
0100
0010
0001
0010
0100
1000
0100
0010
,
0001
0010
0100
0001
1000
0100
0010
0100
1000
0100
0010
0001
0010
0100
0010
1000
,
0100
0010
0001
0100
0010
1000
0100
0010
0001
0010
0100
1000
0100
0010
0100
1000
,
0100
0010
0001
0010
0100
0010
1000
0100
0010
0001
0010
0100
0010
1000
0100
0010
,
0001
0010
0100
0010
1000
0100
0001
0010
0100
1000
0100
0010
0100
0001
1000
0100
,
0010
0100
1000
0100
0010
0001
0010
0100
0010
1000
0100
0010
0001
0010
0100
0010
,
1000
0100
0010
0100
1000
0010
0100
0001
0010
0100
0010
1000
0100
0010
0100
1000
,
0100
0010
0001
0010
0100
0010
1000
0001
0100
0010
1000
0001
0100
0010
0100
0001
,
0010
0100
0010
1000
0100
0010
0001
0010
0100
0010
1000
0100
0010
0001
0100
0010
,
1000
0100
0010
0100
1000
0100
0010
0001
0010
0100
0010
1000
0010
0100
0010
0001
,
0010
0100
1000
0100
0010
1000
0100
0010
0001
0010
0100
0010
1000
0100
0010
0100
,
0001
1000
0100
0010
0001
0010
0100
1000
0010
0100
0010
1000
0001
0010
0100
0010
,
1000
0100
0010
0100
0010
0001
1000
0100
0011
0000
0001
0000
0011
0000
0010
0000
,
1001
0100
0101
0100
0101
0100
1010
0100
,
1001
0100
0110
0010
0101
0010
1100
0010
,
0011
0010
0110
0100
1010
0100
0011
0010
,
0110
0100
1100
1000
0101
1000
0110
1000
,
0101
1000
0011
1000
0011
0100
0011
0100
,
1100
0000
0100
0000
0011
0000
0100
0000
1000
0000
0001
0010
0100
1000
0001
0010
,
0100
1000
0001
0010
0100
1000
0001
0010
0001
0010
0100
1000
0100
0010
0001
0010
,
0100
1000
0100
0010
1000
0000
0100
0000
1000
0010
0001
0010
0100
0010
1000
0100
,
0010
0001
0010
0100
1000
0000
0010
0000
1000
0100
0010
0001
0010
0100
1000
0100
,
0010
0001
0100
0001
0010
0000
0100
0000
1000
0100
0010
0001
0010
0100
0010
1000
,
0001
0100
0010
0001
0010
0000
0100
0000
1000
0010
0001
0010
0100
1000
0100
0010
,
0001
0100
0010
1000
0100
0001
0010
0000
0100
0000
1000
0010
0100
0010
0001
0010
,
0100
1000
0100
0010
0100
0001
1000
0000
0100
0000
1000
0100
0010
0001
0010
0100
,
0010
1000
0100
0010
1000
0000
0100
0000
0001
0010
0100
1000
0100
0010
0100
1000
,
0100
0010
0100
0001
1000
0000
0010
0000
1000
0100
0010
0001
0100
0010
1000
0100
,
0010
0100
0001
0010
0100
0010
1000
0100
1000
0010
0100
0010
0001
0010
0100
0010
,
0100
1000
0100
0010
0001
0010
0100
1000
0100
0010
0001
0010
0100
0010
0100
1000
,
0100
0010
0001
0010
0100
0010
1000
0100
1000
0100
0010
0001
0010
0100
1000
0000
,
0110
0000
1010
0000
0101
0000
1001
0010
,
0100
1000
0100
0010
0001
0010
0100
0010
1000
0100
0010
0001
0010
0100
0010
1000
,
0100
0010
0100
0010
0001
1000
0100
0010
0100
1000
0100
0010
0100
0001
0100
0010
,
1000
0100
0010
0001
0010
0100
1000
0010
0001
0000
0100
0000
1000
0010
0001
0010
,
0100
0010
1000
0100
0010
0001
0010
0100
0010
1000
0100
0010
0001
0010
0100
0010
,
1000
0100
0010
0001
0010
0100
0010
1000
0100
0010
0100
1000
0001
0010
0100
0010
,
0100
1000
0010
0100
0010
1000
0100
0010
0001
0010
0100
1000
0100
0010
0100
1000
,
0100
0010
0100
1000
0100
0010
0100
0010
1001
0000
0000
0000
1010
0000
0000
0000
,
0101
0000
0000
0000
1010
0000
0100
0000
1000
0010
0100
0001
0010
0100
0010
1000
,
0100
0010
0001
0010
0100
1000
0010
0100
1000
0001
0010
0100
0010
0100
1000
0100
,
0010
0100
0010
1000
0001
1000
0001
0010
0100
1000
0100
0010
0001
0010
0100
0010
,
1000
0100
0010
1000
0100
0010
0100
0010
1001
0000
0000
0000
1001
0000
0000
0000
,
1010
0000
0000
0000
1100
0000
0010
0000
1000
0001
0010
0100
0010
1000
0100
0010
,
1000
0001
0010
0100
0010
1000
0100
0010
0001
0010
0100
0010
1000
0100
0010
0001
,
0010
0100
1000
0010
0100
1000
0100
0010
0100
1000
0100
0010
0001
0010
0100
0010
,
1000
0100
0010
0001
0010
0100
1000
0100
1001
0000
0000
0000
1001
0000
0000
0000
,
1001
0000
0000
0000
1001
0000
0100
0000
1000
0010
0001
0010
0100
0010
1000
0100
,
0010
0001
0100
0010
1000
0100
0010
0100
0001
1000
0010
0100
1000
0001
0010
0001
,
0100
0010
1000
0100
0010
0001
0010
0100
1000
0100
0010
1000
0100
0010
0001
0100
,
0010
1000
0100
0010
0001
0010
0100
0010
1001
0000
0000
0000
1001
0000
0000
0000
,
1001
0000
0000
0000
1001
0000
0100
0000
1000
0010
0100
0010
1000
0100
0010
0100
,
0010
1000
0001
0010
0100
1000
0100
0010
0001
0010
0100
0010
1000
0100
0010
0001
,
0010
0100
0010
1000
0100
0010
0100
1000
0100
0010
0001
0100
0010
1000
0100
0001
,
0010
0100
1000
0100
0010
0100
0001
0010
1001
0000
0000
0000
1001
0000
0000
0000
,
1001
0000
1001
0100
1010
0100
0101
0010
,
0011
0010
0110
0100
1001
0100
1010
0100
,
1001
0010
0101
0010
1001
0100
1010
0001
,
0110
1000
0110
0100
1001
0000
1001
0000
,
1001
0000
1001
0100
1010
0100
1010
0100
,
1001
0010
0101
0010
1100
1000
0110
0001
,
0110
0010
0011
0010
1100
0010
0011
0010
,
1100
0100
0110
0100
1001
0000
1001
0000
,
1001
0000
0000
0000
1001
0000
0100
0000
1000
0010
0001
0010
0100
1000
0100
0010
,
1000
0100
0001
0010
0100
0010
1000
0100
0010
0100
1000
0100
0010
0001
0010
0100
,
0010
1000
0100
0010
1000
0100
0010
0001
0010
0100
1000
0100
1001
0000
0000
0000
,
1001
0000
0000
0000
1001
0000
0100
0000
1000
0100
0010
1000
0100
0010
0001
0100
,
0010
1000
0001
0010
0100
0010
1000
0100
0010
0100
0001
1000
0100
1000
0010
0100
,
0001
0010
0100
0010
0001
1000
0100
0010
0100
1000
0100
0010
0001
0100
1000
0010
,
0001
0010
0100
1000
0100
0010
1100
0000
0100
0000
1010
0000
0100
0000
1001
0000
,
0010
0101
1000
0110
0010
1001
0100
1010
,
0010
1100
0001
1010
0000
1010
0100
0011
,
1000
0110
1000
0110
0100
1001
0010
0101
,
1000
0010
0110
0001
0010
1100
0100
0011
,
0010
1100
1000
0110
0010
1001
0100
1010
,
0010
1100
0011
0000
1100
0100
1001
0010
,
0101
1000
0110
0010
1001
0100
1010
0010
,
1100
0001
0110
0100
1010
0100
0011
1000
,
0110
1000
1010
0100
0011
0010
0101
1000
,
0110
0010
1001
0000
1010
0100
1001
0010
,
0110
1000
0101
0010
1010
0100
1100
0010
,
0101
0010
1100
1000
0101
0010
1100
0100
,
1010
0010
1100
0001
0110
0000
1010
0000
,
1100
0000
0000
0000
0011
0000
0100
0000
1000
0100
0010
1000
0100
0010
0001
0100
,
0010
0001
0010
0100
0010
1000
0100
0010
0001
0100
0010
1000
0001
0010
0100
1000
,
0100
0010
0001
0100
0010
1000
0100
0010
0001
0010
0100
0010
1000
0100
0001
0100
,
0010
1000
0100
0001
0010
0100
0010
1000
0100
0010
0001
0100
0010
1000
0100
0010
,
0001
0100
0010
0001
1000
0100
0010
1000
0001
0010
0100
1000
0010
0100
0001
0010
,
0100
1000
0100
0010
1000
0100
0010
0001
0010
0100
1000
0100
0010
0100
0010
0001
,
1000
0100
0010
1000
0100
0010
0001
0100
0010
1000
0100
0010
0001
0010
0100
0010
,
1000
0100
0010
0001
0010
0100
1000
0100
1001
0000
0000
0000
1010
0000
0000
0000
,
1100
0000
0000
0000
1010
0000
0100
0000
1000
0100
0010
0001
0010
0100
0010
1000
,
0100
0010
0001
0010
0100
0010
1000
0100
0010
0001
0010
0100
0010
1000
0100
0001
,
0010
0100
0010
1000
0100
1000
0100
0010
0001
0010
0100
0010
1000
0100
0010
0001
,
0010
0100
1000
0100
0010
1000
0100
0010
1001
0000
0000
0000
1001
0000
0000
0000
,
1001
0000
0000
0000
1001
0000
0100
1000
0001
0010
0100
1000
0001
0010
0100
1000
,
0001
0010
0100
1000
0100
0010
0001
1000
0100
0010
0001
1000
0100
0010
0001
1000
,
0100
0010
0001
1000
0100
0010
0001
1000
0100
0010
0001
1000
0100
0010
0001
0010
,
0100
1000
0001
0010
0100
1000
0001
0010
0100
1000
0100
0010
0001
0010
0100
0010
,
1000
0000
0011
0000
0100
0010
0001
0010
0100
1000
0010
0100
0010
0001
0010
0100
,
0010
0100
1000
0100
0010
0001
0010
0100
0010
0100
0010
0001
0010
0100
1000
0010
,
0100
0001
0010
1000
0100
0010
0100
0001
0010
0100
0010
1000
0100
0010
0100
0001
,
0010
0100
0010
1000
0100
0010
0100
1000
0010
0001
0010
0100
0010
1000
0100
0010
,
0100
0010
0001
1000
0100
0010
0100
1000
0100
0010
0001
0100
0010
1000
0100
0001
,
0010
0100
0010
1000
0100
0010
0001
0010
0100
0010
1000
0100
0010
0001
0100
0010
,
1000
0100
0010
0001
0100
0010
1000
0100
0010
0001
0010
0100
1000
0010
0100
1000
,
0100
0010
0100
0001
1000
0100
0010
0100
1000
0100
0010
0001
0010
0100
0010
1000
,
0100
0010
0001
0010
0100
0010
1000
0100
0010
0001
0100
0010
1000
0100
0010
0001
,
0100
0010
1000
0001
0010
0100
0010
1000
0100
1000
0100
0010
0001
0010
0100
0010
,
1000
0100
0010
0100
0010
1000
0100
0010
0001
0010
0100
0010
1000
0100
0001
0010
,
0100
0010
1000
0100
0010
0001
0100
0010
1000
0100
0010
0100
1000
0100
0010
0001
,
0100
0010
1000
0100
0001
0010
0100
0010
1000
0100
1000
0001
0010
0100
0010
1000
,
0100
0010
0100
1000
0100
0010
0100
1000
0010
0100
0001
1000
0100
0001
0010
0100
,
0010
1000
0100
0010
0001
0100
0010
1000
0001
0010
0100
0010
1000
0100
1000
0100
,
0010
0001
0010
0100
0010
1000
0100
0001
1000
0100
0010
0100
1000
0100
0010
0001
,
0010
0100
0010
1000
0001
0100
0010
1000
0100
0010
0001
0010
0100
0010
1000
0100
,
0010
0100
0010
0001
0010
0100
1000
0100
1000
0010
0100
0010
0001
0010
0100
0010
,
1000
0001
0100
0010
1000
0100
0010
0100
0001
0010
0100
1000
0100
0010
0001
0010
,
0100
0010
1000
0100
0010
1000
0100
0010
0001
0100
0010
1000
0100
0010
0100
1000
,
0100
0010
0001
0100
0010
1000
0100
0010
0100
1000
0010
0100
0001
0100
0010
1000
,
0100
0010
0001
0100
0010
1000
0100
0001
1000
0100
0010
0100
1000
0001
0100
0010
,
1000
0100
0010
0001
0100
0010
1000
0100
0001
0010
0100
1000
0100
0010
0001
0100
,
0010
1000
0100
0001
0010
0100
1000
0100
0010
0001
0010
0100
1000
0010
0100
1000
,
0100
0010
0100
0001
1000
0100
0010
0001
1000
0100
0010
0001
0100
0010
0001
1000
,
0100
0010
0001
1000
0100
0010
1000
0100
0010
0001
0010
0100
0010
1000
0100
0010
,
1000
0100
0010
0001
0100
0010
1000
0010
0001
0100
0010
1000
0100
0001
0010
0100
,
0010
1000
0100
0010
0001
0100
0010
1000
0100
0001
0010
0100
0010
1000
0100
0010
,
1000
0100
0001
0010
0100
0010
1000
0100
0010
0100
0001
1000
0100
0010
1000
0100
,
0010
0001
0100
0010
0100
1000
0010
0100
0001
1000
0100
0010
0100
1000
0010
0100
,
0001
1000
0100
0010
0100
1000
0010
0100
0001
1000
0100
0010
0001
0100
0010
1000
,
0100
0010
0100
0001
1000
0100
0010
1000
0100
0010
0001
0100
0010
0001
0010
1000
,
0010
0100
0001
0010
0100
1000
0010
0100
0001
0010
0100
1000
0100
0010
0001
0010
,
0100
0010
1000
0100
0010
0001
0010
0100
1000
0100
0010
0100
1000
0100
0010
0100
,
1001
1001
1001
1001
,
0001
0100
0011
1000
0101
0000
1010
0100
,
1010
0001
0110
0000
1100
0000
0011
0000
,
0011
0100
1010
0100
0011
1000
0011
0000
,
1010
0100
1001
0000
0110
0000
1100
0000
,
0011
0000
0110
0100
1001
0100
0110
0000
,
1010
0100
1001
0000
0110
0000
0101
0000
,
0011
1000
0011
0100
0011
1000
0110
1000
,
0101
1010
1100
0110
,
1100
0001
0110
0001
1100
0001
1100
0001
,
1010
0000
1001
0000
1100
0000
0101
0010
,
0101
1000
0110
0010
1001
0100
1100
0010
,
1100
0001
0110
0000
1001
0000
1100
0000
,
0011
0100
1001
0010
0110
1000
0101
0010
,
1010
0100
1100
0000
1010
0100
1001
0010
,
0110
1000
0101
0010
1010
0100
1100
0010
,
1001
0000
1100
0000
1010
0100
1001
0010
,
0101
1000
0110
0010
1001
0100
1010
0010
,
1100
0000
1001
0000
1100
0100
1001
0010
,
0101
1000
0110
1000
1010
0000
1001
0000
,
0101
0000
1001
0000
1100
0100
0011
1000
,
0110
1000
0110
1000
1001
0000
1001
0000
,
0101
0000
1001
0000
1100
0100
0011
1000
,
0110
1000
0110
1000
1001
0000
1001
0000
,
0101
0000
1001
0000
1100
0100
0011
1000
,
0110
1000
0110
1000
1001
0100
0101
0010
,
0100
1000
0011
0000
1100
0000
0011
0000
,
1100
1010
1100
1010
,
0101
1001
1001
1001
,
1001
0000
0000
0000
;
