#TITLE:CAPTAIN JACK;
#SUBTITLE:(DISKONECTION HARD TRANCE 2004 REMIX);
#ARTIST:CAPTAIN JACK;
#TITLETRANSLIT:;
#SUBTITLETRANSLIT:;
#ARTISTTRANSLIT:;
#CREDIT:;
#BANNER:captainjackremix.png;
#BACKGROUND:captainjackremix-bg.png;
#LYRICSPATH:;
#CDTITLE:;
#MUSIC:captainjackremix.ogg;
#OFFSET:-8.029;
#SAMPLESTART:39.880;
#SAMPLELENGTH:14.000;
#SELECTABLE:YES;
#BPMS:0.000=150.000;
#STOPS:;
#BGCHANGES:;
// cache tags:
#FIRSTBEAT:0.000;
#LASTBEAT:208.000;
#SONGFILENAME:Songs/in the groove2/captain jack hard trance remix/captainjackremix.sm;
#HASMUSIC:1;
#HASBANNER:0;
#MUSICLENGTH:97.645;
// end cache tags

//---------------dance-single - ----------------
#NOTES:
     dance-single:
     :
     Beginner:
     1:
     0.108,0.133,0.000,0.051,0.000,69.000,0.000,5.000,0.000,0.000:
1000
0000
0000
0000
,
0001
0000
0000
0000
,
0000
0000
0000
0000
,
0010
0010
0010
0000
,
0010
0000
0000
0000
,
0100
0000
0000
0000
,
0000
0000
0000
0000
,
1000
1000
1000
0000
,
1000
0000
0000
0000
,
0001
0000
0000
0000
,
0010
0000
0000
0000
,
0100
0000
0000
0000
,
0010
0000
0000
0000
,
0001
0000
0000
0000
,
1000
0000
0000
0000
,
0010
0000
0010
0010
,
0020
0030
0000
0000
,
0200
0300
0000
0000
,
0000
0000
0000
0000
,
0000
0000
0000
0000
,
0002
0003
0000
0000
,
2000
3000
0000
0000
,
0000
0000
0000
0000
,
0000
0000
0010
0010
,
0010
0000
0000
0000
,
0100
0000
0000
0000
,
0001
0001
0000
0000
,
1000
1000
0000
0000
,
1000
0000
0000
0000
,
0001
0000
0000
0000
,
0010
0010
0000
0000
,
0100
0100
0000
0000
,
0200
0000
0000
0300
,
0100
0000
0000
0100
,
0100
0000
0000
0000
,
0010
0000
0000
0010
,
0010
0000
0000
0000
,
0001
0000
0000
0001
,
0001
0000
0000
0000
,
1000
0000
0000
1000
,
1000
0000
0000
0000
,
0010
0000
0000
0010
,
0010
0000
0000
0000
,
0100
0000
0000
0100
,
0100
0000
0000
0000
,
0001
0000
0000
0001
,
0001
0000
0000
0000
,
1000
0000
0000
1000
,
1000
0000
0000
0000
,
0010
0000
0000
0010
,
0010
0000
0000
0000
,
0100
0000
0000
0100
,
0100
0000
0000
0000
;

//---------------dance-single - ----------------
#NOTES:
     dance-single:
     :
     Easy:
     3:
     0.218,0.240,0.010,0.154,0.000,133.000,1.000,15.000,0.000,0.000:
1000
0010
0100
0001
,
0100
0010
2000
0000
,
3001
0000
0001
0000
,
1000
0001
0020
0000
,
0130
0010
0100
0000
,
0001
0100
0010
1000
,
0100
0000
0010
0000
,
0001
0001
0001
0001
,
1000
0010
1000
0010
,
0100
0001
0100
0001
,
2000
0000
3002
0000
,
0023
0000
0230
0000
,
1300
0010
0100
0010
,
1000
0001
0010
0100
,
0020
0000
0230
0000
,
0320
0000
0000
0000
,
0031
0000
0000
0000
,
1000
0000
0000
0000
,
0010
0000
0010
0000
,
0010
0010
0010
0000
,
0100
0000
0000
0000
,
0001
0000
0000
0000
,
1000
0000
0100
0000
,
0010
0010
0010
0010
,
0010
0000
0100
0000
,
1000
0000
0010
0000
,
0100
0000
0001
0000
,
0010
0000
0001
0000
,
0100
0000
0010
0000
,
1000
0000
0100
0000
,
1000
0000
0010
0000
,
0100
0001
0100
0000
,
0220
0000
0000
0330
,
1000
0000
0001
0010
,
0001
0010
0100
0000
,
0010
0100
2000
0000
,
3010
0100
0001
0000
,
0100
0010
1000
0000
,
0020
0000
0230
0000
,
0301
0000
0001
1000
,
0100
0000
0010
0100
,
0010
0000
1000
0001
,
1000
0000
0100
0010
,
0100
0010
0001
0000
,
0100
0000
0001
0000
,
1000
0000
0000
0000
,
0100
0000
1000
0010
,
0100
0000
0001
0001
,
1000
0000
0100
0000
,
1000
0000
0010
0100
,
0001
0000
0000
1000
,
0010
0100
0002
0000
,
1003
0000
0000
0000
;

//---------------dance-single - ----------------
#NOTES:
     dance-single:
     :
     Medium:
     5:
     0.360,0.346,0.000,0.348,0.000,212.000,0.000,34.000,0.000,0.000:
1000
0010
0100
0000
0001
0000
0100
0000
,
0001
0010
0100
0000
1000
0000
0010
0000
,
0200
0301
0002
1003
,
1000
0100
0010
0000
0100
0000
0010
0000
,
0100
1000
0010
0000
0100
0010
0100
0000
,
0001
0000
0010
0000
0001
0010
0100
0000
,
2000
3010
0002
0103
,
0100
0010
1000
0010
0100
0000
0001
0000
,
0020
0000
0230
0000
,
2300
0000
3002
0000
,
0203
0000
0320
0000
,
2030
0000
3002
0000
,
0023
0000
0032
0000
,
0203
0000
0320
0000
,
2030
0000
3200
0000
,
2300
0000
3020
0000
,
0130
0001
0200
0000
,
0310
1000
0020
0000
,
0130
0100
0100
0100
,
0010
0010
0010
0010
,
0200
0000
0000
0000
,
0320
0000
0000
0000
,
1030
1000
0001
0001
,
0010
0100
0010
0100
,
1000
0000
1000
0000
0010
0100
0001
0000
,
0010
0000
0001
0000
0010
0100
1000
0000
,
2000
3010
0200
0301
,
0010
0100
0010
0000
0100
0000
1000
0000
,
0001
0100
0010
0000
0100
0001
0010
0000
,
0100
1000
0001
1000
,
0002
0013
0020
0130
,
0100
1000
0100
0000
2000
0000
3010
0000
,
0200
0010
0010
0010
,
0310
0000
0100
0000
0001
0000
0010
0100
,
1000
0000
0010
0000
0100
0000
0010
1000
,
0001
0000
0010
0001
0100
0001
0010
0000
,
0100
0000
1000
0000
0010
1000
0010
0000
,
0100
0000
1000
0000
0100
0000
1000
0100
,
1000
0100
0010
1000
,
0001
0010
0200
0310
,
0001
0000
0100
0000
0001
0000
0010
0100
,
1000
0010
0100
0010
,
1000
0100
0010
0001
,
0100
0000
0001
0000
0010
0000
0100
0010
,
0100
1000
0001
0100
,
0001
0000
0010
0000
0100
0000
0010
0001
,
0100
0001
0010
0001
,
1000
0010
0100
0000
0002
0000
1003
0000
,
0100
0000
0010
0000
0100
0000
1000
0001
,
0200
0000
0310
0000
1000
0000
0001
0100
,
0010
0000
0100
0000
0010
0000
0100
0010
,
0100
0001
1000
0200
,
0310
0000
0000
0000
;

//---------------dance-single - ----------------
#NOTES:
     dance-single:
     :
     Hard:
     8:
     0.500,0.479,0.154,0.092,0.041,318.000,15.000,9.000,0.000,0.000:
0010
1000
0100
0010
0100
0000
0110
0000
,
0100
1000
0001
0100
0001
0000
1001
0000
,
0010
1000
0010
0000
0100
0001
0100
0000
,
0001
0010
0100
1000
0010
0000
1001
0000
,
0010
0100
0001
1000
0100
0000
0110
0000
,
0100
1000
0001
0100
0010
0000
0110
0000
,
0001
0010
0001
0000
0100
1000
0100
0000
,
1000
0010
0100
0001
0010
0100
2000
0000
,
3010
0000
0100
0000
0001
0010
0100
0000
,
0010
0100
1000
0010
0100
0001
1000
0000
,
0010
0000
0100
0000
0001
1000
0010
0000
,
1000
0000
0001
0000
1000
0100
1000
0010
,
0100
0000
0001
0000
0010
0100
1000
0000
,
0010
0100
0010
1000
0100
0000
0010
0000
,
0001
0100
0001
0000
0010
0100
1000
0000
,
0010
0000
0100
0000
0001
1000
0100
0010
,
0001
0000
1001
0000
0010
0100
1000
0000
,
1000
0000
1001
0000
0100
0010
0001
0000
,
0100
0010
0100
0000
0010
1000
0010
0000
,
0100
0001
0100
0000
0001
1000
0001
0000
,
0010
0100
1000
0010
0100
0000
1001
0000
,
0100
0010
0001
0100
0010
0000
1001
0000
,
1000
0110
0010
1001
,
1000
0100
0010
0000
0100
0010
0001
0000
,
0100
0001
0010
0100
1000
0010
0100
0000
,
0010
0100
0001
0010
0100
1000
0010
0000
,
1000
0010
0100
0000
0001
0010
0100
0000
,
0010
0100
1000
0010
0100
0010
1000
0000
,
0100
0010
0001
0010
0100
0010
1000
0000
,
0010
0100
1000
0001
0100
0010
0100
0000
,
1000
0100
0010
0000
0100
0001
0010
0000
,
0100
1000
0010
0100
0001
0010
0100
0000
,
0220
0000
0000
0300
0100
0000
0100
0000
,
0130
0000
0010
1000
0010
1000
0010
0100
,
0001
0000
0001
0010
0001
0010
0100
0010
,
0100
1000
0010
0100
0002
0000
0103
0010
,
0100
0000
0010
1000
0100
0010
0100
1000
,
0010
0000
0100
0001
0010
0001
0100
0010
,
1000
0000
0101
0000
0010
0100
0010
0001
,
0010
0000
1000
0000
0010
0100
0010
1000
,
0010
0000
0100
0000
1000
0001
0100
0010
,
0100
0000
0001
0000
0010
0001
0100
0010
,
1000
0000
0100
0000
0010
0000
0100
1000
,
0010
0100
0001
0010
0200
0000
0000
0310
,
0100
0000
0010
0001
0100
0010
1000
0100
,
1000
0000
0010
0000
0100
0001
0010
0100
,
2000
0000
3010
0000
0100
0010
0100
0001
,
1000
0100
1010
0101
,
0001
0000
0000
0000
0100
0000
0000
0010
0000
1000
0001
0000
1000
0000
0100
0000
,
0020
0000
0000
0000
0030
0000
0100
0000
0000
0100
0000
1000
0001
0000
0010
0000
,
0200
0000
0000
0000
0310
0000
0000
0100
0000
0001
1000
0000
0010
0000
0100
0000
,
1000
0000
0100
0000
0010
0000
0100
0000
0001
0000
0000
0001
0000
0100
0020
0000
,
1030
0000
0000
0000
;
