#TITLE:MAD KEYBOARD ZONE;
#SUBTITLE:;
#ARTIST:Tatsh & Naoki feat. Angry German Kid;
#TITLETRANSLIT:;
#SUBTITLETRANSLIT:;
#ARTISTTRANSLIT:;
#CREDIT:;
#BANNER:MAD KEYBOARD ZONE-bn.png;
#BACKGROUND:MAD KEYBOARD ZONE-bg.png;
#LYRICSPATH:;
#CDTITLE:!CDTitle.png;
#MUSIC:MAD KEYBOARD ZONE.mp3;
#OFFSET:-4.440;
#SAMPLESTART:40.760;
#SAMPLELENGTH:11.700;
#SELECTABLE:YES;
#BPMS:0.000=165.000;
#STOPS:;
#BGCHANGES:229.000=MAD KEYBOARD ZONE-bg1.png=1.000=0=0=1,
229.500=MAD KEYBOARD ZONE-bg2.png=1.000=0=0=1,
230.000=MAD KEYBOARD ZONE-bg3.png=1.000=0=0=1,
230.500=MAD KEYBOARD ZONE-bg4.png=1.000=0=0=1,
231.000=MAD KEYBOARD ZONE-bg5.png=1.000=0=0=1,
231.500=MAD KEYBOARD ZONE-bg6.png=1.000=0=0=1,
232.000=MAD KEYBOARD ZONE-bg7.png=1.000=0=0=1,
275.000=MAD KEYBOARD ZONE-bg6.png=1.000=0=0=1,
275.500=MAD KEYBOARD ZONE-bg5.png=1.000=0=0=1,
276.000=MAD KEYBOARD ZONE-bg4.png=1.000=0=0=1,
276.500=MAD KEYBOARD ZONE-bg3.png=1.000=0=0=1,
277.000=MAD KEYBOARD ZONE-bg2.png=1.000=0=0=1,
277.500=MAD KEYBOARD ZONE-bg1.png=1.000=0=0=1,
278.000=MAD KEYBOARD ZONE-bg.png=1.000=0=0=1,
99999=-nosongbg-=1.000=0=0=0 // don't automatically add -songbackground-
;
// cache tags:
#FIRSTBEAT:0.000;
#LASTBEAT:278.250;
#SONGFILENAME:Songs/Hard Songs Megapack Volume 9/Mad Keyboard Zone/MAD KEYBOARD ZONE.sm;
#HASMUSIC:1;
#HASBANNER:1;
#MUSICLENGTH:107.075;
// end cache tags

//---------------dance-single - \----------------
#NOTES:
     dance-single:
     \:
     Hard:
     13:
     1.000,1.000,1.000,1.000,1.000,715.000,305.000,161.000,0.000,35.000:
0010
0010
0010
0010
0010
0000
0010
0010
0000
0010
0010
0000
0010
0010
0010
0000
,
0100
1000
1000
0010
1000
1000
0010
0100
0100
0001
0100
0100
0001
0010
0001
0000
,
0100
0100
1000
0001
0010
0010
0001
1000
0100
0100
1000
0001
0010
0000
0000
0000
,
0100
1000
1000
0010
1000
1000
0010
0100
0100
0001
0100
0100
0001
0010
0001
0000
,
0010
0100
1000
0001
0010
0100
0010
0100
1001
0000
1001
0000
1001
1001
1001
0000
,
0100
1000
1000
0010
1000
1000
0010
0100
0100
0001
0100
0100
0001
0010
0001
0000
,
0100
0100
1000
0001
1000
1000
0010
0100
0010
0010
0001
1000
0001
0001
0100
0010
,
0100
1000
1000
0010
1000
1000
0010
0100
0100
0010
0100
0100
0010
0100
1000
0001
,
0100
0020
0000
0030
0010
0000
1000
0001
0001
0001
0000
1000
0010
0100
0010
0001
,
0220
0000
0330
0000
1001
0000
1001
0220
0000
0330
1001
0000
1001
1001
0000
0000
,
1001
1001
1001
1001
0110
0000
1001
1001
0110
0000
0011
0000
1100
0000
1001
0000
,
0100
1000
1000
0010
1000
1000
0010
0100
0100
0001
0100
0100
0001
0010
0001
0000
,
0100
0100
1000
0001
1000
1000
0010
0100
0010
0010
0001
1000
0001
0001
0100
0010
,
0202
0000
0000
0303
0000
0000
0000
0000
0101
0000
0000
0000
0101
0000
0202
0000
0000
0303
0000
0000
1010
0000
0000
0000
1010
0000
0000
0000
0000
0000
0000
0000
,
1100
0000
1100
1100
1100
0000
0011
0000
1100
0011
0011
0000
0022
0000
0033
0000
,
0100
1000
1000
0010
1000
1000
0010
0100
0100
0001
0100
0100
0001
0010
0001
0000
,
0100
0000
0000
0000
0001
0000
0000
0000
0000
0000
0000
0000
0000
0001
0000
0000
0000
0000
0000
0000
0000
0000
0000
0000
1000
0000
0000
0000
0000
0000
0000
1000
0000
0000
0000
0000
0000
0000
0000
0000
0000
0000
0000
0000
0000
0000
0000
0000
0010
0000
0000
0000
0100
0000
0000
0000
0000
0000
0000
0000
0000
0000
0000
0000
,
0101
0000
1000
0000
0100
0000
1000
0000
0110
0010
1000
0001
0000
1000
0100
0100
,
0011
0010
1000
0000
0100
0000
1000
0000
0110
0010
1000
0001
1000
0100
0010
0010
,
0101
0000
1000
0000
0100
0000
1000
0000
0110
0010
1000
0002
0000
0003
1000
0000
,
0011
1000
0100
1000
0001
0000
0100
0000
0011
1000
0002
0000
0000
0000
0000
0003
,
0101
0000
1000
0000
0100
0000
1000
0000
0110
0010
1000
0001
0000
1000
0100
0100
,
0011
0010
1000
0000
0100
0000
1000
0000
0110
0010
1000
0001
1000
0100
0010
0010
,
0101
0000
1000
0000
0100
0000
1000
0000
0110
0010
1000
0002
0000
0003
1000
0000
,
0011
1000
0100
1000
0001
0000
0100
0000
0011
1000
0002
0000
0000
0000
0000
0003
,
1010
0000
1001
0000
0101
0000
1010
1001
0000
0101
0000
1010
1001
0000
0101
0000
,
0110
0000
0110
0110
0110
0000
1000
0000
0010
0001
0100
1000
0101
0000
0011
0000
,
1010
0000
1001
0000
0101
0000
1010
1001
0000
0101
0000
1010
0011
0000
0101
0000
,
1000
0100
0001
1000
0100
0001
1000
0100
0001
1000
0100
0001
0020
0000
0000
0030
,
1010
0000
1001
0000
0101
0000
1010
1001
0000
0101
0000
1010
0001
0001
0010
1000
,
0100
0000
0001
0000
1000
0000
0202
0000
0303
0000
0000
0000
0220
0000
0330
0000
0000
0000
0202
0000
0303
0000
0000
0000
0022
0000
0033
0000
0000
0000
0202
0003
,
1010
0000
0311
0000
0011
0000
0011
0011
1100
0010
0100
0110
2002
0000
3003
0000
,
1100
0010
0100
0110
1001
0000
1100
0010
0101
0000
0101
0101
0011
0000
0011
0000
,
2020
3030
0022
0033
2002
3003
0000
0000
,
2020
3030
0220
0330
2200
3300
0000
0000
,
2021
3030
2012
3003
2201
0001
0000
0001
,
0022
0000
0000
3333
1010
0000
0101
0000
1001
1001
1001
1001
2002
0000
0000
3003
,
2020
3030
0022
0033
2002
3003
0000
0000
,
2020
3030
0220
0330
2200
3300
0000
0000
,
2021
0000
3030
0000
2012
0000
3003
0000
2201
0000
0011
0000
0011
0000
0011
0011
,
0022
0000
0000
3333
2002
0000
0000
3003
0220
0000
0000
0330
0001
1000
0000
0000
,
0012
0000
0000
0000
0000
0003
0100
0000
1010
0000
1000
1000
0010
0000
0001
0000
,
1001
0000
0100
0000
0001
0000
0100
0000
1001
0000
0001
0001
0101
0000
0001
0000
,
1020
0000
0000
0030
0001
0000
1000
0000
0011
0001
0001
0001
0010
0010
0100
0100
,
1001
1000
0100
0100
0010
0010
0100
0100
1001
0001
0100
0100
0001
0001
0010
0010
,
2102
0000
0000
0000
0000
0000
0000
3003
1220
0000
0330
0000
2002
0000
3003
0000
,
1010
0000
0002
0000
0003
0000
1000
1000
1010
0000
0001
0000
1100
0000
0010
0000
,
1002
0000
0000
0003
0200
0000
0000
0300
0011
0000
2000
0000
3000
0000
0001
0000
,
1200
0000
0000
0300
0200
0000
0000
0300
0201
0000
0000
0300
0200
0000
0000
0300
,
1010
0000
1001
0000
0101
0000
1010
1001
0000
0101
0000
1010
1001
0000
0101
0000
,
0110
0000
0010
0100
0001
1000
1000
0000
0110
0000
1001
0000
0110
0000
1001
0000
,
1010
0000
1001
0000
0101
0000
1010
1001
0000
0101
0000
1010
1001
0000
0101
0000
,
1000
0000
1000
1000
1000
0100
0010
0000
0001
0010
0100
1000
0110
0000
1001
0000
,
1010
0000
1001
0000
0101
0000
1010
1001
0000
0101
0000
1010
1010
0101
1010
0101
,
1000
0001
1000
0002
0000
0003
0020
0000
0030
0200
0000
0300
0020
0000
0030
0002
,
1010
0000
0100
1000
0010
0000
0010
0010
1000
0000
0100
0010
1000
0000
0100
0010
,
1000
1000
1000
1000
1000
0003
0100
0010
1002
0010
1003
0120
0000
0030
0202
0000
,
0000
0303
0020
0230
0320
0230
0320
0230
0320
0230
0320
0230
0320
0230
0320
0130
,
0011
0011
1100
1010
0101
0101
1001
0011
1010
1010
0011
0110
1100
1100
1001
0011
,
1001
1001
0101
1100
1001
1001
0101
1100
0110
0110
1010
0011
0110
0110
1010
0011
,
0101
0101
1010
0110
0101
0101
1010
0110
0101
0101
1010
0110
0101
0101
1010
0110
,
0011
0011
1100
1100
0011
0011
1100
1100
0011
0011
1100
1100
0110
0110
1001
1001
,
0110
0000
1002
1003
0110
0000
1002
0003
0110
0000
0101
1001
0102
0003
0102
0003
,
0110
0000
1002
0003
1002
0003
1002
0003
0110
0000
1001
0001
1002
0003
0100
0010
,
0001
0010
1000
0100
1002
0013
1000
0100
0001
0010
1000
0100
0021
0130
0001
1000
,
0001
0100
1000
0010
2001
0100
0001
3100
0001
0010
0100
1000
0021
0100
0001
1030
,
2200
0000
0000
3300
0000
0000
0022
0000
0000
0033
0000
0000
2200
0000
0000
3300
0000
0000
0000
0000
0011
0000
0000
0000
1100
0000
0000
0000
0011
0000
0000
0000
,
2220
0000
0000
3330
0000
0000
0222
0000
0000
0333
0000
0000
2220
0000
0000
3330
0000
0000
0000
0000
0111
0000
0000
0000
1110
0000
0000
0000
0111
0000
0000
0000
,
2222
0000
0000
0000
0000
0000
0000
0000
0000
0000
0000
0000
0000
0000
0000
3030
,
2323
3232
2323
3232
2323
3232
2323
3232
2323
3030
0000
0000
0000
0000
0000
0000
;
