#TITLE:Plasticworld;
#SUBTITLE:;
#ARTIST:Pendulum ft. Fats & TC;
#TITLETRANSLIT:;
#SUBTITLETRANSLIT:;
#ARTISTTRANSLIT:;
#CREDIT:;
#BANNER:plasticworldbn.png;
#BACKGROUND:plasticworldbg.png;
#LYRICSPATH:;
#CDTITLE:;
#MUSIC:plasticworld.ogg;
#OFFSET:0.006;
#SAMPLESTART:88.275;
#SAMPLELENGTH:22.070;
#SELECTABLE:YES;
#BPMS:0.000=174.000;
#STOPS:;
#BGCHANGES:;
// cache tags:
#FIRSTBEAT:32.000;
#LASTBEAT:996.000;
#SONGFILENAME:Songs/Pendulum/Plasticworld/plasticworld.sm;
#HASMUSIC:1;
#HASBANNER:1;
#MUSICLENGTH:346.250;
// end cache tags

//---------------dance-single - I. Pyles----------------
#NOTES:
     dance-single:
     I. Pyles:
     Beginner:
     1:
     0.024,0.036,0.000,0.000,0.000,59.000,0.000,0.000,0.000,0.000:

0000
0000
0000
0000
,
0000
0000
0000
0000
,
0000
0000
0000
0000
,
0000
0000
0000
0000
,
0000
0000
0000
0000
,
0000
0000
0000
0000
,
0000
0000
0000
0000
,
0000
0000
0000
0000
,
0010
0000
0000
0000
,
0000
0000
0000
0000
,
0000
0000
0000
0000
,
0000
0000
0000
0000
,
0100
0000
0000
0000
,
0000
0000
0000
0000
,
0000
0000
0000
0000
,
0000
0000
0000
0000
,
0001
0000
0000
0000
,
0000
0000
0000
0000
,
0000
0000
0000
0000
,
0000
0000
0000
0000
,
1000
0000
0000
0000
,
0000
0000
0000
0000
,
0000
0000
0000
0000
,
0000
0000
0000
0000
,
0010
0000
0000
0000
,
0000
0000
0000
0000
,
0000
0000
0000
0000
,
0000
0000
0000
0000
,
0010
0000
0000
0000
,
0000
0000
0000
0000
,
0000
0000
0000
0000
,
0000
0000
0000
0000
,
0100
0000
0000
0000
,
0000
0000
0000
0000
,
0000
0000
0000
0000
,
0000
0000
0000
0000
,
0010
0000
0000
0000
,
0000
0000
0000
0000
,
0000
0000
0000
0000
,
0000
0000
0000
0000
,
0100
0000
0000
0000
,
0000
0000
0000
0000
,
0000
0000
0000
0000
,
0000
0000
0000
0000
,
1000
0000
0000
0000
,
0000
0000
0000
0000
,
0000
0000
0000
0000
,
0000
0000
0000
0000
,
0001
0000
0000
0000
,
0000
0000
0000
0000
,
0000
0000
0000
0000
,
0000
0000
0000
0000
,
0100
0000
0000
0000
,
0000
0000
0000
0000
,
0000
0000
0000
0000
,
0000
0000
0000
0000
,
1000
0000
0000
0000
,
0000
0000
0000
0000
,
0000
0000
0000
0000
,
0000
0000
0000
0000
,
0100
0000
0000
0000
,
0000
0000
0000
0000
,
0000
0000
0000
0000
,
0000
0000
0000
0000
,
0001
0000
0000
0000
,
0000
0000
0000
0000
,
0000
0000
0000
0000
,
0000
0000
0000
0000
,
0010
0000
0000
0000
,
0000
0000
0000
0000
,
0000
0000
0000
0000
,
0000
0000
0000
0000
,
0001
0000
0000
0000
,
0000
0000
0000
0000
,
0000
0000
0000
0000
,
0000
0000
0000
0000
,
0001
0000
0000
0000
,
0000
0000
0000
0000
,
0000
0000
0000
0000
,
0000
0000
0000
0000
,
0100
0000
0000
0000
,
0000
0000
0000
0000
,
0000
0000
0000
0000
,
0000
0000
0000
0000
,
0100
0000
0000
0000
,
0000
0000
0000
0000
,
0000
0000
0000
0000
,
0000
0000
0000
0000
,
1000
0000
0000
0000
,
0000
0000
0000
0000
,
0000
0000
0000
0000
,
0000
0000
0000
0000
,
0100
0000
0000
0000
,
0000
0000
0000
0000
,
0000
0000
0000
0000
,
0000
0000
0000
0000
,
0001
0000
0000
0000
,
0000
0000
0000
0000
,
0000
0000
0000
0000
,
0000
0000
0000
0000
,
0001
0000
0000
0000
,
0000
0000
0000
0000
,
0000
0000
0000
0000
,
0000
0000
0000
0000
,
0100
0000
0000
0000
,
0000
0000
0000
0000
,
0000
0000
0000
0000
,
0000
0000
0000
0000
,
1000
0000
0000
0000
,
0000
0000
0000
0000
,
0000
0000
0000
0000
,
0000
0000
0000
0000
,
0010
0000
0000
0000
,
0000
0000
0000
0000
,
0000
0000
0000
0000
,
0000
0000
0000
0000
,
0100
0000
0000
0000
,
0000
0000
0000
0000
,
0000
0000
0000
0000
,
0000
0000
0000
0000
,
0100
0000
0000
0000
,
0000
0000
0000
0000
,
0000
0000
0000
0000
,
0000
0000
0000
0000
,
1000
0000
0000
0000
,
0000
0000
0000
0000
,
0000
0000
0000
0000
,
0000
0000
0000
0000
,
0001
0000
0000
0000
,
0000
0000
0000
0000
,
0000
0000
0000
0000
,
0000
0000
0000
0000
,
0000
0000
0000
0000
,
0000
0000
0000
0000
,
0000
0000
0000
0000
,
0000
0000
0000
0000
,
0010
0000
0000
0000
,
0000
0000
0000
0000
,
0000
0000
0000
0000
,
0000
0000
0000
0000
,
1000
0000
0000
0000
,
0000
0000
0000
0000
,
0000
0000
0000
0000
,
0000
0000
0000
0000
,
0100
0000
0000
0000
,
0000
0000
0000
0000
,
0000
0000
0000
0000
,
0000
0000
0000
0000
,
0010
0000
0000
0000
,
0000
0000
0000
0000
,
0000
0000
0000
0000
,
0000
0000
0000
0000
,
0001
0000
0000
0000
,
0000
0000
0000
0000
,
0000
0000
0000
0000
,
0000
0000
0000
0000
,
0100
0000
0000
0000
,
0000
0000
0000
0000
,
0000
0000
0000
0000
,
0000
0000
0000
0000
,
0001
0000
0000
0000
,
0000
0000
0000
0000
,
0000
0000
0000
0000
,
0000
0000
0000
0000
,
0100
0000
0000
0000
,
0000
0000
0000
0000
,
0000
0000
0000
0000
,
0000
0000
0000
0000
,
0001
0000
0000
0000
,
0000
0000
0000
0000
,
0000
0000
0000
0000
,
0000
0000
0000
0000
,
0010
0000
0000
0000
,
0000
0000
0000
0000
,
0000
0000
0000
0000
,
0000
0000
0000
0000
,
0001
0000
0000
0000
,
0000
0000
0000
0000
,
0000
0000
0000
0000
,
0000
0000
0000
0000
,
0001
0000
0000
0000
,
0000
0000
0000
0000
,
0000
0000
0000
0000
,
0000
0000
0000
0000
,
1000
0000
0000
0000
,
0000
0000
0000
0000
,
0000
0000
0000
0000
,
0000
0000
0000
0000
,
0100
0000
0000
0000
,
0000
0000
0000
0000
,
0000
0000
0000
0000
,
0000
0000
0000
0000
,
1000
0000
0000
0000
,
0000
0000
0000
0000
,
0000
0000
0000
0000
,
0000
0000
0000
0000
,
0010
0000
0000
0000
,
0000
0000
0000
0000
,
0000
0000
0000
0000
,
0000
0000
0000
0000
,
0001
0000
0000
0000
,
0000
0000
0000
0000
,
0000
0000
0000
0000
,
0000
0000
0000
0000
,
1000
0000
0000
0000
,
0000
0000
0000
0000
,
0000
0000
0000
0000
,
0000
0000
0000
0000
,
1000
0000
0000
0000
,
0000
0000
0000
0000
,
0000
0000
0000
0000
,
0000
0000
0000
0000
,
0010
0000
0000
0000
,
0000
0000
0000
0000
,
0000
0000
0000
0000
,
0000
0000
0000
0000
,
1000
0000
0000
0000
,
0000
0000
0000
0000
,
0000
0000
0000
0000
,
0000
0000
0000
0000
,
0100
0000
0000
0000
,
0000
0000
0000
0000
,
0000
0000
0000
0000
,
0000
0000
0000
0000
,
0001
0000
0000
0000
,
0000
0000
0000
0000
,
0000
0000
0000
0000
,
0000
0000
0000
0000
,
1000
0000
0000
0000
,
0000
0000
0000
0000
,
0000
0000
0000
0000
,
0000
0000
0000
0000
,
0001
0000
0000
0000
,
0000
0000
0000
0000
,
0000
0000
0000
0000
,
0000
0000
0000
0000
,
0001
0000
0000
0000
,
0000
0000
0000
0000
,
0000
0000
0000
0000
,
0000
0000
0000
0000
,
0001
0000
0000
0000
,
0000
0000
0000
0000
,
0000
0000
0000
0000
,
0000
0000
0000
0000
,
0000
0000
0000
0000
,
0000
0000
0000
0000
,
0000
0000
0010
0000
;

//---------------dance-single - I. Pyles----------------
#NOTES:
     dance-single:
     I. Pyles:
     Easy:
     9:
     0.581,0.719,0.422,0.433,0.072,1098.000,146.000,150.000,62.000,4.000:



0000
0000
0000
0000
,
0000
0000
0000
0000
,
0000
0000
0000
0000
,
0000
0000
0000
0000
,
0000
0000
0000
0000
,
0000
0000
0000
0000
,
0000
0000
0000
0000
,
0000
0000
0000
0000
,
0002
0000
1000
0000
,
1000
0000
1000
0000
,
0200
0003
0000
0000
0010
0000
0000
0000
,
0010
0000
0010
0000
,
0002
0300
0000
0000
0010
0000
0000
0000
,
0010
0000
0010
0003
,
0002
0000
0203
0000
,
0320
0000
2030
0000
,
3001
0100
0010
0100
0000
0001
1000
0000
,
0001
0100
0010
0100
0010
1000
0001
0000
,
1000
0100
0010
0100
0000
1000
0001
0000
,
1000
0100
0010
0100
0010
0001
1000
0000
,
0001
0010
0100
0010
0000
0001
1000
0000
,
0001
0010
0100
0010
0100
1000
0001
0000
,
1000
0000
0001
0000
0200
0000
0300
0000
0010
0000
0002
00M0
0003
0000
2000
0000
,
3000
0000
0200
0000
0300
0000
0010
0000
1000
00M0
0001
0000
0200
0000
0300
0000
,
0001
0010
0100
0010
0000
0001
1000
0000
,
0001
0010
0100
0010
0100
1000
0001
0000
,
1000
0010
0100
0010
0000
1000
0001
0000
,
1000
0010
0100
0010
0100
0001
1000
0000
,
0001
0100
0010
0100
0000
0001
1000
0000
,
0001
0100
0010
0100
0010
1000
0001
0000
,
0001
0000
0000
0000
0000
0000
0000
0000
1000
0000
0000
0000
0000
0000
0000
0000
0200
0000
0000
0000
0000
0000
0000
0000
0300
0000
0000
0000
0000
0000
0000
0000
0010
0000
0000
0000
0000
0000
0000
0000
2000
0000
0000
0000
00M0
0000
0000
0000
3000
0000
0000
0000
0000
0000
0000
0000
0002
0000
0000
0000
0000
0000
0000
0003
,
0042
0003
0030
0000
2040
3000
0030
0000
0042
0003
0030
0000
0000
0000
0000
0000
,
0001
0010
0100
1000
0100
1000
0001
0000
,
0100
0000
0010
0000
1000
0000
0001
0100
0001
0000
1000
0000
0010
0000
0000
0000
,
1000
0010
0100
0001
0100
0001
1000
0000
,
0100
0000
0010
0000
0001
0000
1000
0100
1000
0000
0001
0000
0010
0000
0000
0000
,
0001
0100
0010
1000
0001
0010
0001
1000
,
0001
0100
0010
1000
0001
0010
0001
1000
,
0002
0000
0203
0000
,
0320
0000
2030
0000
,
3001
0100
0010
1000
0010
1000
0001
0000
,
0010
0000
0100
0000
1000
0000
0001
0010
0001
0000
1000
0000
0100
0000
0000
0000
,
1000
0010
0100
0001
0100
0001
1000
0000
,
0100
0000
0010
0000
0001
0000
1000
0100
1000
0000
0001
0000
0010
0000
0000
0000
,
0001
0100
0010
1000
0010
1000
0001
0000
,
0010
0000
0100
0000
1000
0000
0001
0010
0001
0000
1000
0000
0100
0000
0000
0000
,
1000
0010
0100
0001
0100
0001
1000
0000
,
2400
3000
0300
0000
0402
0003
0300
0000
2400
3000
0300
0000
0001
0000
0000
0000
,
1020
0000
1030
0020
0000
1030
1001
0000
,
1100
0000
1001
0000
0000
0001
1001
0000
,
0101
0000
1001
0000
0000
1000
1001
0000
,
1010
0000
1001
0000
0000
0001
1001
0000
,
0011
0000
1001
0000
0000
1000
1001
0000
,
0110
0000
1001
0000
0000
0001
1001
0000
,
2000
0000
3020
0000
,
0230
0000
0302
0000
,
1103
0000
1001
0000
0000
0001
1001
0000
,
0101
0000
1001
0000
0000
1000
1001
0000
,
1010
0000
1001
0000
0000
0001
0011
0000
,
1001
0000
1010
0000
0000
1000
1001
0000
,
0110
0000
1001
0000
0000
0001
1001
0000
,
0101
0000
1010
0000
0000
0010
0110
0000
,
0002
0000
0023
0000
,
0230
0000
2300
0000
,
3001
0100
0010
0100
0001
0100
0010
0100
,
0001
0010
0100
0010
0001
0010
0100
1000
,
0001
0100
0010
1000
0001
0100
0010
1000
,
0001
0010
0100
1000
0001
0010
0100
1000
,
0002
1000
0100
1000
,
0200
0003
0000
0000
0001
0000
0000
0000
0010
0000
0000
0000
0001
0000
0000
0000
,
0020
0300
0000
0000
1000
0000
0000
0000
2000
0030
0000
0000
0001
0000
0000
0000
,
0002
3000
0100
0000
1000
0000
0100
0003
,
1000
0100
0010
0100
1000
0100
0010
0100
,
1000
0010
0100
0010
1000
0010
0100
0001
,
1000
0100
0010
0001
1000
0100
0010
0001
,
1000
0010
0100
0001
1000
0010
0100
0001
,
2000
0001
0010
0001
,
0020
3000
0000
0000
1000
0000
0000
0000
0100
0000
0000
0000
1000
0000
0000
0000
,
0200
0030
0000
0000
0001
0000
0000
0000
0002
0300
0000
0000
1000
0000
0000
0000
,
2000
0003
0000
0000
0010
0000
0000
0000
0001
0000
0000
0000
0010
0000
3000
0000
,
1020
0000
0000
0000
1030
0000
0020
0000
0000
0000
1030
0000
1001
0000
1000
0001
,
0100
0000
0010
0000
1000
0000
0001
0100
0001
0000
1000
0000
0010
0000
0000
0000
,
1000
0010
0100
0001
0100
0001
1000
0000
,
0100
0000
0010
0000
0001
0000
1000
0100
1000
0000
0001
0000
0010
0000
0000
0000
,
0001
0100
0010
1000
0001
0010
0001
1000
,
0001
0100
0010
1000
0001
0010
0001
1000
,
0002
0000
0203
0000
,
0320
0000
2030
0000
,
3001
0100
0010
1000
0010
1000
0001
0000
,
0010
0000
0100
0000
1000
0000
0001
0010
0001
0000
1000
0000
0100
0000
0000
0000
,
1000
0010
0100
0001
0100
0001
1000
0000
,
0100
0000
0010
0000
0001
0000
1000
0100
1000
0000
0001
0000
0010
0000
0000
0000
,
0001
0100
0010
1000
0010
1000
0001
0000
,
0010
0000
0100
0000
1000
0000
0001
0010
0001
0000
1000
0000
0100
0000
0010
0000
,
0002
0000
0203
0000
,
0320
0000
0000
0000
2030
0000
0000
3000
,
0201
0000
0301
0200
0000
0301
1001
0000
,
0011
0000
1001
0000
0000
1000
1001
0000
,
1010
0000
1001
0000
0000
0001
1001
0000
,
0101
0000
1001
0000
0000
1000
1001
0000
,
1100
0000
1001
0000
0000
0001
1001
0000
,
0110
0000
1001
0000
0000
1000
1001
0000
,
0002
0000
0203
0000
,
0320
0000
2030
0000
,
3011
0000
1001
0000
0000
1000
1001
0000
,
1010
0000
1001
0000
0000
0001
1001
0000
,
0101
0000
1001
0000
0000
1000
1100
0000
,
1001
0000
0101
0000
0000
0001
1001
0000
,
0110
0000
1001
0000
0000
1000
1001
0000
,
1010
0000
0101
0000
0000
0100
0110
0000
,
2000
0000
3200
0000
,
0320
0000
0032
0000
,
1003
0010
0100
0010
1000
0010
0100
0010
,
1000
0100
0010
0100
1000
0100
0010
0001
,
1000
0010
0100
0001
1000
0010
0100
0001
,
1000
0100
0010
0001
1000
0100
0010
0001
,
2000
0001
0010
0001
,
0020
3000
0000
0000
1000
0000
0000
0000
0100
0000
0000
0000
1000
0000
0000
0000
,
0200
0030
0000
0000
0001
0000
0000
0000
0002
0300
0000
0000
1000
0000
0000
0000
,
2000
0003
0000
0000
0010
0000
0000
0000
0001
0000
0000
0000
0010
0000
0000
0000
,
3001
0010
0100
0010
0001
0010
0100
0010
,
0001
0100
0010
0100
0001
0100
0010
1000
,
0001
0010
0100
1000
0001
0010
0100
1000
,
0001
0100
0010
1000
0001
0100
0010
1000
,
0002
1000
0100
1000
,
0200
0003
0000
0000
0001
0000
0000
0000
0010
0000
0000
0000
0001
0000
0000
0000
,
0020
0300
0000
0000
1000
0000
0000
0000
2000
0000
0030
0000
0001
0000
3000
0000
,
1000
0000
1000
0000
0001
0010
0100
0010
,
0120
0000
0000
0000
,
0000
0000
0000
0000
,
0000
0000
0000
0000
,
0000
0000
0000
0000
,
000M
000M
000M
000M
000M
000M
000M
000M
000M
000M
000M
000M
000M
000M
000M
000M
,
000M
000M
000M
000M
000M
000M
000M
000M
000M
0000
0000
0000
0000
0000
0000
0000
,
0000
0000
0000
0000
0000
0000
0000
0000
0M00
0M00
0M00
0M00
0M00
0M00
0M00
0M00
,
0M30
0M00
0M00
0M00
0M00
0M00
0M00
0M00
0M00
0000
0000
0000
0000
0000
0000
0000
,
1000
0000
0100
0000
0000
1000
0100
0000
,
0001
0000
0100
0000
0000
0001
0100
0000
,
1000
0000
0010
0000
0000
1000
0010
0000
,
0001
0000
0010
0000
0000
0001
0010
0000
,
10M0
00M0
00M0
00M0
01M0
00M0
00M0
00M0
00M0
00M0
10M0
00M0
01M0
00M0
00M0
00M0
,
00M1
0000
0000
0000
0100
0000
0000
0100
0000
0100
0001
0000
0100
0000
0000
0000
,
1000
0000
0010
0000
0000
1000
0010
0000
,
2040
3000
0030
0000
0042
0003
0030
0000
2040
3000
0030
0000
0000
0000
0000
0000
,
0001
0010
0100
1000
0100
1000
0001
0000
,
0100
0000
0010
0000
1000
0000
0001
0100
0001
0000
1000
0000
0010
0000
0000
0000
,
1000
0010
0100
0001
0100
0001
1000
0000
,
0100
0000
0010
0000
0001
0000
1000
0100
1000
0000
0001
0000
0010
0000
0000
0000
,
0001
0100
0010
1000
0010
1000
0001
0000
,
0010
0000
0100
0000
1000
0000
0001
0010
0001
0000
1000
0000
0100
0000
0000
0000
,
1000
0100
0010
0001
0010
0001
1000
0000
,
0042
0003
0030
0000
2040
3000
0030
0000
0042
0003
0030
0000
0000
0000
0000
0000
,
1000
0100
0010
0001
0010
0001
1000
0000
,
0010
0000
0100
0000
0001
0000
1000
0010
1000
0000
0001
0000
0100
0000
0000
0000
,
0001
0100
0010
1000
0010
1000
0001
0000
,
0010
0000
0100
0000
1000
0000
0001
0010
0001
0000
1000
0000
0100
0000
0000
0000
,
1000
0010
0100
0001
0100
0001
1000
0000
,
0100
0000
0010
0000
0001
0000
1000
0100
1000
0000
0001
0000
0010
0000
0000
0000
,
0001
0010
0100
1000
0100
1000
0001
0000
,
0042
0003
0030
0000
2040
3000
0030
0000
0042
0003
0030
0000
0000
0000
0000
0000
,
1020
0000
1030
0020
0000
1030
1001
0000
,
1100
0000
1001
0000
0000
0001
1001
0000
,
0101
0000
1001
0000
0000
1000
1001
0000
,
1010
0000
1001
0000
0000
0001
1001
0000
,
0011
0000
1001
0000
0000
1000
1001
0000
,
0110
0000
1001
0000
0000
0001
1001
0000
,
2000
0000
3020
0000
,
0230
0000
0302
0000
,
1103
0000
1001
0000
0000
0001
1001
0000
,
0101
0000
1001
0000
0000
1000
1001
0000
,
1010
0000
1001
0000
0000
0001
0011
0000
,
1001
0000
1010
0000
0000
1000
1001
0000
,
0110
0000
1001
0000
0000
0001
1001
0000
,
0101
0000
1010
0000
0000
0010
0110
0000
,
0002
0000
0023
0000
,
0230
0000
2300
0000
,
3002
0000
0000
0003
0001
0000
0000
0000
1000
0000
0100
0000
0010
0000
0100
0000
,
1000
0000
0010
0000
0100
0000
0001
0100
,
0020
0000
0000
0030
0010
0000
0000
0000
1000
0000
0001
0000
0100
0000
0000
0000
,
0010
1000
0100
0000
,
0012
0000
0000
0003
0001
0000
0000
0000
1000
0000
0001
0000
0100
0000
0010
0000
,
0100
0001
0010
0100
,
2000
0000
0000
3000
1000
0000
0000
0000
0001
0000
0100
0000
0010
0000
0100
0000
,
0001
0010
0100
1000
0001
0000
0100
0000
,
1010
0000
0000
0000
0001
0100
0010
0100
,
0001
0010
0100
0010
0002
0000
0000
2003
,
0000
0000
3000
0010
0100
0001
0100
0010
,
2000
0000
3002
0000
0023
0000
0130
2000
,
0000
3000
0000
0000
0001
0010
0100
1000
,
0020
0000
0130
0001
2000
0000
3200
0000
,
0000
0000
0300
0000
0010
0001
0010
0000
,
0100
1000
0001
0100
0020
0000
1030
0000
,
1000
0010
0100
0010
1000
0010
0100
0010
,
1000
0100
0010
0100
1000
0100
0010
0001
,
1000
0010
0100
0001
1000
0010
0100
0001
,
1000
0100
0010
0001
1000
0100
0010
0001
,
2000
0001
0010
0001
,
0020
3000
0000
0000
1000
0000
0000
0000
0100
0000
0000
0000
1000
0000
0000
0000
,
0200
0030
0000
0000
0001
0000
0000
0000
0002
0300
0000
0000
1000
0000
0000
0000
,
2000
0003
0010
0000
0001
0000
0010
3000
,
0001
0010
0100
0010
0001
0010
0100
0010
,
0001
0100
0010
0100
0001
0100
0010
1000
,
0001
0010
0100
1000
0001
0010
0100
1000
,
0001
0100
0010
1000
0001
0100
0010
1000
,
0002
1000
0100
1000
,
0200
0003
0000
0000
0001
0000
0000
0000
0010
0000
0000
0000
0001
0000
0000
0000
,
0020
0300
0000
0000
1000
0000
0000
0000
2000
0030
0000
0000
0001
0000
0000
0000
,
0002
3000
0000
0000
0100
0000
0000
0000
1000
0000
0000
0000
0100
0000
0003
0000
,
0201
0000
0301
0200
0000
0301
1001
0000
,
0011
0000
1001
0000
0000
1000
1001
0000
,
1010
0000
1001
0000
0000
0001
1001
0000
,
0101
0000
1001
0000
0000
1000
1001
0000
,
1100
0000
1001
0000
0000
0001
1001
0000
,
0110
0000
1001
0000
0000
1000
1001
0000
,
0002
0000
0203
0000
,
0320
0000
2030
0000
,
3011
0000
1001
0000
0000
1000
1001
0000
,
1010
0000
1001
0000
0000
0001
1001
0000
,
0101
0000
1001
0000
0000
1000
1100
0000
,
1001
0000
0101
0000
0000
0001
1001
0000
,
0110
0000
1001
0000
0000
1000
1001
0000
,
1010
0000
0101
0000
0000
0100
0110
0000
,
2000
0000
3200
0000
,
0320
0000
0032
0000
,
2003
0000
0000
0000
,
0000
0000
0000
0000
0000
0000
3010
0200
,
0000
0000
0000
0000
,
0000
0000
0000
0302
,
0023
0000
0000
0000
,
0000
0000
0230
2300
,
3002
0000
0000
0000
,
0203
0000
0000
0000
,
0320
0000
0000
0000
,
0000
0000
0000
0000
0000
0000
1030
0002
,
0000
0023
0000
0000
,
0000
0000
0000
0000
0000
0000
0130
1000
,
0010
0100
0002
0000
0000
0000
0000
0000
,
0000
0000
0000
0000
0000
0000
0013
0100
,
2000
0000
3002
0000
,
1003
0000
1000
0000
0001
0010
0100
0010
,
0120
0000
0000
0032
,
0000
0000
0203
0000
,
0320
0000
0000
0000
,
0000
0000
0000
2000
0030
0000
0000
0000
,
0000
3002
0000
0000
0000
0000
0000
0000
,
0000
0000
0203
0000
,
0000
0000
0020
0000
,
0000
0000
0000
0000
,
0000
0000
0000
0000
0000
0000
0000
0300
,
0030
0000
0000
0000
;

//---------------dance-single - I. Pyles----------------
#NOTES:
     dance-single:
     I. Pyles:
     Medium:
     12:
     0.838,1.000,0.165,0.306,0.705,1856.000,57.000,106.000,63.000,12.000:





0000
0000
0000
0000
,
0000
0000
0000
0000
,
0000
0000
0000
0000
,
0000
0000
0000
0000
,
0000
0000
0000
0000
,
0000
0000
0000
0000
,
0000
0000
0000
0000
,
0000
0000
0000
0000
,
0002
0000
1000
0000
,
1000
0000
1000
0000
,
0200
0003
0000
0000
0010
0000
0000
0000
,
0010
0000
0010
0000
,
0002
0300
0000
0000
0010
0000
0000
0000
,
0010
0000
0010
0003
,
0002
0000
0020
0000
,
0200
0000
2000
3333
,
0011
0001
1000
0000
0000
0011
0001
0000
,
0011
0000
0001
0000
0010
0000
0100
1000
0001
1000
0001
0000
0010
0000
0100
1000
,
0001
0000
1000
0000
0001
0000
0000
0000
0000
0000
1100
0000
1000
0000
0100
1000
,
0001
0000
1000
0000
0001
0000
0010
0001
1000
0001
1000
0000
0100
0000
0010
0001
,
1000
0001
1000
0000
0000
1010
1000
0000
,
1010
0000
1000
0000
0010
0000
0100
0001
1000
0001
1000
0000
0010
0000
0100
0001
,
1000
0000
0001
0000
0200
0000
0300
0000
0010
0000
0002
00M0
0003
0000
2000
0000
,
3000
0000
0200
0000
0300
0000
0010
0000
1000
00M0
0001
0000
0200
0000
0300
0000
,
1010
1000
0001
0000
0000
1010
1000
0000
,
1010
0000
1000
0000
0010
0000
0100
0001
1000
0001
1000
0000
0010
0000
0100
0001
,
1000
0000
0001
0000
1000
0000
0000
0000
0000
0000
0101
0000
0001
0000
0100
0001
,
1000
0000
0001
0000
1000
0000
0100
1000
0001
1000
0001
0000
0010
0000
0100
1000
,
0001
1000
0001
0000
0000
0011
0001
0000
,
0011
0000
0001
0000
0010
0000
0100
1000
0001
1000
0001
0000
0010
0000
0100
1000
,
0001
0000
0000
0000
0000
0000
0000
0000
1000
0000
0000
0000
0000
0000
0000
0000
0200
0000
0000
0000
0000
0000
0000
0000
0300
0000
0000
0000
0000
0000
0000
0000
0010
0000
0000
0000
0000
0000
0000
0000
2000
0000
0000
0000
00M0
0000
0000
0000
3000
0000
0000
0000
0000
0000
0000
0000
0002
0000
0000
0000
0000
0000
0000
0003
,
0042
0003
0030
0000
2040
3000
0030
0000
0042
0003
0030
0000
0000
0000
0000
0000
,
0001
0000
1000
0000
0010
0000
0100
0001
1000
0001
1000
0000
0010
0000
0000
0000
,
1000
0000
0001
0000
0010
0000
0100
1000
0001
1000
0001
0000
0010
0000
0100
1000
,
0001
0000
1000
0000
0010
0000
0100
0001
1000
0001
1000
0000
0010
0000
0000
0000
,
1000
0000
0001
0000
0010
0000
0100
1000
0001
1000
0001
0000
0010
0000
0100
1000
,
0001
0000
1000
0000
0010
0000
0100
0001
1000
0001
1000
0000
0010
0000
0000
0000
,
1000
0000
0001
0000
0010
0000
0100
1000
0001
1000
0001
0000
0010
0000
0100
1000
,
0001
0010
0100
1000
0001
1000
0001
1000
0001
0010
0100
1000
0001
1000
0001
1000
,
0001
0100
0010
1000
0001
1000
0001
1000
0001
0100
0010
0100
0001
1000
0001
1000
,
0001
0000
1000
0000
0100
0000
0010
0001
1000
0001
1000
0000
0100
0000
0000
0000
,
1000
0000
0001
0000
0100
0000
0010
1000
0001
1000
0001
0000
0100
0000
0010
1000
,
0001
0000
1000
0000
0100
0000
0010
0001
1000
0001
1000
0000
0100
0000
0000
0000
,
1000
0000
0001
0000
0100
0000
0010
1000
0001
1000
0001
0000
0100
0000
0010
1000
,
0001
0000
1000
0000
0100
0000
0010
0001
1000
0001
1000
0000
0100
0000
0000
0000
,
1000
0000
0001
0000
0100
0000
0010
1000
0001
1000
0001
0000
0100
0000
0010
1000
,
0001
0000
1000
0000
0100
0000
0010
0001
1000
0001
1000
0000
0100
0000
0000
0000
,
2400
3000
0300
0000
0402
0003
0300
0000
2400
3000
0300
0000
M001
0000
0000
0000
,
1020
0000
0031
0020
0000
0130
1001
0000
,
1100
0000
1000
0000
0100
0000
0010
0001
1000
0001
1000
0000
0100
0000
0010
0001
,
1000
0000
0000
0000
0100
0000
0010
0001
1000
0000
0010
0000
0100
0000
0010
1000
,
0001
0000
0010
0000
0100
0000
0010
0001
1000
0001
1000
0000
0010
0000
0100
0001
,
0020
0031
1000
0000
0000
0011
0001
0000
,
0011
0000
0001
0000
0010
0000
0100
1000
0001
1000
0001
0000
0010
0000
0100
1000
,
0001
0010
0100
1000
0001
1000
0001
1000
0001
0010
0100
1000
0001
1000
0001
1000
,
0001
0100
0010
1000
0001
1000
0001
1000
0001
0100
0010
0100
0001
1000
0001
1000
,
0200
1300
0001
0000
0000
1100
1000
0000
,
1100
0000
1000
0000
0100
0000
0010
0001
1000
0001
1000
0000
0100
0000
0010
0001
,
1000
0000
0000
0000
0100
0000
0010
0001
1000
0000
0010
0000
0100
0000
0010
1000
,
0001
0000
0010
0000
0100
0000
0010
0001
1000
0001
1000
0000
0010
0000
0100
0001
,
0020
0031
1000
0000
0000
0011
0001
0000
,
0011
0000
0001
0000
0010
0000
0100
1000
0001
1000
0001
0000
0010
0000
0100
1000
,
0002
0000
0020
0000
,
0200
0000
2000
3333
,
0001
0000
1000
0000
0100
0000
0010
0001
1000
0001
1000
0000
0100
0000
0010
0001
,
1000
0000
0001
0000
0100
0000
0010
1000
0001
1000
0001
0000
0100
0000
0010
1000
,
0001
0000
1000
0000
0100
0000
0010
0001
1000
0001
1000
0000
0100
0000
0010
0001
,
1000
0000
0001
0000
0100
0000
0010
1000
0001
1000
0001
0000
0010
0000
0100
1000
,
0001
0000
1000
0000
0100
0000
0010
0001
1000
0001
1000
0000
0100
0000
0010
0001
,
1000
0000
0001
0000
0100
0000
0010
1000
0001
1000
0001
0000
0100
0000
0010
1000
,
0001
0000
1000
0000
0100
0000
0010
0001
1000
0001
1000
0000
0100
0000
0010
0001
,
1000
0000
0001
0000
0100
0000
0010
1000
0001
1000
0001
0000
0010
0000
0100
1000
,
0001
0000
1000
0000
0100
0000
0010
0001
1000
0001
1000
0000
0100
0000
0010
0001
,
1000
0000
0001
0000
0100
0000
0010
1000
0001
1000
0001
0000
0100
0000
0010
1000
,
0001
0000
1000
0000
0100
0000
0010
0001
1000
0001
1000
0000
0100
0000
0010
0001
,
1000
0000
0001
0000
0100
0000
0010
1000
0001
1000
0001
0000
0010
0000
0100
1000
,
0001
0000
1000
0000
0100
0000
0010
0001
1000
0001
1000
0000
0100
0000
0010
0001
,
1000
0000
0001
0000
0100
0000
0010
1000
0001
1000
0001
0000
0100
0000
0010
1000
,
0001
0000
1000
0000
0100
0000
0010
0001
1000
0001
1000
0000
0100
0000
0010
0001
,
1000
0000
0001
0000
0100
0000
0010
1000
0001
1000
0001
0000
0010
0000
0100
1000
,
0020
0000
0000
0000
0031
0000
0020
0000
0000
0000
0130
0000
1001
0000
1000
0001
,
1000
0000
0001
0000
0010
0000
0100
1000
0001
1000
0001
0000
0010
0000
0100
1000
,
0001
0000
1000
0000
0010
0000
0100
0001
1000
0001
1000
0000
0010
0000
0000
0000
,
1000
0000
0001
0000
0010
0000
0100
1000
0001
1000
0001
0000
0010
0000
0100
1000
,
0001
0000
1000
0000
0010
0000
0100
0001
1000
0001
1000
0000
0010
0000
0000
0000
,
1000
0000
0001
0000
0010
0000
0100
1000
0001
1000
0001
0000
0010
0000
0100
1000
,
0001
0010
0100
1000
0001
1000
0001
1000
0001
0010
0100
1000
0001
1000
0001
1000
,
0001
0100
0010
1000
0001
1000
0001
1000
0001
0100
0010
0100
0001
1000
0001
1000
,
0001
0000
1000
0000
0100
0000
0010
0001
1000
0001
1000
0000
0100
0000
0000
0000
,
1000
0000
0001
0000
0100
0000
0010
1000
0001
1000
0001
0000
0100
0000
0010
1000
,
0001
0000
1000
0000
0100
0000
0010
0001
1000
0001
1000
0000
0100
0000
0000
0000
,
1000
0000
0001
0000
0100
0000
0010
1000
0001
1000
0001
0000
0100
0000
0010
1000
,
0001
0000
1000
0000
0100
0000
0010
0001
1000
0001
1000
0000
0100
0000
0000
0000
,
1000
0000
0001
0000
0100
0000
0010
1000
0001
1000
0001
0000
0100
0000
0010
1000
,
0002
0000
0200
0000
,
0020
0000
2000
3333
,
0201
0000
1300
0200
0000
0310
1001
0000
,
0011
0000
0001
0000
0010
0000
0100
1000
0001
1000
0001
0000
0010
0000
0100
1000
,
0001
0000
0000
0000
0010
0000
0100
1000
0001
0000
0100
0000
0010
0000
0100
0001
,
1000
0000
0100
0000
0010
0000
0100
1000
0001
1000
0001
0000
0100
0000
0010
1000
,
0200
1300
0001
0000
0000
1100
1000
0000
,
1100
0000
1000
0000
0100
0000
0010
0001
1000
0001
1000
0000
0100
0000
0010
0001
,
1000
0100
0010
0001
1000
0001
1000
0001
1000
0100
0010
0001
1000
0001
1000
0001
,
1000
0010
0100
0001
1000
0001
1000
0001
1000
0010
0100
0010
1000
0001
1000
0001
,
0020
0031
1000
0000
0000
0011
0001
0000
,
0011
0000
0001
0000
0010
0000
0100
1000
0001
1000
0001
0000
0010
0000
0100
1000
,
0001
0000
0000
0000
0010
0000
0100
1000
0001
0000
0100
0000
0010
0000
0100
0001
,
1000
0000
0100
0000
0010
0000
0100
1000
0001
1000
0001
0000
0100
0000
0010
1000
,
0200
1300
0001
0000
0000
1100
1000
0000
,
1100
0000
1000
0000
0100
0000
0010
0001
1000
0001
1000
0000
0100
0000
0010
0001
,
2000
0000
0020
0000
,
0200
0000
0002
3333
,
0001
0000
1000
0000
0100
0000
0010
0001
1000
0001
1000
0000
0100
0000
0010
0001
,
1000
0000
0001
0000
0100
0000
0010
1000
0001
1000
0001
0000
0100
0000
0010
1000
,
0001
0000
1000
0000
0100
0000
0010
0001
1000
0001
1000
0000
0100
0000
0010
0001
,
1000
0000
0001
0000
0100
0000
0010
1000
0001
1000
0001
0000
0010
0000
0100
1000
,
0001
0000
1000
0000
0100
0000
0010
0001
1000
0001
1000
0000
0100
0000
0010
0001
,
1000
0000
0001
0000
0100
0000
0010
1000
0001
1000
0001
0000
0100
0000
0010
1000
,
0001
0000
1000
0000
0100
0000
0010
0001
1000
0001
1000
0000
0100
0000
0010
0001
,
1000
0000
0001
0000
0100
0000
0010
1000
0001
1000
0001
0000
0010
0000
0100
1000
,
0001
0000
1000
0000
0100
0000
0010
0001
1000
0001
1000
0000
0100
0000
0010
0001
,
1000
0000
0001
0000
0100
0000
0010
1000
0001
1000
0001
0000
0100
0000
0010
1000
,
0001
0000
1000
0000
0100
0000
0010
0001
1000
0001
1000
0000
0100
0000
0010
0001
,
1000
0000
0001
0000
0100
0000
0010
1000
0001
1000
0001
0000
0010
0000
0100
1000
,
0001
0000
1000
0000
0100
0000
0010
0001
1000
0001
1000
0000
0100
0000
0010
0001
,
1000
0000
0001
0000
0100
0000
0010
1000
0001
1000
0001
0000
0100
0000
0010
1000
,
0001
0000
1000
0000
0100
0000
0010
0001
1000
0001
1000
0000
0100
0000
0010
0001
,
1000
0000
1000
0000
0001
0010
1100
0001
,
0120
0000
0000
0000
,
0000
0000
0000
0000
,
0000
0000
0000
0000
,
0000
0000
0000
0000
,
000M
000M
000M
000M
000M
000M
000M
000M
000M
000M
000M
000M
000M
000M
000M
000M
,
000M
000M
000M
000M
000M
000M
000M
000M
000M
0000
0000
0000
0000
0000
0000
0000
,
0000
0000
0000
0000
0000
0000
0000
0000
0M00
0M00
0M00
0M00
0M00
0M00
0M00
0M00
,
0M30
0M00
0M00
0M00
0M00
0M00
0M00
0M00
0M00
0000
0000
0000
0000
0000
0000
0000
,
1000
0000
0100
0000
0000
1000
0100
0000
,
0001
0000
0100
0000
0000
0001
0100
0000
,
1000
0000
0010
0000
0000
1000
0010
0000
,
0001
0000
0010
0000
0000
0001
0010
0000
,
10M0
00M0
00M0
00M0
01M0
00M0
00M0
00M0
00M0
00M0
10M0
00M0
01M0
00M0
00M0
00M0
,
00M1
0000
0000
0000
0100
0000
0000
0100
0000
0100
0001
0000
0100
0000
0000
0000
,
1000
0000
0010
0000
0000
1000
0010
0000
,
2040
3000
0030
0000
0042
0003
0030
0000
2040
3000
0030
0000
0000
0000
0000
0000
,
0001
0000
1000
0000
0100
0000
0010
0001
1000
0001
1000
0000
0100
0000
0010
0001
,
1000
0000
0001
0000
0100
0000
0010
1000
0001
1000
0001
0000
0100
0000
0010
1000
,
0001
0000
1000
0000
0100
0000
0010
0001
1000
0001
1000
0000
0100
0000
0010
0001
,
1000
0000
0001
0000
0100
0000
0010
1000
0001
1000
0001
0000
0010
0000
0100
1000
,
0001
0000
1000
0000
0100
0000
0010
0001
1000
0001
1000
0000
0100
0000
0010
0001
,
1000
0000
0001
0000
0100
0000
0010
1000
0001
1000
0001
0000
0100
0000
0010
1000
,
0001
0000
1000
0000
0100
0000
0010
0001
1000
0001
1000
0000
0100
0000
0000
0000
,
0042
0003
0030
0000
2040
3000
0030
0000
0042
0003
0030
0000
0000
0000
0000
0000
,
1000
0000
0001
0000
0010
0000
0100
1000
0001
1000
0001
0000
0010
0000
0100
1000
,
0001
0000
1000
0000
0010
0000
0100
0001
1000
0001
1000
0000
0010
0000
0100
0001
,
1000
0000
0001
0000
0010
0000
0100
1000
0001
1000
0001
0000
0010
0000
0100
1000
,
0001
0000
1000
0000
0010
0000
0100
0001
1000
0001
1000
0000
0100
0000
0010
0001
,
1000
0000
0001
0000
0010
0000
0100
1000
0001
1000
0001
0000
0010
0000
0100
1000
,
0001
0000
1000
0000
0010
0000
0100
0001
1000
0001
1000
0000
0010
0000
0100
0001
,
1000
0000
0001
0000
0010
0000
0100
1000
0001
1000
0001
0000
0010
0000
0001
1000
,
0400
1000
0301
1000
0400
1000
0301
1000
0400
1000
0301
1000
0001
1000
0001
1000
,
0020
0000
0031
0020
0000
0130
1001
0000
,
1100
0000
1000
0000
0100
0000
0010
0001
1000
0001
1000
0000
0100
0000
0010
0001
,
1000
0000
0000
0000
0100
0000
0010
0001
1000
0000
0010
0000
0100
0000
0010
1000
,
0001
0000
0010
0000
0100
0000
0010
0001
1000
0001
1000
0000
0010
0000
0100
0001
,
0020
0031
1000
0000
0000
0011
0001
0000
,
0011
0000
0001
0000
0010
0000
0100
1000
0001
1000
0001
0000
0010
0000
0100
1000
,
0001
0010
0100
1000
0001
1000
0001
1000
0001
0010
0100
1000
0001
1000
0001
1000
,
0001
0100
0010
1000
0001
1000
0001
1000
0001
0100
0010
0100
0001
1000
0001
1000
,
0200
1300
0001
0000
0000
1100
1000
0000
,
1100
0000
1000
0000
0100
0000
0010
0001
1000
0001
1000
0000
0100
0000
0010
0001
,
1000
0000
0000
0000
0100
0000
0010
0001
1000
0000
0010
0000
0100
0000
0010
1000
,
0001
0000
0010
0000
0100
0000
0010
0001
1000
0001
1000
0000
0010
0000
0100
0001
,
0020
0031
1000
0000
0000
0011
0001
0000
,
0011
0000
0001
0000
0010
0000
0100
1000
0001
1000
0001
0000
0010
0000
0100
1000
,
0002
0000
0020
0000
,
0200
0000
2000
3333
,
1002
0000
0000
0003
0001
0000
0000
0000
1000
0000
0100
0000
0010
0000
0100
0000
,
1000
0000
0010
0000
0100
0000
0001
0100
,
0020
0000
0000
0030
0010
0000
0000
0000
1000
0000
0001
0000
0100
0000
0000
0000
,
0010
1000
0100
0000
,
0012
0000
0000
0003
0001
0000
0000
0000
1000
0000
0001
0000
0100
0000
0010
0000
,
0100
0001
0010
0100
,
2000
0000
0000
3000
1000
0000
0000
0000
0001
0000
0100
0000
0010
0000
0100
0000
,
0001
0010
0100
1000
0001
0000
0100
0000
,
1010
0000
0000
0000
0001
0100
0010
0100
,
0001
0010
0100
0010
0002
0000
0000
2003
,
0000
0000
3000
0010
0100
0001
0100
0010
,
2000
0000
3002
0000
0023
0000
0130
2000
,
0000
3000
0000
0000
0001
0010
0100
1000
,
0020
0000
0130
0001
2000
0000
3200
0000
,
0000
0000
0300
0000
0010
0001
0010
0000
,
0100
1000
0001
0100
0020
0000
1030
0000
,
1000
0000
0001
0000
0010
0000
0100
1000
0001
1000
0001
0000
0010
0000
0100
1000
,
0001
0000
1000
0000
0010
0000
0100
0001
1000
0001
1000
0000
0010
0000
0100
0001
,
1000
0000
0001
0000
0010
0000
0100
1000
0001
1000
0001
0000
0010
0000
0100
1000
,
0001
0000
1000
0000
0010
0000
0100
0001
1000
0001
1000
0000
0100
0000
0010
0001
,
1000
0000
0001
0000
0010
0000
0100
1000
0001
1000
0001
0000
0010
0000
0100
1000
,
0001
0000
1000
0000
0010
0000
0100
0001
1000
0001
1000
0000
0010
0000
0100
0001
,
1000
0000
0001
0000
0010
0000
0100
1000
0001
1000
0001
0000
0010
0000
0100
1000
,
0001
0000
1000
0000
0010
0000
0100
0001
1000
0001
1000
0000
0100
0000
0010
0001
,
1000
0000
0001
0000
0010
0000
0100
1000
0001
1000
0001
0000
0010
0000
0100
1000
,
0001
0000
1000
0000
0010
0000
0100
0001
1000
0001
1000
0000
0010
0000
0100
0001
,
1000
0000
0001
0000
0010
0000
0100
1000
0001
1000
0001
0000
0010
0000
0100
1000
,
0001
0000
1000
0000
0010
0000
0100
0001
1000
0001
1000
0000
0100
0000
0010
0001
,
1000
0000
0001
0000
0010
0000
0100
1000
0001
1000
0001
0000
0010
0000
0100
1000
,
0001
0000
1000
0000
0010
0000
0100
0001
1000
0001
1000
0000
0010
0000
0100
0001
,
1000
0000
0001
0000
0010
0000
0100
1000
0001
1000
0001
0000
0010
0000
0100
1000
,
0001
0000
1000
0000
0010
0000
0100
0001
1000
0001
1000
0000
0100
0000
0010
0001
,
0200
0000
1300
0200
0000
0310
1001
0000
,
0011
0000
0001
0000
0010
0000
0100
1000
0001
1000
0001
0000
0010
0000
0100
1000
,
0001
0000
0000
0000
0010
0000
0100
1000
0001
0000
0100
0000
0010
0000
0100
0001
,
1000
0000
0100
0000
0010
0000
0100
1000
0001
1000
0001
0000
0100
0000
0010
1000
,
0200
1300
0001
0000
0000
1100
1000
0000
,
1100
0000
1000
0000
0100
0000
0010
0001
1000
0001
1000
0000
0100
0000
0010
0001
,
1000
0100
0010
0001
1000
0001
1000
0001
1000
0100
0010
0001
1000
0001
1000
0001
,
1000
0010
0100
0001
1000
0001
1000
0001
1000
0010
0100
0010
1000
0001
1000
0001
,
0020
0031
1000
0000
0000
0011
0001
0000
,
0011
0000
0001
0000
0010
0000
0100
1000
0001
1000
0001
0000
0010
0000
0100
1000
,
0001
0000
0000
0000
0010
0000
0100
1000
0001
0000
0100
0000
0010
0000
0100
0001
,
1000
0000
0100
0000
0010
0000
0100
1000
0001
1000
0001
0000
0100
0000
0010
1000
,
0200
1300
0001
0000
0000
1100
1000
0000
,
1100
0000
1000
0000
0100
0000
0010
0001
1000
0001
1000
0000
0100
0000
0010
0001
,
2000
0000
0020
0000
,
0200
0000
0002
3333
,
2000
0000
0000
0000
,
0000
0000
0000
0000
0000
0000
3010
0200
,
0000
0000
0000
0000
,
0000
0000
0000
0302
,
0023
0000
0000
0000
,
0000
0000
0230
2300
,
3002
0000
0000
0000
,
0203
0000
0000
0000
,
0320
0000
0000
0000
,
0000
0000
0000
0000
0000
0000
1030
0002
,
0000
0023
0000
0000
,
0000
0000
0000
0000
0000
0000
0130
1000
,
0010
0100
0002
0000
0000
0000
0000
0000
,
0000
0000
0000
0000
0000
0000
0013
0100
,
2000
0000
3002
0000
,
1003
0000
1000
0000
0001
0010
1100
0001
,
0120
0000
0000
0032
,
0000
0000
0203
0000
,
0320
0000
0000
0000
,
0000
0000
0000
2000
0030
0000
0000
0000
,
0000
3002
0000
0000
0000
0000
0000
0000
,
0000
0000
0203
0000
,
0000
0000
0020
0000
,
0000
0000
0000
0000
,
0000
0000
0000
0000
0000
0000
0000
0300
,
0030
0000
0000
0000
;

//---------------dance-single - I. Pyles----------------
#NOTES:
     dance-single:
     I. Pyles:
     Hard:
     13:
     1.000,1.000,0.156,0.266,1.000,2267.000,54.000,92.000,63.000,12.000:







0000
0000
0000
0000
,
0000
0000
0000
0000
,
0000
0000
0000
0000
,
0000
0000
0000
0000
,
0000
0000
0000
0000
,
0000
0000
0000
0000
,
0000
0000
0000
0000
,
0000
0000
0000
0000
,
0002
0000
1000
0000
,
1000
0000
1000
0000
,
0200
0003
0000
0000
0010
0000
0000
0000
,
0010
0000
0010
0000
,
0002
0300
0000
0000
0010
0000
0000
0000
,
0010
0000
0010
0003
,
0002
0000
0020
0000
,
0200
0000
2000
3333
,
0011
0001
1000
0000
0000
0011
0001
0000
,
0011
0000
0001
0000
0010
0000
0100
1000
0001
1000
0001
0000
0010
0000
0100
1000
,
0001
0000
1000
0000
0001
0000
0000
0000
0000
0000
1100
0000
1000
0000
0100
1000
,
0001
0000
1000
0000
0001
0000
0010
0001
1000
0001
1000
0000
0100
0000
0010
0001
,
1000
0001
1000
0000
0000
1010
1000
0000
,
1010
0000
1000
0000
0010
0000
0100
0001
1000
0001
1000
0000
0010
0000
0100
0001
,
1000
0000
0001
0000
0200
0000
0300
0000
0010
0000
0002
00M0
0003
0000
2000
0000
,
3000
0000
0200
0000
0300
0000
0010
0000
1000
00M0
0001
0000
0200
0000
0300
0000
,
1010
1000
0001
0000
0000
1010
1000
0000
,
1010
0000
1000
0000
0010
0000
0100
0001
1000
0001
1000
0000
0010
0000
0100
0001
,
1000
0000
0001
0000
1000
0000
0000
0000
0000
0000
0101
0000
0001
0000
0100
0001
,
1000
0000
0001
0000
1000
0000
0100
1000
0001
1000
0001
0000
0010
0000
0100
1000
,
0001
1000
0001
0000
0000
0011
0001
0000
,
0011
0000
0001
0000
0010
0000
0100
1000
0001
1000
0001
0000
0010
0000
0100
1000
,
0001
0000
0000
0000
0000
0000
0000
0000
1000
0000
0000
0000
0000
0000
0000
0000
0200
0000
0000
0000
0000
0000
0000
0000
0300
0000
0000
0000
0000
0000
0000
0000
0010
0000
0000
0000
0000
0000
0000
0000
2000
0000
0000
0000
00M0
0000
0000
0000
3000
0000
0000
0000
0000
0000
0000
0000
0002
0000
0000
0000
0000
0000
0000
0003
,
0042
0003
0030
0000
2040
3000
0030
0000
0042
0003
0030
0000
0000
0000
0000
0000
,
0001
0000
1000
0000
0010
0000
0100
0001
1000
0001
1000
0000
0010
0000
0000
0000
,
1000
0000
0001
0000
0010
0000
0100
1000
0001
1000
0001
0000
0010
0000
0100
1000
,
0001
0000
1000
0000
0010
0000
0100
0001
1000
0001
1000
0000
0010
0000
0000
0000
,
1000
0000
0001
0000
0010
0000
0100
1000
0001
1000
0001
0000
0010
0000
0100
1000
,
0001
0000
1000
0000
0010
0000
0100
0001
1000
0001
1000
0000
0010
0000
0000
0000
,
1000
0000
0001
0000
0010
0000
0100
1000
0001
1000
0001
0000
0010
0000
0100
1000
,
0001
0010
0100
1000
0001
1000
0001
1000
0001
0010
0100
1000
0001
1000
0001
1000
,
0001
0100
0010
1000
0001
1000
0001
1000
0001
0100
0010
0100
0001
1000
0001
1000
,
0001
0000
1000
0000
0100
0000
0010
0001
1000
0001
1000
0000
0100
0000
0000
0000
,
1000
0000
0001
0000
0100
0000
0010
1000
0001
1000
0001
0000
0100
0000
0010
1000
,
0001
0000
1000
0000
0100
0000
0010
0001
1000
0001
1000
0000
0100
0000
0000
0000
,
1000
0000
0001
0000
0100
0000
0010
1000
0001
1000
0001
0000
0100
0000
0010
1000
,
0001
0000
1000
0000
0100
0000
0010
0001
1000
0001
1000
0000
0100
0000
0000
0000
,
1000
0000
0001
0000
0100
0000
0010
1000
0001
1000
0001
0000
0100
0000
0010
1000
,
0001
0000
1000
0000
0100
0000
0010
0001
1000
0001
1000
0000
0100
0000
0000
0000
,
2400
3000
0300
0000
0402
0003
0300
0000
2400
3000
0300
0000
M001
0000
0000
0000
,
1020
0000
0031
0020
0000
0130
1001
0000
,
1100
0000
1000
0000
0100
0000
0010
0001
1000
0001
1000
0000
0100
0000
0010
0001
,
1000
0000
0000
0000
0100
0000
0010
0001
1000
0000
0010
0000
0100
0000
0010
1000
,
0001
0000
0010
0000
0100
0000
0010
0001
1000
0001
1000
0000
0010
0000
0100
0001
,
0020
0031
1000
0000
0000
0011
0001
0000
,
0011
0000
0001
0000
0010
0000
0100
1000
0001
1000
0001
0000
0010
0000
0100
1000
,
0001
0010
0100
1000
0001
1000
0001
1000
0001
0010
0100
1000
0001
1000
0001
1000
,
0001
0100
0010
1000
0001
1000
0001
1000
0001
0100
0010
0100
0001
1000
0001
1000
,
0200
1300
0001
0000
0000
1100
1000
0000
,
1100
0000
1000
0000
0100
0000
0010
0001
1000
0001
1000
0000
0100
0000
0010
0001
,
1000
0000
0000
0000
0100
0000
0010
0001
1000
0000
0010
0000
0100
0000
0010
1000
,
0001
0000
0010
0000
0100
0000
0010
0001
1000
0001
1000
0000
0010
0000
0100
0001
,
0020
0031
1000
0000
0000
0011
0001
0000
,
0011
0000
0001
0000
0010
0000
0100
1000
0001
1000
0001
0000
0010
0000
0100
1000
,
0002
0000
0020
0000
,
0200
0000
2000
3333
,
0001
0100
0001
1000
0100
1000
0010
1000
0001
0010
0001
0100
0001
1000
0100
1000
,
0001
0100
0001
0010
0001
1000
0010
1000
0001
0010
0001
0100
0001
1000
0100
1000
,
0001
0100
0001
0010
0001
1000
0010
1000
0100
1000
0001
0100
0001
0010
0001
1000
,
0010
1000
0100
1000
0001
0100
0001
0010
0001
1000
0010
1000
0001
1000
0001
1000
,
0100
0010
0001
1000
0100
0010
0001
1000
0100
0010
0001
1000
0100
0010
0001
1000
,
0001
0010
0100
1000
0001
0010
0100
1000
0001
0010
0100
1000
0001
1000
0001
1000
,
0001
0100
0010
1000
0001
0100
0010
1000
0001
1000
0010
0100
0001
1000
0010
0100
,
0001
1000
0100
0010
0001
1000
0100
0010
0001
1000
0100
0010
0001
1000
0001
1000
,
0001
0010
0001
1000
0010
1000
0100
1000
0001
0100
0001
0010
0001
1000
0010
1000
,
0001
0010
0001
0100
0001
1000
0100
1000
0001
0100
0001
0010
0001
1000
0010
1000
,
0001
0010
0001
0100
0001
1000
0100
1000
0010
1000
0001
0010
0001
0100
0001
1000
,
0100
1000
0010
1000
0001
0010
0001
0100
0001
1000
0100
1000
0001
1000
0001
1000
,
0010
0100
0001
1000
0010
0100
0001
1000
0010
0100
0001
1000
0010
0100
0001
1000
,
0001
0100
0010
1000
0001
0100
0010
1000
0001
0100
0010
1000
0001
1000
0001
1000
,
0001
0010
0100
1000
0001
0010
0100
1000
0001
1000
0100
0010
0001
1000
0100
0010
,
0001
1000
0010
0100
0001
1000
0010
0100
0001
1000
0010
0100
0001
1000
0001
1000
,
0020
0000
0000
0000
0031
0000
0020
0000
0000
0000
0130
0000
1001
0000
1000
0001
,
1000
0000
0001
0000
0010
0000
0100
1000
0001
1000
0001
0000
0010
0000
0100
1000
,
0001
0000
1000
0000
0010
0000
0100
0001
1000
0001
1000
0000
0010
0000
0000
0000
,
1000
0000
0001
0000
0010
0000
0100
1000
0001
1000
0001
0000
0010
0000
0100
1000
,
0001
0000
1000
0000
0010
0000
0100
0001
1000
0001
1000
0000
0010
0000
0000
0000
,
1000
0000
0001
0000
0010
0000
0100
1000
0001
1000
0001
0000
0010
0000
0100
1000
,
0001
0010
0100
1000
0001
1000
0001
1000
0001
0010
0100
1000
0001
1000
0001
1000
,
0001
0100
0010
1000
0001
1000
0001
1000
0001
0100
0010
0100
0001
1000
0001
1000
,
0001
0000
1000
0000
0100
0000
0010
0001
1000
0001
1000
0000
0100
0000
0000
0000
,
1000
0000
0001
0000
0100
0000
0010
1000
0001
1000
0001
0000
0100
0000
0010
1000
,
0001
0000
1000
0000
0100
0000
0010
0001
1000
0001
1000
0000
0100
0000
0000
0000
,
1000
0000
0001
0000
0100
0000
0010
1000
0001
1000
0001
0000
0100
0000
0010
1000
,
0001
0000
1000
0000
0100
0000
0010
0001
1000
0001
1000
0000
0100
0000
0000
0000
,
1000
0000
0001
0000
0100
0000
0010
1000
0001
1000
0001
0000
0100
0000
0010
1000
,
0002
0000
0200
0000
,
0020
0000
2000
3333
,
0201
0000
1300
0200
0000
0310
1001
0000
,
0011
0000
0001
0000
0010
0000
0100
1000
0001
1000
0001
0000
0010
0000
0100
1000
,
0001
0000
0000
0000
0010
0000
0100
1000
0001
0000
0100
0000
0010
0000
0100
0001
,
1000
0000
0100
0000
0010
0000
0100
1000
0001
1000
0001
0000
0100
0000
0010
1000
,
0200
1300
0001
0000
0000
1100
1000
0000
,
1100
0000
1000
0000
0100
0000
0010
0001
1000
0001
1000
0000
0100
0000
0010
0001
,
1000
0100
0010
0001
1000
0001
1000
0001
1000
0100
0010
0001
1000
0001
1000
0001
,
1000
0010
0100
0001
1000
0001
1000
0001
1000
0010
0100
0010
1000
0001
1000
0001
,
0020
0031
1000
0000
0000
0011
0001
0000
,
0011
0000
0001
0000
0010
0000
0100
1000
0001
1000
0001
0000
0010
0000
0100
1000
,
0001
0000
0000
0000
0010
0000
0100
1000
0001
0000
0100
0000
0010
0000
0100
0001
,
1000
0000
0100
0000
0010
0000
0100
1000
0001
1000
0001
0000
0100
0000
0010
1000
,
0200
1300
0001
0000
0000
1100
1000
0000
,
1100
0000
1000
0000
0100
0000
0010
0001
1000
0001
1000
0000
0100
0000
0010
0001
,
2000
0000
0020
0000
,
0200
0000
0002
3333
,
1000
0010
1000
0001
0010
0001
0100
0001
1000
0100
1000
0010
1000
0001
0010
0001
,
1000
0010
1000
0100
1000
0001
0100
0001
1000
0100
1000
0010
1000
0001
0010
0001
,
1000
0010
1000
0100
1000
0001
0100
0001
0010
0001
1000
0010
1000
0100
1000
0001
,
0100
0001
0010
0001
1000
0010
1000
0100
1000
0001
0100
0001
1000
0001
1000
0001
,
0010
0100
1000
0001
0010
0100
1000
0001
0010
0100
1000
0001
0010
0100
1000
0001
,
1000
0100
0010
0001
1000
0100
0010
0001
1000
0100
0010
0001
1000
0001
1000
0001
,
1000
0010
0100
0001
1000
0010
0100
0001
1000
0001
0100
0010
1000
0001
0100
0010
,
1000
0001
0010
0100
1000
0001
0010
0100
1000
0001
0010
0100
1000
0001
1000
0001
,
1000
0100
1000
0001
0100
0001
0010
0001
1000
0010
1000
0100
1000
0001
0100
0001
,
1000
0100
1000
0010
1000
0001
0010
0001
1000
0010
1000
0100
1000
0001
0100
0001
,
1000
0100
1000
0010
1000
0001
0010
0001
0100
0001
1000
0100
1000
0010
1000
0001
,
0010
0001
0100
0001
1000
0100
1000
0010
1000
0001
0010
0001
1000
0001
1000
0001
,
0100
0010
1000
0001
0100
0010
1000
0001
0100
0010
1000
0001
0100
0010
1000
0001
,
1000
0010
0100
0001
1000
0010
0100
0001
1000
0010
0100
0001
1000
0001
1000
0001
,
1000
0100
0010
0001
1000
0100
0010
0001
1000
0001
0010
0100
1000
0001
0010
0100
,
1000
0000
1000
0000
0001
0010
1100
0001
,
0120
0000
0000
0000
,
0000
0000
0000
0000
,
0000
0000
0000
0000
,
0000
0000
0000
0000
,
000M
000M
000M
000M
000M
000M
000M
000M
000M
000M
000M
000M
000M
000M
000M
000M
,
000M
000M
000M
000M
000M
000M
000M
000M
000M
0000
0000
0000
0000
0000
0000
0000
,
0000
0000
0000
0000
0000
0000
0000
0000
0M00
0M00
0M00
0M00
0M00
0M00
0M00
0M00
,
0M30
0M00
0M00
0M00
0M00
0M00
0M00
0M00
0M00
0000
0000
0000
0000
0000
0000
0000
,
1000
0000
0100
0000
0000
1000
0100
0000
,
0001
0000
0100
0000
0000
0001
0100
0000
,
1000
0000
0010
0000
0000
1000
0010
0000
,
0001
0000
0010
0000
0000
0001
0010
0000
,
10M0
00M0
00M0
00M0
01M0
00M0
00M0
00M0
00M0
00M0
10M0
00M0
01M0
00M0
00M0
00M0
,
00M1
0000
0000
0000
0100
0000
0000
0100
0000
0100
0001
0000
0100
0000
0000
0000
,
1000
0000
0010
0000
0000
1000
0010
0000
,
2040
3000
0030
0000
0042
0003
0030
0000
2040
3000
0030
0000
0000
0000
0000
0000
,
0001
0000
1000
0000
0100
0000
0010
0001
1000
0001
1000
0000
0100
0000
0010
0001
,
1000
0000
0001
0000
0100
0000
0010
1000
0001
1000
0001
0000
0100
0000
0010
1000
,
0001
0000
1000
0000
0100
0000
0010
0001
1000
0001
1000
0000
0100
0000
0010
0001
,
1000
0000
0001
0000
0100
0000
0010
1000
0001
1000
0001
0000
0010
0000
0100
1000
,
0001
0000
1000
0000
0100
0000
0010
0001
1000
0001
1000
0000
0100
0000
0010
0001
,
1000
0000
0001
0000
0100
0000
0010
1000
0001
1000
0001
0000
0100
0000
0010
1000
,
0001
0000
1000
0000
0100
0000
0010
0001
1000
0001
1000
0000
0100
0000
0000
0000
,
0042
0003
0030
0000
2040
3000
0030
0000
0042
0003
0030
0000
0000
0000
0000
0000
,
1000
0000
0001
0000
0010
0000
0100
1000
0001
1000
0001
0000
0010
0000
0100
1000
,
0001
0000
1000
0000
0010
0000
0100
0001
1000
0001
1000
0000
0010
0000
0100
0001
,
1000
0000
0001
0000
0010
0000
0100
1000
0001
1000
0001
0000
0010
0000
0100
1000
,
0001
0000
1000
0000
0010
0000
0100
0001
1000
0001
1000
0000
0100
0000
0010
0001
,
1000
0000
0001
0000
0010
0000
0100
1000
0001
1000
0001
0000
0010
0000
0100
1000
,
0001
0000
1000
0000
0010
0000
0100
0001
1000
0001
1000
0000
0010
0000
0100
0001
,
1000
0000
0001
0000
0010
0000
0100
1000
0001
1000
0001
0000
0010
0000
0001
1000
,
0400
1000
0301
1000
0400
1000
0301
1000
0400
1000
0301
1000
0001
1000
0001
1000
,
0020
0000
0031
0020
0000
0130
1001
0000
,
1100
0000
1000
0000
0100
0000
0010
0001
1000
0001
1000
0000
0100
0000
0010
0001
,
1000
0000
0000
0000
0100
0000
0010
0001
1000
0000
0010
0000
0100
0000
0010
1000
,
0001
0000
0010
0000
0100
0000
0010
0001
1000
0001
1000
0000
0010
0000
0100
0001
,
0020
0031
1000
0000
0000
0011
0001
0000
,
0011
0000
0001
0000
0010
0000
0100
1000
0001
1000
0001
0000
0010
0000
0100
1000
,
0001
0010
0100
1000
0001
1000
0001
1000
0001
0010
0100
1000
0001
1000
0001
1000
,
0001
0100
0010
1000
0001
1000
0001
1000
0001
0100
0010
0100
0001
1000
0001
1000
,
0200
1300
0001
0000
0000
1100
1000
0000
,
1100
0000
1000
0000
0100
0000
0010
0001
1000
0001
1000
0000
0100
0000
0010
0001
,
1000
0000
0000
0000
0100
0000
0010
0001
1000
0000
0010
0000
0100
0000
0010
1000
,
0001
0000
0010
0000
0100
0000
0010
0001
1000
0001
1000
0000
0010
0000
0100
0001
,
0020
0031
1000
0000
0000
0011
0001
0000
,
0011
0000
0001
0000
0010
0000
0100
1000
0001
1000
0001
0000
0010
0000
0100
1000
,
0002
0000
0020
0000
,
0200
0000
2000
3333
,
1000
0100
1000
0010
0100
0010
1000
0001
1000
0010
0100
0001
0100
0010
1000
0001
,
0100
0010
0100
0010
1000
0010
1000
0010
0100
0001
0100
0001
0010
0001
1000
0100
,
0010
0001
0100
0010
1000
0100
1000
0001
1000
0001
0010
0001
0100
0001
1000
0001
,
0010
0100
0010
0100
1000
0001
1000
0001
0100
0010
0100
0010
0100
0001
0100
0001
,
1000
0100
1000
0010
0100
0010
1000
0001
1000
0010
0100
0001
0100
0010
1000
0001
,
0100
0010
0100
0010
1000
0010
1000
0010
0100
0001
0100
0001
0010
0001
1000
0100
,
0010
0001
0100
0010
1000
0100
1000
0001
1000
0001
0010
0001
0100
0001
1000
0001
,
0100
0001
0010
0001
0100
0001
1000
0001
0100
0010
0100
0010
1000
0010
1000
0010
,
0100
0001
0010
0100
1000
0010
0100
0001
1000
0100
0010
0001
0010
0100
1000
0001
,
1000
0010
0100
0001
0100
0010
1000
0001
1000
0100
1000
0010
0100
0010
1000
0001
,
0010
0100
1000
0010
0100
0001
1000
0100
1000
0010
1000
0001
1000
0010
1000
0100
,
1000
0010
1000
0010
0100
0001
0100
0001
0010
0100
0010
0001
0010
0001
1000
0100
,
0010
0001
0100
0010
1000
0001
0100
0001
1000
0010
0100
0001
0100
0010
1000
0001
,
1000
0100
1000
0100
0010
0001
0100
0001
1000
0010
1000
0010
0100
0001
1000
0001
,
1000
0100
1000
0100
0010
0001
0010
0001
1000
0010
0100
0001
0100
0010
1000
0001
,
0010
0001
0100
0001
1000
0001
0100
0001
0010
0001
0010
0001
0100
0010
0100
0010
,
1000
0100
1000
0001
0100
0001
0010
0001
1000
0010
1000
0100
1000
0001
0100
0001
,
1000
0100
1000
0010
1000
0001
0010
0001
1000
0010
1000
0100
1000
0001
0100
0001
,
1000
0100
1000
0010
1000
0001
0010
0001
0100
0001
1000
0100
1000
0010
1000
0001
,
0010
0001
0100
0001
1000
0100
1000
0010
1000
0001
0010
0001
1000
0001
1000
0001
,
0100
0010
1000
0001
0100
0010
1000
0001
0100
0010
1000
0001
0100
0010
1000
0001
,
1000
0010
0100
0001
1000
0010
0100
0001
1000
0010
0100
0001
1000
0001
1000
0001
,
1000
0100
0010
0001
1000
0100
0010
0001
1000
0001
0010
0100
1000
0001
0010
0100
,
1000
0001
0100
0010
1000
0001
0100
0010
1000
0001
0100
0010
1000
0001
1000
0001
,
1000
0010
1000
0001
0010
0001
0100
0001
1000
0100
1000
0010
1000
0001
0010
0001
,
1000
0010
1000
0100
1000
0001
0100
0001
1000
0100
1000
0010
1000
0001
0010
0001
,
1000
0010
1000
0100
1000
0001
0100
0001
0010
0001
1000
0010
1000
0100
1000
0001
,
0100
0001
0010
0001
1000
0010
1000
0100
1000
0001
0100
0001
1000
0001
1000
0001
,
0010
0100
1000
0001
0010
0100
1000
0001
0010
0100
1000
0001
0010
0100
1000
0001
,
1000
0100
0010
0001
1000
0100
0010
0001
1000
0100
0010
0001
1000
0001
1000
0001
,
1000
0010
0100
0001
1000
0010
0100
0001
1000
0001
0100
0010
1000
0001
0100
0010
,
1000
0001
0010
0100
1000
0001
0010
0100
1000
0001
0010
0100
1000
0001
1000
0001
,
0200
0000
1300
0200
0000
0310
1001
0000
,
0011
0000
0001
0000
0010
0000
0100
1000
0001
1000
0001
0000
0010
0000
0100
1000
,
0001
0000
0000
0000
0010
0000
0100
1000
0001
0000
0100
0000
0010
0000
0100
0001
,
1000
0000
0100
0000
0010
0000
0100
1000
0001
1000
0001
0000
0100
0000
0010
1000
,
0200
1300
0001
0000
0000
1100
1000
0000
,
1100
0000
1000
0000
0100
0000
0010
0001
1000
0001
1000
0000
0100
0000
0010
0001
,
1000
0100
0010
0001
1000
0001
1000
0001
1000
0100
0010
0001
1000
0001
1000
0001
,
1000
0010
0100
0001
1000
0001
1000
0001
1000
0010
0100
0010
1000
0001
1000
0001
,
0020
0031
1000
0000
0000
0011
0001
0000
,
0011
0000
0001
0000
0010
0000
0100
1000
0001
1000
0001
0000
0010
0000
0100
1000
,
0001
0000
0000
0000
0010
0000
0100
1000
0001
0000
0100
0000
0010
0000
0100
0001
,
1000
0000
0100
0000
0010
0000
0100
1000
0001
1000
0001
0000
0100
0000
0010
1000
,
0200
1300
0001
0000
0000
1100
1000
0000
,
1100
0000
1000
0000
0100
0000
0010
0001
1000
0001
1000
0000
0100
0000
0010
0001
,
2000
0000
0020
0000
,
0200
0000
0002
3333
,
2000
0000
0000
0000
,
0000
0000
0000
0000
0000
0000
3010
0200
,
0000
0000
0000
0000
,
0000
0000
0000
0302
,
0023
0000
0000
0000
,
0000
0000
0230
2300
,
3002
0000
0000
0000
,
0203
0000
0000
0000
,
0320
0000
0000
0000
,
0000
0000
0000
0000
0000
0000
1030
0002
,
0000
0023
0000
0000
,
0000
0000
0000
0000
0000
0000
0130
1000
,
0010
0100
0002
0000
0000
0000
0000
0000
,
0000
0000
0000
0000
0000
0000
0013
0100
,
2000
0000
3002
0000
,
1003
0000
1000
0000
0001
0010
1100
0001
,
0120
0000
0000
0032
,
0000
0000
0203
0000
,
0320
0000
0000
0000
,
0000
0000
0000
2000
0030
0000
0000
0000
,
0000
3002
0000
0000
0000
0000
0000
0000
,
0000
0000
0203
0000
,
0000
0000
0020
0000
,
0000
0000
0000
0000
,
0000
0000
0000
0000
0000
0000
0000
0300
,
0030
0000
0000
0000
;

//---------------dance-single - I. Pyles----------------
#NOTES:
     dance-single:
     I. Pyles:
     Challenge:
     15:
     1.000,1.000,0.156,0.225,1.000,2699.000,54.000,78.000,63.000,12.000:











0000
0000
0000
0000
,
0000
0000
0000
0000
,
0000
0000
0000
0000
,
0000
0000
0000
0000
,
0000
0000
0000
0000
,
0000
0000
0000
0000
,
0000
0000
0000
0000
,
0000
0000
0000
0000
,
0002
0000
1000
0000
,
1000
0000
1000
0000
,
0200
0003
0000
0000
0010
0000
0000
0000
,
0010
0000
0010
0000
,
0002
0300
0000
0000
0010
0000
0000
0000
,
0010
0000
0010
0003
,
0002
0000
0020
0000
,
0200
0000
2000
3333
,
0011
0001
1000
0000
0000
0011
0001
0000
,
0011
0000
0001
0000
0010
0000
0100
1000
0001
1000
0001
0000
0010
0000
0100
1000
,
0001
0000
1000
0000
0001
0000
0000
0000
0000
0000
1100
0000
1000
0000
0100
1000
,
0001
0000
1000
0000
0001
0000
0010
0001
1000
0001
1000
0000
0100
0000
0010
0001
,
1000
0001
1000
0000
0000
1010
1000
0000
,
1010
0000
1000
0000
0010
0000
0100
0001
1000
0001
1000
0000
0010
0000
0100
0001
,
1000
0000
0001
0000
0200
0000
0300
0000
0010
0000
0002
00M0
0003
0000
2000
0000
,
3000
0000
0200
0000
0300
0000
0010
0000
1000
00M0
0001
0000
0200
0000
0300
0000
,
1010
1000
0001
0000
0000
1010
1000
0000
,
1010
0000
1000
0000
0010
0000
0100
0001
1000
0001
1000
0000
0010
0000
0100
0001
,
1000
0000
0001
0000
1000
0000
0000
0000
0000
0000
0101
0000
0001
0000
0100
0001
,
1000
0000
0001
0000
1000
0000
0100
1000
0001
1000
0001
0000
0010
0000
0100
1000
,
0001
1000
0001
0000
0000
0011
0001
0000
,
0011
0000
0001
0000
0010
0000
0100
1000
0001
1000
0001
0000
0010
0000
0100
1000
,
0001
0000
0000
0000
0000
0000
0000
0000
1000
0000
0000
0000
0000
0000
0000
0000
0200
0000
0000
0000
0000
0000
0000
0000
0300
0000
0000
0000
0000
0000
0000
0000
0010
0000
0000
0000
0000
0000
0000
0000
2000
0000
0000
0000
00M0
0000
0000
0000
3000
0000
0000
0000
0000
0000
0000
0000
0002
0000
0000
0000
0000
0000
0000
0003
,
0042
0003
0030
0000
2040
3000
0030
0000
0042
0003
0030
0000
0000
0000
0000
0000
,
0001
0010
0100
1000
0010
0100
0010
1000
0010
1000
0100
1000
0010
0100
0010
1000
,
0001
0100
0010
1000
0001
1000
0100
0010
0100
0010
0100
1000
0001
1000
0010
0100
,
0001
0100
0010
1000
0010
0100
0010
1000
0010
1000
0100
1000
0010
0100
0010
1000
,
0001
0100
0010
1000
0001
1000
0100
0010
0100
0010
0100
1000
0001
0100
0010
1000
,
0001
0100
0010
1000
0100
0010
0100
1000
0100
1000
0010
1000
0100
0010
0100
1000
,
0001
0010
0100
1000
0001
1000
0010
0100
0010
0100
0010
1000
0001
1000
0100
0010
,
0001
1000
0010
0100
0001
1000
0010
0100
0001
0010
0100
1000
0001
0010
0100
1000
,
0010
0100
0001
1000
0010
0100
0001
1000
0100
0010
0001
1000
0100
0010
0001
1000
,
0001
0010
0100
1000
0010
0100
0010
1000
0010
1000
0100
1000
0010
0100
0010
1000
,
0001
0100
0010
1000
0001
1000
0100
0010
0100
0010
0100
1000
0001
1000
0010
0100
,
0001
0100
0010
1000
0010
0100
0010
1000
0010
1000
0100
1000
0010
0100
0010
1000
,
0001
0100
0010
1000
0001
1000
0100
0010
0100
0010
0100
1000
0001
0100
0010
1000
,
0001
0100
0010
1000
0100
0010
0100
1000
0100
1000
0010
1000
0100
0010
0100
1000
,
0001
0010
0100
1000
0001
1000
0010
0100
0010
0100
0010
1000
0001
1000
0100
0010
,
0001
0100
0010
1000
0100
0010
0100
1000
0100
1000
0010
1000
0100
0010
0100
0000
,
2400
3000
0300
0000
0402
0003
0300
0000
2400
3000
0300
0000
M001
0000
0000
0000
,
1020
0000
0031
0020
0000
0130
1001
0000
,
1100
0000
1000
0000
0100
0000
0010
0001
1000
0001
1000
0000
0100
0000
0010
0001
,
1000
0000
0000
0000
0100
0000
0010
0001
1000
0000
0010
0000
0100
0000
0010
1000
,
0001
0000
0010
0000
0100
0000
0010
0001
1000
0001
1000
0000
0010
0000
0100
0001
,
0020
0031
1000
0000
0000
0011
0001
0000
,
0011
0000
0001
0000
0010
0000
0100
1000
0001
1000
0001
0000
0010
0000
0100
1000
,
0001
0010
0100
1000
0001
1000
0001
1000
0001
0010
0100
1000
0001
1000
0001
1000
,
0001
0100
0010
1000
0001
1000
0001
1000
0001
0100
0010
0100
0001
1000
0001
1000
,
0200
1300
0001
0000
0000
1100
1000
0000
,
1100
0000
1000
0000
0100
0000
0010
0001
1000
0001
1000
0000
0100
0000
0010
0001
,
1000
0000
0000
0000
0100
0000
0010
0001
1000
0000
0010
0000
0100
0000
0010
1000
,
0001
0000
0010
0000
0100
0000
0010
0001
1000
0001
1000
0000
0010
0000
0100
0001
,
0020
0031
1000
0000
0000
0011
0001
0000
,
0011
0000
0001
0000
0010
0000
0100
1000
0001
1000
0001
0000
0010
0000
0100
1000
,
0002
0000
0020
0000
,
0200
0000
2000
3333
,
0001
0100
0001
1000
0100
1000
0010
1000
0001
0010
0001
0100
0001
1000
0100
1000
,
0001
0100
0001
0010
0001
1000
0010
1000
0001
0010
0001
0100
0001
1000
0100
1000
,
0001
0100
0001
0010
0001
1000
0010
1000
0100
1000
0001
0100
0001
0010
0001
1000
,
0010
1000
0100
1000
0001
0100
0001
0010
0001
1000
0010
1000
0001
1000
0001
1000
,
0100
0010
0001
1000
0100
0010
0001
1000
0100
0010
0001
1000
0100
0010
0001
1000
,
0001
0010
0100
1000
0001
0010
0100
1000
0001
0010
0100
1000
0001
1000
0001
1000
,
0001
0100
0010
1000
0001
0100
0010
1000
0001
1000
0010
0100
0001
1000
0010
0100
,
0001
1000
0100
0010
0001
1000
0100
0010
0001
1000
0100
0010
0001
1000
0001
1000
,
0001
0010
0001
1000
0010
1000
0100
1000
0001
0100
0001
0010
0001
1000
0010
1000
,
0001
0010
0001
0100
0001
1000
0100
1000
0001
0100
0001
0010
0001
1000
0010
1000
,
0001
0010
0001
0100
0001
1000
0100
1000
0010
1000
0001
0010
0001
0100
0001
1000
,
0100
1000
0010
1000
0001
0010
0001
0100
0001
1000
0100
1000
0001
1000
0001
1000
,
0010
0100
0001
1000
0010
0100
0001
1000
0010
0100
0001
1000
0010
0100
0001
1000
,
0001
0100
0010
1000
0001
0100
0010
1000
0001
0100
0010
1000
0001
1000
0001
1000
,
0001
0010
0100
1000
0001
0010
0100
1000
0001
1000
0100
0010
0001
1000
0100
0010
,
0001
1000
0010
0100
0001
1000
0010
0100
0001
1000
0010
0100
0001
1000
0001
1000
,
0020
0000
0000
0000
0031
0000
0020
0000
0000
0000
0130
0000
1001
0000
1000
0001
,
1000
0100
0010
0001
1000
0001
0100
0010
0100
0010
0100
0001
1000
0001
0010
0100
,
1000
0100
0010
0001
0010
0100
0010
0001
0010
0001
0100
0001
0010
0100
0010
0001
,
1000
0100
0010
0001
1000
0001
0100
0010
0100
0010
0100
0001
1000
0100
0010
0001
,
1000
0100
0010
0001
0100
0010
0100
0001
0100
0001
0010
0001
0100
0010
0100
0001
,
1000
0010
0100
0001
1000
0001
0010
0100
0010
0100
0010
0001
1000
0001
0100
0010
,
1000
0001
0010
0100
1000
0001
0010
0100
1000
0010
0100
0001
1000
0010
0100
0001
,
0010
0100
1000
0001
0010
0100
1000
0001
0100
0010
1000
0001
0100
0010
1000
0001
,
1000
0010
0100
0001
0010
0100
0010
0001
0010
0001
0100
0001
0010
0100
0010
0001
,
1000
0100
0010
0001
1000
0001
0100
0010
0100
0010
0100
0001
1000
0001
0010
0100
,
1000
0100
0010
0001
0010
0100
0010
0001
0010
0001
0100
0001
0010
0100
0010
0001
,
1000
0100
0010
0001
1000
0001
0100
0010
0100
0010
0100
0001
1000
0100
0010
0001
,
1000
0100
0010
0001
0100
0010
0100
0001
0100
0001
0010
0001
0100
0010
0100
0001
,
1000
0010
0100
0001
1000
0001
0010
0100
0010
0100
0010
0001
1000
0001
0100
0010
,
2000
0000
0020
0000
,
0200
0000
0002
3333
,
0201
0000
1300
0200
0000
0310
1001
0000
,
0011
0000
0001
0000
0010
0000
0100
1000
0001
1000
0001
0000
0010
0000
0100
1000
,
0001
0000
0000
0000
0010
0000
0100
1000
0001
0000
0100
0000
0010
0000
0100
0001
,
1000
0000
0100
0000
0010
0000
0100
1000
0001
1000
0001
0000
0100
0000
0010
1000
,
0200
1300
0001
0000
0000
1100
1000
0000
,
1100
0000
1000
0000
0100
0000
0010
0001
1000
0001
1000
0000
0100
0000
0010
0001
,
1000
0100
0010
0001
1000
0001
1000
0001
1000
0100
0010
0001
1000
0001
1000
0001
,
1000
0010
0100
0001
1000
0001
1000
0001
1000
0010
0100
0010
1000
0001
1000
0001
,
0020
0031
1000
0000
0000
0011
0001
0000
,
0011
0000
0001
0000
0010
0000
0100
1000
0001
1000
0001
0000
0010
0000
0100
1000
,
0001
0000
0000
0000
0010
0000
0100
1000
0001
0000
0100
0000
0010
0000
0100
0001
,
1000
0000
0100
0000
0010
0000
0100
1000
0001
1000
0001
0000
0100
0000
0010
1000
,
0200
1300
0001
0000
0000
1100
1000
0000
,
1100
0000
1000
0000
0100
0000
0010
0001
1000
0001
1000
0000
0100
0000
0010
0001
,
2000
0000
0020
0000
,
0200
0000
0002
3333
,
1000
0010
1000
0001
0010
0001
0100
0001
1000
0100
1000
0010
1000
0001
0010
0001
,
1000
0010
1000
0100
1000
0001
0100
0001
1000
0100
1000
0010
1000
0001
0010
0001
,
1000
0010
1000
0100
1000
0001
0100
0001
0010
0001
1000
0010
1000
0100
1000
0001
,
0100
0001
0010
0001
1000
0010
1000
0100
1000
0001
0100
0001
1000
0001
1000
0001
,
0010
0100
1000
0001
0010
0100
1000
0001
0010
0100
1000
0001
0010
0100
1000
0001
,
1000
0100
0010
0001
1000
0100
0010
0001
1000
0100
0010
0001
1000
0001
1000
0001
,
1000
0010
0100
0001
1000
0010
0100
0001
1000
0001
0100
0010
1000
0001
0100
0010
,
1000
0001
0010
0100
1000
0001
0010
0100
1000
0001
0010
0100
1000
0001
1000
0001
,
1000
0100
1000
0001
0100
0001
0010
0001
1000
0010
1000
0100
1000
0001
0100
0001
,
1000
0100
1000
0010
1000
0001
0010
0001
1000
0010
1000
0100
1000
0001
0100
0001
,
1000
0100
1000
0010
1000
0001
0010
0001
0100
0001
1000
0100
1000
0010
1000
0001
,
0010
0001
0100
0001
1000
0100
1000
0010
1000
0001
0010
0001
1000
0001
1000
0001
,
0100
0010
1000
0001
0100
0010
1000
0001
0100
0010
1000
0001
0100
0010
1000
0001
,
1000
0010
0100
0001
1000
0010
0100
0001
1000
0010
0100
0001
1000
0001
1000
0001
,
1000
0100
0010
0001
1000
0100
0010
0001
1000
0001
0010
0100
1000
0001
0010
0100
,
1000
0000
1000
0000
0001
0010
1100
0001
,
0120
0000
0000
0000
,
0000
0000
0000
0000
,
0000
0000
0000
0000
,
0000
0000
0000
0000
,
000M
000M
000M
000M
000M
000M
000M
000M
000M
000M
000M
000M
000M
000M
000M
000M
,
000M
000M
000M
000M
000M
000M
000M
000M
000M
0000
0000
0000
0000
0000
0000
0000
,
0000
0000
0000
0000
0000
0000
0000
0000
0M00
0M00
0M00
0M00
0M00
0M00
0M00
0M00
,
0M30
0M00
0M00
0M00
0M00
0M00
0M00
0M00
0M00
0000
0000
0000
0000
0000
0000
0000
,
1000
0000
0100
0000
0000
1000
0100
0000
,
0001
0000
0100
0000
0000
0001
0100
0000
,
1000
0000
0010
0000
0000
1000
0010
0000
,
0001
0000
0010
0000
0000
0001
0010
0000
,
10M0
00M0
00M0
00M0
01M0
00M0
00M0
00M0
00M0
00M0
10M0
00M0
01M0
00M0
00M0
00M0
,
00M1
0000
0000
0000
0100
0000
0000
0100
0000
0100
0001
0000
0100
0000
0000
0000
,
1000
0000
0010
0000
0000
1000
0010
0000
,
2040
3000
0030
0000
0042
0003
0030
0000
2040
3000
0030
0000
0000
0000
0000
0000
,
1000
0100
0010
0001
0100
0010
0100
0001
0100
0001
0010
0001
0100
0010
0100
0001
,
1000
0010
0100
0001
1000
0001
0010
0100
0010
0100
0010
0001
1000
0001
0100
0010
,
1000
0010
0100
0001
0100
0010
0100
0001
0100
0001
0010
0001
0100
0010
0100
0001
,
1000
0010
0100
0001
1000
0001
0010
0100
0010
0100
0010
0001
1000
0010
0100
0001
,
1000
0010
0100
0001
0010
0100
0010
0001
0010
0001
0100
0001
0010
0100
0010
0001
,
1000
0100
0010
0001
1000
0001
0100
0010
0100
0010
0100
0001
1000
0001
0010
0100
,
1000
0010
0100
0001
0010
0100
0010
0001
0010
0001
0100
0001
0010
0100
0010
0000
,
0042
0003
0030
0000
2040
3000
0030
0000
0042
0003
0030
0000
0000
0000
0000
0000
,
0001
0100
0010
1000
0100
0010
0100
1000
0100
1000
0010
1000
0100
0010
0100
1000
,
0001
0010
0100
1000
0001
1000
0010
0100
0010
0100
0010
1000
0001
1000
0100
0010
,
0001
0010
0100
1000
0100
0010
0100
1000
0100
1000
0010
1000
0100
0010
0100
1000
,
0001
0010
0100
1000
0001
1000
0010
0100
0010
0100
0010
1000
0001
0010
0100
1000
,
0001
0010
0100
1000
0010
0100
0010
1000
0010
1000
0100
1000
0010
0100
0010
1000
,
0001
0100
0010
1000
0001
1000
0100
0010
0100
0010
0100
1000
0001
1000
0010
0100
,
0001
0010
0100
1000
0010
0100
0010
1000
0010
1000
0100
1000
0010
0100
0010
1000
,
0400
1000
0301
1000
0400
1000
0301
1000
0400
1000
0301
1000
0001
1000
0001
1000
,
0020
0000
0031
0020
0000
0130
1001
0000
,
1100
0000
1000
0000
0100
0000
0010
0001
1000
0001
1000
0000
0100
0000
0010
0001
,
1000
0000
0000
0000
0100
0000
0010
0001
1000
0000
0010
0000
0100
0000
0010
1000
,
0001
0000
0010
0000
0100
0000
0010
0001
1000
0001
1000
0000
0010
0000
0100
0001
,
0020
0031
1000
0000
0000
0011
0001
0000
,
0011
0000
0001
0000
0010
0000
0100
1000
0001
1000
0001
0000
0010
0000
0100
1000
,
0001
0010
0100
1000
0001
1000
0001
1000
0001
0010
0100
1000
0001
1000
0001
1000
,
0001
0100
0010
1000
0001
1000
0001
1000
0001
0100
0010
0100
0001
1000
0001
1000
,
0200
1300
0001
0000
0000
1100
1000
0000
,
1100
0000
1000
0000
0100
0000
0010
0001
1000
0001
1000
0000
0100
0000
0010
0001
,
1000
0000
0000
0000
0100
0000
0010
0001
1000
0000
0010
0000
0100
0000
0010
1000
,
0001
0000
0010
0000
0100
0000
0010
0001
1000
0001
1000
0000
0010
0000
0100
0001
,
0020
0031
1000
0000
0000
0011
0001
0000
,
0011
0000
0001
0000
0010
0000
0100
1000
0001
1000
0001
0000
0010
0000
0100
1000
,
0002
0000
0020
0000
,
0200
0000
2000
3333
,
1000
0100
1000
0010
0100
0010
1000
0001
1000
0010
0100
0001
0100
0010
1000
0001
,
0100
0010
0100
0010
1000
0010
1000
0010
0100
0001
0100
0001
0010
0001
1000
0100
,
0010
0001
0100
0010
1000
0100
1000
0001
1000
0001
0010
0001
0100
0001
1000
0001
,
0010
0100
0010
0100
1000
0001
1000
0001
0100
0010
0100
0010
0100
0001
0100
0001
,
1000
0100
1000
0010
0100
0010
1000
0001
1000
0010
0100
0001
0100
0010
1000
0001
,
0100
0010
0100
0010
1000
0010
1000
0010
0100
0001
0100
0001
0010
0001
1000
0100
,
0010
0001
0100
0010
1000
0100
1000
0001
1000
0001
0010
0001
0100
0001
1000
0001
,
0100
0001
0010
0001
0100
0001
1000
0001
0100
0010
0100
0010
1000
0010
1000
0010
,
0100
0001
0010
0100
1000
0010
0100
0001
1000
0100
0010
0001
0010
0100
1000
0001
,
1000
0010
0100
0001
0100
0010
1000
0001
1000
0100
1000
0010
0100
0010
1000
0001
,
0010
0100
1000
0010
0100
0001
1000
0100
1000
0010
1000
0001
1000
0010
1000
0100
,
1000
0010
1000
0010
0100
0001
0100
0001
0010
0100
0010
0001
0010
0001
1000
0100
,
0010
0001
0100
0010
1000
0001
0100
0001
1000
0010
0100
0001
0100
0010
1000
0001
,
1000
0100
1000
0100
0010
0001
0100
0001
1000
0010
1000
0010
0100
0001
1000
0001
,
1000
0100
1000
0100
0010
0001
0010
0001
1000
0010
0100
0001
0100
0010
1000
0001
,
0010
0001
0100
0001
1000
0001
0100
0001
0010
0001
0010
0001
0100
0010
0100
0010
,
1000
0100
1000
0001
0100
0001
0010
0001
1000
0010
1000
0100
1000
0001
0100
0001
,
1000
0100
1000
0010
1000
0001
0010
0001
1000
0010
1000
0100
1000
0001
0100
0001
,
1000
0100
1000
0010
1000
0001
0010
0001
0100
0001
1000
0100
1000
0010
1000
0001
,
0010
0001
0100
0001
1000
0100
1000
0010
1000
0001
0010
0001
1000
0001
1000
0001
,
0100
0010
1000
0001
0100
0010
1000
0001
0100
0010
1000
0001
0100
0010
1000
0001
,
1000
0010
0100
0001
1000
0010
0100
0001
1000
0010
0100
0001
1000
0001
1000
0001
,
1000
0100
0010
0001
1000
0100
0010
0001
1000
0001
0010
0100
1000
0001
0010
0100
,
1000
0001
0100
0010
1000
0001
0100
0010
1000
0001
0100
0010
1000
0001
1000
0001
,
1000
0010
1000
0001
0010
0001
0100
0001
1000
0100
1000
0010
1000
0001
0010
0001
,
1000
0010
1000
0100
1000
0001
0100
0001
1000
0100
1000
0010
1000
0001
0010
0001
,
1000
0010
1000
0100
1000
0001
0100
0001
0010
0001
1000
0010
1000
0100
1000
0001
,
0100
0001
0010
0001
1000
0010
1000
0100
1000
0001
0100
0001
1000
0001
1000
0001
,
0010
0100
1000
0001
0010
0100
1000
0001
0010
0100
1000
0001
0010
0100
1000
0001
,
1000
0100
0010
0001
1000
0100
0010
0001
1000
0100
0010
0001
1000
0001
1000
0001
,
1000
0010
0100
0001
1000
0010
0100
0001
1000
0001
0100
0010
1000
0001
0100
0010
,
1000
0001
0010
0100
1000
0001
0010
0100
1000
0001
0010
0100
1000
0001
1000
0001
,
0200
0000
1300
0200
0000
0310
1001
0000
,
0011
0000
0001
0000
0010
0000
0100
1000
0001
1000
0001
0000
0010
0000
0100
1000
,
0001
0000
0000
0000
0010
0000
0100
1000
0001
0000
0100
0000
0010
0000
0100
0001
,
1000
0000
0100
0000
0010
0000
0100
1000
0001
1000
0001
0000
0100
0000
0010
1000
,
0200
1300
0001
0000
0000
1100
1000
0000
,
1100
0000
1000
0000
0100
0000
0010
0001
1000
0001
1000
0000
0100
0000
0010
0001
,
1000
0100
0010
0001
1000
0001
1000
0001
1000
0100
0010
0001
1000
0001
1000
0001
,
1000
0010
0100
0001
1000
0001
1000
0001
1000
0010
0100
0010
1000
0001
1000
0001
,
0020
0031
1000
0000
0000
0011
0001
0000
,
0011
0000
0001
0000
0010
0000
0100
1000
0001
1000
0001
0000
0010
0000
0100
1000
,
0001
0000
0000
0000
0010
0000
0100
1000
0001
0000
0100
0000
0010
0000
0100
0001
,
1000
0000
0100
0000
0010
0000
0100
1000
0001
1000
0001
0000
0100
0000
0010
1000
,
0200
1300
0001
0000
0000
1100
1000
0000
,
1100
0000
1000
0000
0100
0000
0010
0001
1000
0001
1000
0000
0100
0000
0010
0001
,
2000
0000
0020
0000
,
0200
0000
0002
3333
,
1000
0010
0100
0010
1000
0100
0010
0001
1000
0010
0100
0010
1000
0100
0010
0001
,
1000
0010
0100
0010
1000
0100
0010
0001
1000
0010
0100
0010
1000
0001
0010
0100
,
1000
0010
0100
0010
1000
0001
0010
0100
1000
0010
0100
0010
1000
0001
0010
0100
,
1000
0010
0100
0010
1000
0001
0010
0100
1000
0010
0100
0010
1000
0100
1000
0001
,
1000
0100
0010
0100
1000
0010
0100
0001
1000
0100
0010
0100
1000
0010
0100
0001
,
1000
0100
0010
0100
1000
0010
0100
0001
1000
0100
0010
0001
1000
0010
0100
0001
,
1000
0001
0100
0010
1000
0100
0010
0100
1000
0001
0100
0010
1000
0100
0010
0100
,
1000
0010
0100
0001
1000
0100
0010
0100
1000
0010
0100
0001
1000
0100
0010
0100
,
1000
0010
0100
0010
1000
0100
0010
0001
1000
0010
0100
0010
1000
0100
0010
0001
,
1000
0010
0100
0010
1000
0100
0010
0001
1000
0010
0100
0010
1000
0001
0010
0001
,
1000
0001
0100
0001
1000
0100
0010
0100
1000
0010
0100
0001
1000
0100
0010
0100
,
1000
0010
0100
0001
1000
0100
0010
0100
1000
0010
0100
0001
1000
0100
1000
0010
,
1000
0100
0010
0100
1000
0010
0100
0001
0010
0100
0010
0001
1000
0010
0100
0001
,
0010
0100
0010
0001
1000
0010
0100
0001
0010
0100
0010
0001
1000
0001
1000
0010
,
0100
0010
1000
0100
0010
0001
0100
0010
0100
0001
0010
0100
1000
0010
0100
0010
,
1000
0000
1000
0000
0001
0010
1100
0001
,
0120
0000
0000
0032
,
0000
0000
0203
0000
,
0320
0000
0000
0000
,
0000
0000
0000
2000
0030
0000
0000
0000
,
0000
3002
0000
0000
0000
0000
0000
0000
,
0000
0000
0203
0000
,
0000
0000
0020
0000
,
0000
0000
0000
0000
,
0000
0000
0000
0000
0000
0000
0000
0300
,
0030
0000
0000
0000
;
