#TITLE:Seishihen666 ~The Last Testament~;
#SUBTITLE:11eyes O.S.T;
#ARTIST:Lass;
#TITLETRANSLIT:;
#SUBTITLETRANSLIT:;
#ARTISTTRANSLIT:;
#CREDIT:ALICE_;
#BANNER:Seishihen666 ~The Last Testament~.png;
#BACKGROUND:Seishihen666 ~The Last Testament~.jpg;
#LYRICSPATH:;
#CDTITLE:cdtitle.png;
#MUSIC:Seishihen666 ~The Last Testament~.mp3;
#OFFSET:-0.090;
#SAMPLESTART:31.980;
#SAMPLELENGTH:12.000;
#SELECTABLE:YES;
#BPMS:0.000=200.000;
#STOPS:;
#BGCHANGES:;
// cache tags:
#FIRSTBEAT:4.000;
#LASTBEAT:681.000;
#SONGFILENAME:Songs/alice 4th complete step/Seishihen666 ~The Last Testament~/Seishihen666 ~The Last Testament~.sm;
#HASMUSIC:1;
#HASBANNER:1;
#MUSICLENGTH:204.310;
// end cache tags

//---------------dance-single - ----------------
#NOTES:
     dance-single:
     :
     Hard:
     17:
     1.000,1.000,0.945,1.000,1.000,1131.000,193.000,384.000,0.000,99.000:
0000
0000
0000
0000
,
2002
3200
0320
0233
,
0302
0023
0230
2300
,
3220
2300
3002
2033
,
3020
0032
0203
0302
,
2023
0230
0320
3032
,
2003
3200
0320
0032
,
2203
0000
0000
3300
2020
0000
0000
3030
,
0202
0000
0000
0303
2002
0000
0000
3003
,
0220
0000
0000
0000
0000
0000
0000
0330
,
2020
0000
0000
0000
0000
0000
0000
3030
,
0220
0000
0000
0000
,
0000
0330
0002
0000
0203
0000
2300
3000
,
2002
0000
0000
0000
0000
0000
0000
3003
,
0010
0010
0100
0001
0001
0010
0100
0100
1000
0010
0010
0100
,
2002
0000
0000
0000
0000
0000
0000
0000
3000
0103
0000
2010
,
0000
0000
0100
0010
0000
0000
0100
0001
0100
0010
3000
0000
,
2002
0000
0000
0000
0000
0000
0000
0000
0000
0000
0000
0000
0000
0000
0000
0003
0000
0000
3100
0000
0000
0000
0021
0000
,
0000
0000
0000
0000
0030
0000
0102
0000
0000
0003
0000
0000
1020
0000
0100
0000
1030
0000
0200
0000
0010
0000
0310
0000
,
2002
0000
0000
0000
0000
0000
0000
0000
0000
0000
0000
0000
0000
0000
0000
0003
0000
0000
3100
0000
0000
0000
0021
0000
,
0000
0000
1000
0001
0000
0000
1000
0100
1000
0001
0030
0000
,
0202
0000
0000
0000
0000
0000
0000
0000
0000
0000
0000
0000
0000
0000
0000
0003
0000
0000
0310
0000
0000
0000
1002
0000
,
0000
0000
0000
0000
0000
0000
1203
0000
0000
0300
0000
0000
2001
0000
0010
0000
3100
0000
1002
0000
0010
0000
0103
0000
,
1001
0000
0000
2000
0010
3010
2000
0100
3100
2000
0001
3001
,
2000
0010
3010
2000
0100
3100
2000
0010
3010
2000
0100
3100
,
0000
0000
0000
0002
0010
0013
0002
0100
0103
0002
0010
0013
,
0002
1000
1003
0002
0100
0103
0002
1000
1003
0002
0010
0013
,
2002
0000
0000
0000
0000
0000
0000
0000
3000
0013
0000
2100
,
0000
0000
0010
0001
0000
0000
0100
0010
0100
0001
3000
0000
,
0202
0000
0000
0000
0000
0000
0000
0000
0000
0000
0000
0000
0000
0000
0000
0003
0000
0000
1300
0000
0000
0000
0021
0000
,
0000
0000
0000
0000
0030
0000
1200
0000
0000
0300
0000
0000
1002
0000
0100
0000
1000
0000
0023
0000
0100
0000
0130
0000
,
2002
0000
0000
0000
0000
0000
0000
0000
0000
0000
0000
0000
0000
0000
0000
0003
0000
0000
3100
0000
0000
0000
0021
0000
,
0000
0000
0100
1000
0000
0000
0001
0100
0001
1000
0030
0000
,
2020
0000
0000
0000
0000
0000
0000
0000
0000
0000
0000
0000
0000
0000
0000
0030
0000
0000
3100
0000
0000
0000
1002
0000
,
0000
0000
0000
0000
0000
0000
0123
0000
0000
0030
0000
0000
2001
0000
0010
0000
3100
0000
0021
0000
1000
0000
0130
0000
,
1001
0000
0000
2000
0100
3100
2000
0010
3010
2000
0001
3001
,
2000
0010
3010
2000
0100
3100
2000
0010
3010
2000
0100
3100
,
0000
0000
0000
0002
1000
1003
0002
0100
0103
0002
0010
0013
,
0002
1000
1003
0002
0100
0103
0002
1000
1003
0002
0010
0013
,
0102
0000
0100
1010
0000
0000
0100
0000
0100
1010
0000
0000
,
0100
0000
0103
1020
0000
0030
2100
0010
3100
1001
0000
0000
,
2010
0000
0010
0101
0000
0000
0010
0000
0010
0101
0000
0000
,
0010
0000
3010
0201
0000
0300
0012
0100
0013
2100
0010
3010
,
2002
0000
0000
0000
0000
0000
3000
0000
0000
0003
0020
0000
0000
0000
0000
0000
0000
0000
2030
0000
0000
0000
0000
0000
,
3200
0000
0000
0000
0000
0000
0000
0000
0000
0300
0002
0000
0000
0000
0000
0000
0000
0000
0023
0000
0000
0000
0000
0000
,
0232
0000
0000
0000
0000
0000
0003
0000
0000
0300
2000
0000
0000
0000
0000
0000
0000
0000
3002
0000
0000
0000
0000
0000
,
0023
0000
0230
0000
0302
0000
2003
3000
,
0120
0000
0100
1001
0000
0000
0100
0000
0100
1001
0000
0000
,
0100
0000
0130
1002
0000
0003
0120
1000
0130
2010
0000
3000
,
0201
0000
0001
1010
0000
0000
0001
0000
0001
1010
0000
0000
,
0001
0000
0000
0300
0001
0000
2010
0000
0000
3000
0100
0000
1010
0000
0100
0000
0100
0000
0011
0000
1000
0000
1000
0000
,
0220
0330
0000
0002
0100
0103
0020
0100
0130
0002
0100
0103
,
0020
1000
1030
0002
1000
1003
0200
1000
1300
0002
1000
1003
,
0110
0000
0000
0200
0010
0310
2000
0010
3010
0200
0010
0310
,
2000
0001
3001
0200
0001
0301
2000
0001
3001
0020
0001
0031
,
1100
0000
0000
0020
0100
0130
0002
0100
0103
0020
0100
0130
,
2000
0001
3001
0200
0001
0301
0020
0001
0031
2000
0100
3100
,
0011
0000
0000
0002
0100
0103
0020
1000
1030
0002
0100
0103
,
2000
0010
3010
0200
0001
0301
2000
0010
3010
0002
0100
0103
,
1010
0010
0010
1101
,
1011
0010
0010
1011
,
1101
0100
0100
1110
,
0111
0001
0001
1011
,
1101
0100
0100
1101
,
1011
0010
0010
0111
,
1110
1000
1000
1101
,
1011
0100
0100
0010
1000
1000
0001
0100
0100
0001
0010
0010
,
2002
0000
0000
3000
0000
0000
0013
0100
1000
0001
0010
0100
,
2000
0000
0000
0110
0000
3000
0002
0000
0000
0110
0000
0003
,
2020
0000
0101
3030
2002
0000
0110
3003
,
0001
0100
1000
0010
0100
1000
0001
0010
0100
0010
1000
0100
,
2002
0113
3020
1100
,
0230
0011
2300
0110
,
3102
0000
1010
0000
0023
0000
1001
0030
,
2100
0001
0100
0010
0001
3010
0102
1000
0100
0010
1000
0013
,
2002
0000
0000
0000
0000
0000
0000
0000
0003
3010
0000
0102
,
0000
0000
0100
0010
0000
0000
1000
0100
1000
0010
0003
0000
,
2002
0000
0000
0000
0000
0000
0000
0000
0000
0000
0000
0000
0000
0000
0000
3000
0000
0000
0013
0000
0000
0000
1200
0000
,
0000
0000
0000
0000
0300
0000
2010
0000
0000
3000
0000
0000
0201
0000
0010
0000
0301
0000
0020
0000
0100
0000
0130
0000
,
2002
0000
0000
0000
0000
0000
0000
0000
0000
0000
0000
0000
0000
0000
0000
3000
0000
0000
0013
0000
0000
0000
1200
0000
,
0000
0000
0001
1000
0000
0000
0001
0010
0001
1000
0300
0000
,
2020
0000
0000
0000
0000
0000
0000
0000
0000
0000
0000
0000
0000
0000
0000
3000
0000
0000
0130
0000
0000
0000
2001
0000
,
0000
0000
0000
0000
0000
0000
3020
0000
0000
0030
0000
0000
1002
0000
0100
0000
0013
0000
2001
0000
0100
0000
3010
0000
,
1001
0000
0000
0002
0100
0103
0002
0010
0013
0002
1000
1003
,
0002
0100
0103
0002
0010
0013
0002
0100
0103
0002
0010
0013
,
0000
0000
0000
2000
0100
3100
2000
0010
3010
2000
0100
3100
,
2000
0001
3001
2000
0010
3010
2000
0001
3001
2000
0100
3100
,
2002
0000
0000
0000
0000
0000
0000
0000
0003
3100
0000
0012
,
0000
0000
0100
1000
0000
0000
0010
0100
0010
1000
0003
0000
,
2020
0000
0000
0000
0000
0000
0000
0000
0000
0000
0000
0000
0000
0000
0000
3000
0000
0000
0031
0000
0000
0000
1200
0000
,
0000
0000
0000
0000
0000
0000
0320
0000
0000
0030
0000
0000
2001
0000
0010
0000
0001
0000
3200
0000
0010
0000
0310
0000
,
2002
0000
0000
0000
0000
0000
0000
0000
0000
0000
0000
0000
0000
0000
0000
3000
0000
0000
0013
0000
0000
0000
1200
0000
,
0000
0000
0010
0001
0000
0000
1000
0010
1000
0001
0300
0000
,
0202
0000
0000
0000
0000
0000
0000
0000
0000
0000
0000
0000
0000
0000
0000
0300
0000
0000
0013
0000
0000
0000
2001
0000
,
0000
0000
0000
0000
0000
0000
3200
0000
0000
0300
0000
0000
1002
0000
0100
0000
0013
0000
1200
0000
0001
0000
0310
0000
,
1001
0000
0000
0002
0010
0013
0002
0100
0103
0002
1000
1003
,
0002
0100
0103
0002
0010
0013
0002
0100
0103
0002
0010
0013
,
0000
0000
0000
2000
0001
3001
2000
0010
3010
2000
0100
3100
,
2000
0001
3001
2000
0010
3010
2000
0001
3001
2000
0100
3100
,
1001
0100
1000
0001
0010
0100
1000
0010
0001
0100
0010
1000
,
0001
0100
0010
1000
0010
0001
0100
1000
0100
0010
0001
0010
,
1000
0100
1000
0010
0100
0010
0001
0100
0001
0010
1000
0100
,
0010
0001
0010
0010
1000
0100
0001
0001
0010
1000
0001
0100
,
1000
0010
0001
0010
0100
1000
0001
0010
1000
0010
0010
0100
,
0001
0010
0100
0010
0001
1000
0100
0010
0100
1000
0001
0010
,
1000
0100
1000
0010
0100
0010
1000
0100
0010
0100
0010
1000
,
0001
0010
0001
0100
0010
0100
1000
0010
1000
0100
0001
0010
,
1000
0100
1000
0001
0100
0001
1000
0100
1000
0001
0100
0001
,
1000
0010
0001
0100
1000
0010
1000
0100
0010
1000
0100
0001
,
1000
0010
1000
0001
0010
0001
1000
0010
1000
0001
0010
0001
,
0100
0010
1000
0001
0010
0100
0001
0010
1000
0100
0001
1000
,
0220
0330
0000
2000
0010
3010
0200
0010
0310
2000
0010
3010
,
0200
0001
0301
2000
0001
3001
0020
0001
0031
2000
0001
3001
,
0110
0000
0000
0020
0100
0130
0002
0100
0103
0020
0100
0130
,
0002
1000
1003
0020
1000
1030
0002
1000
1003
0200
1000
1300
,
0012
0000
0000
0203
0010
0310
2000
0010
3010
0200
0010
0310
,
0002
1000
1003
0020
1000
1030
0200
1000
1300
0002
0010
0013
,
0100
0000
0000
2000
0010
3010
0200
0001
0301
2000
0010
3010
,
0002
0100
0103
0020
1000
1030
0002
0100
0103
2000
0010
3010
,
0101
0000
0000
1111
,
1111
0000
0000
1111
,
1111
0000
0000
1111
,
1111
0000
0000
1111
,
1111
0000
0000
1111
,
1111
0000
0000
1111
,
1111
0000
0000
1111
,
1101
0010
0010
0100
0001
0001
1000
0100
0010
0100
0010
0001
,
2002
0000
0000
0003
0000
0000
3001
0010
0100
0010
0100
1000
,
0220
0000
0000
1001
0000
0300
2030
0000
0000
0110
0000
3000
,
0202
0000
1010
0303
2002
0000
0110
3003
,
1000
0010
0001
0100
0010
0001
1000
0100
0010
0100
0001
0010
,
2002
3110
0203
1010
,
0320
1001
0032
1100
,
2013
0000
0101
0000
3201
0000
1010
0300
,
0012
1000
0010
0100
1000
0103
2010
0001
0010
0100
0001
3010
,
0101
1000
0001
2000
0000
0000
0000
0000
0000
3100
0010
1000
,
0010
0001
0001
0100
0010
0010
1000
0001
0001
0100
1000
0010
,
0101
0000
1010
0000
1100
0000
1010
0000
0101
0000
0011
0000
,
2000
0000
0000
0000
0000
0000
3220
0000
0000
0000
0000
0330
,
0001
0100
0010
1000
0010
0100
0001
0010
0100
0010
0100
1000
,
0010
0001
0010
1000
0100
1000
0001
0100
0001
0010
1000
0100
,
0002
0000
2003
0000
,
3200
0000
0320
0000
,
0031
0100
1000
0001
0100
1000
0001
0100
1000
0001
0100
1000
,
0020
0000
0000
0030
0100
0000
1000
0000
0100
0000
0001
0000
1000
0000
0010
0000
1000
0000
0001
0000
0010
0000
0100
0000
,
0020
0000
0000
0030
0200
0300
2000
3000
0200
0300
0020
0030
0002
0003
0020
0030
0200
0300
2000
3000
0200
0300
2000
3000
,
0001
0000
0010
0000
0100
0000
0001
0000
0010
0000
0100
0000
0001
0000
0010
0000
0100
0000
0020
0000
0000
0000
0000
0030
,
2002
0000
0000
0000
0000
0000
0000
0000
0000
0110
0000
3003
,
0010
0100
1000
0010
0100
1000
0001
0100
1000
0001
0010
0100
,
1000
0010
0100
0001
0010
0001
1000
0001
0100
0010
1000
0100
,
2001
0001
0001
0010
0001
3001
0100
0010
0100
0001
1000
0001
,
0220
2300
3200
0332
,
2003
3020
0230
0302
,
0223
0302
2003
3032
,
0203
0302
2003
3200
,
2320
0032
0023
3032
,
2003
3200
0320
0230
,
2320
0000
0000
3030
2200
0000
0000
3300
,
0202
0000
0000
0303
0022
0000
0000
0033
,
1221
0000
0000
0000
0000
0000
0000
0330
,
2002
0000
0000
0000
0000
0000
0000
3003
,
0220
0000
0000
0000
,
0000
0330
0002
0000
0203
0000
2300
3000
,
2222
0000
0000
0000
0000
0000
0000
3333
,
0001
0010
0010
1000
1000
0100
0010
0100
1000
0001
0010
0100
,
2002
0000
0000
0000
0000
0000
0000
0000
3000
1103
0000
0022
,
0000
0000
0100
1000
0000
0000
0100
1000
0100
1000
0000
0033
,
2002
0000
0000
0000
0000
0000
0000
0000
0000
0000
0000
0000
0000
0000
0000
0003
0000
0000
3101
0000
0000
0000
1020
0000
,
0000
2030
3200
0320
,
2032
0000
0000
0000
0000
0000
0000
0000
0000
0000
0000
0000
0000
0000
0000
3000
0000
0000
0203
0000
0000
0000
2300
0000
,
0000
3000
0000
0000
;

//---------------dance-single - ----------------
#NOTES:
     dance-single:
     :
     Challenge:
     20:
     1.000,1.000,1.000,1.000,1.000,1693.000,895.000,253.000,0.000,189.000:
0000
0000
0000
0000
,
0220
0000
0330
0001
0100
1000
0010
0100
1000
0001
0100
1000
,
0010
0100
1000
0001
0010
0100
0010
0100
1000
0001
0010
0100
,
0022
0000
0033
1000
0100
0001
0100
0010
0001
1000
0100
0001
,
0100
0010
0001
1000
0100
0010
0100
0010
0001
1000
0100
0010
,
2200
0000
3300
0001
0010
0001
0100
0010
0100
0001
1000
0001
,
0100
1000
0100
0010
1000
0010
0100
0001
0100
0010
0001
0010
,
2000
0100
0001
0100
0010
3001
0200
1000
0010
1000
0010
0301
,
0020
0001
1000
0001
0100
1030
0002
0100
1000
0010
0100
1003
,
0110
1000
0100
0001
1000
0010
0100
0001
1000
0110
0110
0110
,
1001
0010
0001
0100
1000
0010
0001
1000
0100
1010
1010
1010
,
0101
0010
1000
0001
0010
0100
0010
1000
0100
0001
0010
1000
,
0100
1000
0010
1001
0010
0100
1010
0100
0010
1001
0100
0010
,
0102
1000
0100
1000
0100
0013
0001
1000
0001
0100
0010
1000
,
0001
0011
1000
0010
0110
1000
0001
0101
0010
1000
1100
0010
,
1001
0100
1100
0011
0000
1001
0110
0000
0000
0202
0303
2020
,
0000
3030
0010
0101
0010
1010
1100
0001
0101
1010
0100
0101
,
0011
1000
1100
0011
0000
1001
0110
0000
0000
0202
0303
2020
,
0000
3030
0100
1010
0100
0101
0011
1000
1010
0101
1000
0110
,
1001
0100
1100
0011
0000
1010
0101
0000
0000
2002
3003
2020
,
0000
3030
0010
0101
0010
1010
1001
0100
0101
1000
0100
0010
,
1001
0100
0110
1001
0100
0011
1100
0000
0000
2002
3003
0202
,
0000
0303
1000
0011
1100
1100
0110
1001
1001
1100
0011
0011
,
1001
0100
0010
2000
0001
3101
0020
1000
1130
0002
0010
1013
,
0200
0001
0311
2000
0100
3101
0020
1000
1130
0002
0010
1013
,
0100
0001
0100
0002
1000
1013
0200
0001
0311
2000
0100
3101
,
0020
1000
1130
0002
0010
1013
0101
0011
0011
1100
1010
1010
,
1001
0010
0011
1100
0000
0110
1001
0000
0000
1010
0000
0100
,
1001
0000
0010
0101
0010
1010
1100
0001
0101
1010
0100
0101
,
0011
1000
1100
0011
0000
0110
1001
0000
0000
0022
0033
2200
,
0000
3300
0001
0110
1000
0011
1100
0010
1010
0101
1000
0110
,
1001
0100
0011
1100
0000
1010
0101
0000
0000
2020
3030
0202
,
0000
0303
0010
1001
0010
1010
1001
0100
0101
1010
0100
0010
,
1001
0100
0110
1001
0100
0011
1100
0000
0000
2002
3003
0202
,
0000
0303
1000
0011
0000
0011
1010
0101
0101
0011
1100
1100
,
1001
0100
0010
2000
0001
3101
0020
1000
1130
0002
0010
1013
,
0200
0001
0311
2000
0100
3101
0020
1000
1130
0002
0010
1013
,
0100
0001
0100
0002
1000
1013
0200
0001
0311
2000
0100
3101
,
0020
1000
1130
0002
0010
1013
0101
1010
1001
0110
1001
0101
,
1001
0010
0100
0011
1000
0100
0011
1000
1010
0101
1000
0110
,
1000
0011
0100
1010
0100
0001
1100
0011
0110
1001
0100
0010
,
1000
0101
1000
0110
1000
0001
1100
0010
0001
0110
0001
1010
,
0100
0001
1000
0110
1001
0100
0011
1000
1100
0011
1001
0110
,
1000
0010
1000
0101
1000
0011
0100
0001
0100
1010
0100
1001
,
0010
1100
0010
0101
0010
1000
0110
0011
1100
1001
0010
0100
,
0011
1000
0010
1100
0001
0110
1000
0001
0100
0011
1000
0110
,
1001
0010
0100
1010
0001
0110
1000
0100
0010
0101
1000
1100
,
0011
1000
0010
0101
1000
0110
0001
1010
0001
1100
0010
1000
,
0101
1000
0011
0110
1000
0010
0100
1001
1000
0110
0001
1100
,
1001
0010
1000
0101
1000
0010
0110
1001
1000
0011
0100
0010
,
1001
1100
0010
1001
0100
0011
1100
1010
1010
0101
0011
0011
,
1001
0100
0100
0012
1100
1103
0020
1100
1130
0002
1100
1103
,
2000
0011
3011
0200
0011
0311
2000
0011
3011
0200
0011
0311
,
1001
0010
0010
2100
0011
3011
0200
0011
0311
2000
0011
3011
,
0200
1010
1310
0002
0110
0113
1001
1100
0011
1100
0110
1001
,
0101
0010
0010
2100
0001
3101
0020
1000
1130
0002
0010
1013
,
0200
0001
0311
2000
0100
3101
0020
1000
1130
0002
0010
1013
,
0100
0001
0100
0002
1000
1013
0200
0001
0311
2000
0100
3101
,
0020
1000
1130
0002
0010
1013
0101
1100
0011
0110
1001
0101
,
1111
0000
0000
1111
,
1111
0000
0000
1111
,
1111
0000
0000
1111
,
1111
0000
0000
0000
0000
0000
0000
0000
0000
1111
0001
0001
,
1111
0000
0000
1111
,
1111
0000
0000
1111
,
1111
0000
0000
0000
0000
0000
0000
0000
0000
1111
0000
0001
,
1111
1001
1001
1001
1001
1001
1100
0011
0011
1100
0110
0011
,
1002
0100
0010
1000
0010
0103
0011
0110
1100
0011
0110
1100
,
2010
0100
0001
0010
0001
3100
1002
0010
0100
0010
1000
0103
,
2010
0001
0010
0001
0100
3010
0201
1000
0010
0001
1000
0310
,
0101
1010
1100
0011
1001
0101
1010
1100
0110
1001
0011
0110
,
1002
0100
0010
1000
0010
0103
1010
0100
1000
0011
1100
0110
,
1001
0010
1100
0011
0100
1000
1001
0100
0010
1100
0001
0010
,
2100
0001
0100
0001
0100
3010
0102
1000
0100
0010
1000
0103
,
0011
0011
0011
1001
1001
1001
1100
0011
0110
1001
1001
1001
,
0110
1000
0011
1100
0000
1001
0110
0000
0000
2020
3030
2002
,
0000
3003
0010
0101
0010
1010
1100
0001
0101
1010
0100
0101
,
0011
1000
1100
0011
0000
1001
0110
0000
0000
0202
0303
2002
,
0000
3003
0100
1010
0100
0101
0011
1000
1010
0101
1000
0110
,
1001
0100
1100
0011
0000
1010
0101
0000
0000
0022
0033
2200
,
0000
3300
0010
0101
0010
1010
1001
0100
0101
1000
0100
0010
,
1001
0100
0110
1001
0100
0011
1100
0000
0000
2002
3003
0202
,
0000
0303
1000
0011
1100
1100
1001
0110
0110
0101
1010
1010
,
1001
0100
0010
2100
0001
3101
0020
1000
1130
0002
0010
1013
,
0200
0001
0311
2000
0100
3101
0020
1000
1130
0002
0010
1013
,
0100
0100
0100
0012
1000
1013
0200
0001
0311
2000
0100
3101
,
0020
1000
1130
0002
0010
1013
0101
0011
0011
1100
1010
1010
,
1001
0010
0011
1100
0000
0110
1001
0000
0000
0220
0330
2002
,
0000
3003
0010
0101
0010
1010
1100
0001
0101
1010
0100
0101
,
0011
1000
1100
0011
0000
0110
1001
0000
0000
0022
0033
2200
,
0000
3300
0001
0110
1000
0011
1100
0010
1010
0101
1000
0110
,
1001
0100
0011
1100
0000
1010
0101
0000
0000
2002
3003
0220
,
0000
0330
0010
0101
0010
1010
1001
0100
0101
1010
0100
0010
,
1001
0100
0110
1001
0100
0011
1100
0000
0000
0022
0033
2002
,
0000
3003
1010
0101
0000
1001
1010
0101
0101
0011
1100
1100
,
1001
0100
0010
2001
0100
3101
0020
1000
1130
0002
0010
1013
,
0200
0001
0311
2000
0100
3101
0020
1000
1130
0002
0100
1103
,
0010
0010
0010
0102
1000
1013
0200
0001
0311
2000
0100
3101
,
0020
1000
1130
0002
0010
1013
0101
1010
1001
0110
1001
0101
,
1001
0100
0100
0011
0010
0010
1000
1000
1000
0101
0100
0100
,
0010
0010
0010
1100
1000
1000
0001
0001
0001
0110
0100
0010
,
1000
1000
1000
0101
0001
0001
1000
1000
1000
0011
0010
0010
,
0001
0001
0001
1100
1000
1000
0001
0001
0001
0110
0110
0110
,
1001
1001
0101
1001
0000
0010
1100
0000
0100
0011
0000
0110
,
1001
1001
1010
1001
0000
0100
1010
0010
0010
0101
0100
0100
,
0011
0011
1100
1001
0000
1001
0110
0000
0110
1001
0000
0011
,
1100
1000
1000
0110
0010
1000
0011
0001
0001
0110
0100
0001
,
1100
1100
0011
1001
0000
0100
0011
0000
0010
1100
0000
1001
,
0110
0010
0010
1100
1000
1000
0101
0001
0001
0110
0100
0100
,
0011
0001
0001
1100
1000
1000
0110
0010
0010
1001
1000
1000
,
0011
0100
0011
1001
0100
0110
1100
0011
0110
1001
1010
0101
,
1001
0100
0110
0012
1100
1103
0020
1100
1130
0002
1100
1103
,
2000
0011
3011
0200
0011
0311
2000
0011
3011
0200
0011
0311
,
1001
0010
0110
2100
0011
3011
0200
0011
0311
2000
0011
3011
,
0200
1010
1310
0002
0110
0113
1001
1100
0011
1100
0110
1001
,
0101
0010
0010
2100
0011
3011
0020
1100
1130
0002
0110
0113
,
0200
0011
0311
2000
0101
3101
0020
1100
1130
0002
1010
1013
,
0100
0100
0110
0002
1100
1103
0200
0011
0311
2000
0011
3011
,
0020
1100
1130
0002
0110
0113
1001
1100
0011
0110
1001
0101
,
1111
1001
1001
1111
,
1111
0110
0110
1111
,
1111
1001
1001
1111
,
1111
0000
0000
0110
0000
0000
0110
0000
0000
1111
1000
1000
,
1111
1001
1001
1111
,
1111
0110
0110
1111
,
1111
1001
1001
1111
,
1111
0110
0110
0110
0110
0110
1001
1100
0011
1010
0101
0011
,
2001
0010
0100
0001
0010
3001
1100
0110
0011
1100
0110
0011
,
0102
0010
1000
0100
1000
0013
2001
0100
0010
0100
0001
3010
,
0102
1000
0010
1000
0100
1003
0120
1000
0001
0100
0001
1030
,
1001
0110
1100
0011
1001
1010
0101
0011
0110
1001
1100
0110
,
2001
0010
0100
0001
0100
3010
0101
0010
0001
1100
0011
0110
,
1001
0100
0011
1100
0010
0001
1001
0010
0100
0011
1000
0100
,
0012
1000
0010
1000
0010
0103
2010
0001
0010
0100
0001
3010
,
1100
1100
1100
0011
1100
1100
1001
1001
1001
0110
1001
0110
,
1001
0010
0001
0100
1000
0100
0001
0010
0001
0110
1100
0011
,
1001
1100
0110
1001
0110
0011
1100
0011
0110
1001
0011
1100
,
0002
0003
0000
0000
0020
0030
0000
0000
0200
0300
0000
0000
0020
0030
0000
0000
0200
0300
0000
0000
2000
3000
0000
0000
,
0102
0000
1000
0000
0100
0000
1010
0000
0100
0000
0013
0000
1000
0100
1000
0010
0100
0001
0010
0100
0001
0010
1000
0100
,
0011
1100
1100
0011
1100
0011
1100
0011
0011
1100
1001
0110
,
0101
1000
1010
1001
0100
0101
0011
1000
0110
1001
0010
0101
,
0020
0000
0000
0000
0000
0030
0200
0000
0000
0000
0000
0300
,
1001
1100
0011
1100
1100
1100
0011
1100
0101
0011
0011
0011
,
1100
0110
0011
1100
0110
0011
1010
0101
0011
1010
0101
0011
,
1001
0110
1100
0011
0110
1100
0101
1010
1100
0011
0110
1100
,
0001
0010
0001
1000
0010
0100
0001
1000
0100
0010
0001
1000
0010
0100
0001
0010
0100
1000
0001
0100
0010
1000
0100
0010
,
1001
0100
1010
1001
0100
1010
1001
0100
1010
0202
0000
0303
,
0022
0000
0000
0000
0000
0000
0000
0000
0000
0000
0000
0033
,
1010
0101
0011
1001
0100
0010
1100
1001
0010
0101
1000
0010
,
0100
0011
0100
0001
1010
0001
1100
0010
1100
0001
0010
0100
,
1001
1001
1001
1001
1001
1001
0110
0110
0110
1001
0110
1001
,
0220
2032
3023
2330
,
0022
0000
0000
3230
0000
0000
0323
0000
0000
1130
1100
1100
,
0220
2032
3023
2330
,
3202
0000
0000
2003
0000
0000
3302
0000
0000
0113
1100
0010
,
0202
2320
3230
2303
,
3022
0000
0000
2030
0000
0000
3203
0000
0000
0311
1001
0010
,
1202
0000
0000
0303
0122
0000
0000
0033
,
2120
0000
0000
3030
2201
0000
0000
3300
,
0110
1000
0100
0001
0010
0100
0001
1000
0010
1100
1100
1100
,
1001
0010
0001
0100
1000
0010
0100
1000
0100
0011
0011
0011
,
1001
0100
0010
1000
0001
0010
0100
1000
0100
0001
0010
1000
,
0100
1000
0010
0002
0100
1003
0020
0100
1030
0002
0100
0013
,
2222
0000
0000
0000
0000
0000
0000
0000
0000
0000
0000
3333
,
0001
0011
1000
0010
0110
1000
1001
0100
0010
1001
0010
0100
,
1001
0100
1100
0011
0000
1001
0110
0000
0000
2020
3030
0202
,
0000
0303
0010
0101
0010
1100
0011
0100
1001
0110
0001
1100
,
0011
1000
1100
0011
0000
1001
0110
0000
0000
0202
0303
2020
,
0000
3030
0100
1010
0100
0011
1100
0001
0110
1001
1100
0110
,
2002
0000
0000
0000
0000
0000
0000
0000
0000
0000
0000
0000
0000
0000
0000
0003
0000
0000
3020
0000
0000
0000
0200
0000
,
0000
0330
0000
0000
;
