#TITLE:Tip Taps Tip;
#SUBTITLE:- Eureka seveN 3rd Ending;
#ARTIST:HALCALI;
#TITLETRANSLIT:;
#SUBTITLETRANSLIT:;
#ARTISTTRANSLIT:;
#CREDIT:Jubo;
#BANNER:E7 ED3 Banner.jpg;
#BACKGROUND:E7 ED3 BG1.jpg;
#LYRICSPATH:Eureka seveN 3rd ED Lyrics.lrc;
#CDTITLE:Jubo.png;
#MUSIC:Eureka seveN 3rd ED - Tip Taps Tip (TV Size).mp3;
#OFFSET:1.380;
#SAMPLESTART:45.300;
#SAMPLELENGTH:30.000;
#SELECTABLE:YES;
#BPMS:0.000=120.000;
#STOPS:;
#BGCHANGES:8.000=Eureka 7 3rd vid.avi=1.000=1=0=0,
186.000=E7 ED3 BG2.jpg=1.000=1=0=0,
99999=-nosongbg-=1.000=0=0=0 // don't automatically add -songbackground-
;
// cache tags:
#FIRSTBEAT:4.000;
#LASTBEAT:204.000;
#SONGFILENAME:Songs/Otaku's Dream 1st Anime Mix/Jubo - Eureka seveN 3rd ED/Eureka seveN 3rd ED.sm;
#HASMUSIC:1;
#HASBANNER:1;
#MUSICLENGTH:106.684;
// end cache tags

//---------------dance-single - ----------------
#NOTES:
     dance-single:
     :
     Hard:
     7:
     0.573,0.526,1.000,0.122,0.000,298.000,117.000,13.000,0.000,0.000:
0000
0000
0000
0000
,
0001
0010
0100
0100
0010
0001
1000
0100
,
0010
0010
0100
1000
0010
0100
0010
0100
,
0110
0000
1001
0000
1000
1100
1010
0000
,
1000
0000
0001
0000
0001
0011
0101
0000
,
0001
0000
0110
0000
1000
1100
1010
0000
,
0001
0100
0001
0010
0100
1100
1100
1100
,
1010
0000
1100
0000
0011
0000
0101
0001
,
0001
0010
0100
1000
1000
0100
0010
0001
,
0101
0000
0110
0000
0011
0000
0101
0001
,
0010
0100
1000
1100
0000
1010
1000
0100
,
0010
0001
0011
0000
0110
0000
0010
0001
,
0000
0101
0000
1010
0000
0110
0101
2000
,
3020
0000
0030
0022
0000
0000
0000
0033
,
2000
0001
0010
0100
0100
0010
0001
3010
,
1001
0000
0110
0000
0010
1100
0000
0001
,
0100
0010
1000
0100
0100
0001
0100
1000
,
0010
0001
0010
1000
0010
0011
0000
1000
,
0010
0001
0100
1000
0010
0110
0000
0001
,
0010
0100
1000
0010
1000
1010
0000
1000
,
0100
0010
0001
0100
0001
0101
0000
1100
,
1100
0000
1010
1010
0101
0000
0110
0010
,
0001
1000
0001
0100
1000
0110
0000
0000
,
1100
0000
1010
0000
1001
0000
0000
1001
,
0000
0011
0000
0101
0000
1001
2020
0000
,
3030
0000
0011
0000
0110
0000
1000
0010
,
0000
0100
0001
0010
0000
0011
0000
0001
,
0011
0000
0110
0000
1100
1000
0010
0010
,
0000
0001
0010
0100
1000
1000
0100
0010
,
0002
0000
0000
0000
1000
1000
0000
0010
,
0010
0000
0000
0000
0010
0000
0020
0000
0000
0033
1100
0000
1100
0000
1100
0000
,
1010
0000
1100
0000
0011
0000
0101
0001
,
0001
0010
0100
1000
1000
0100
0010
0001
,
0101
0000
0110
0000
0011
0000
0101
0001
,
0010
0100
1000
1100
0000
1010
1000
0100
,
0010
0001
0011
0000
0110
0000
0010
0001
,
0000
0101
0000
1010
0000
0110
0101
1100
,
2020
0000
3030
0022
0000
0000
0000
0030
,
1000
0000
0100
0000
0010
0003
0010
0000
0100
0000
1000
0000
0100
0000
0010
0000
,
1001
0000
1100
0000
1001
0000
1100
1001
,
1010
0000
1100
0000
1001
0000
1100
1001
,
1010
0000
1100
0000
1001
0000
0110
1001
,
0110
0001
0010
1000
0100
0010
1010
0101
,
0000
0000
0011
0000
1001
0000
0011
1001
,
0101
0000
0011
0000
1001
0000
0011
1001
,
0101
0000
0011
0000
1001
0000
0110
1001
,
0110
0001
0010
0100
1000
1000
0100
0010
,
0001
0001
0010
0100
1000
0100
0010
0100
,
0010
0100
0010
0100
0010
1000
0010
0100
,
0100
0010
1000
0001
0100
0010
0010
0100
,
1100
0110
0011
0101
,
1001
0000
0000
0000
;

//---------------dance-single - ----------------
#NOTES:
     dance-single:
     :
     Medium:
     5:
     0.364,0.406,0.450,0.009,0.000,223.000,48.000,1.000,0.000,0.000:
0000
0000
0000
0000
,
0000
0000
0000
0000
,
0000
0000
0000
0000
,
0011
1100
1000
0001
,
0010
0100
1000
0001
,
1100
0011
0001
1000
,
0100
0010
0001
1000
,
1001
1001
1001
0010
,
0100
0010
0001
1000
,
0110
0110
0110
1000
,
0010
0100
0001
0010
,
0011
0011
0011
1000
,
0100
0010
0001
1000
,
0010
0100
0001
0010
,
1000
0100
0010
0001
0010
0100
1000
0100
,
0010
0001
1000
0000
0010
0000
0100
0000
,
0010
0000
0001
0000
1000
0001
1000
0000
,
0010
0000
0100
0000
0010
0001
0010
0000
,
1000
0000
0100
0000
1000
0100
1000
0000
,
0010
0000
0100
0000
0010
0001
0000
1000
,
0000
0001
0100
0000
0010
1000
0000
0100
,
0001
0000
0010
1000
0000
0100
0001
0000
,
0010
1000
0000
0100
0001
0000
0000
0000
,
1001
1001
1001
0010
,
0100
0010
0001
1000
,
0110
0110
0110
1000
,
0010
0100
0010
0001
,
0011
0011
0011
1000
,
0100
0010
0100
0010
,
0002
0010
0100
0010
,
1000
0010
0103
1000
,
1001
1001
1001
0010
,
0100
0010
0001
1000
,
0110
0110
0110
1000
,
0010
0100
0001
0010
,
0011
0011
0011
1000
,
0100
0010
0001
1000
,
0010
0100
0001
0010
,
1000
0100
0010
0001
0010
0100
1000
0100
,
0010
0001
0110
0000
0110
0000
0001
0100
,
0001
0000
0110
0000
0110
0000
1000
0010
,
1000
0000
0110
0000
0110
0000
0010
0001
,
1000
0001
1000
0001
1000
0001
1000
0001
,
1000
0000
0110
0000
0110
0000
1000
0100
,
1000
0000
0110
0000
0110
0000
0001
0010
,
0001
0000
0110
0000
0110
0000
0100
0010
,
1000
0100
0010
0001
0010
0100
1000
0100
,
1100
0011
0001
1000
,
0100
0010
0001
1000
,
0011
1100
1000
0100
,
1000
0100
0001
0100
,
1001
0000
0000
0000
;

//---------------dance-single - ----------------
#NOTES:
     dance-single:
     :
     Easy:
     3:
     0.233,0.311,0.178,0.056,0.000,149.000,19.000,6.000,0.000,0.000:
0000
0000
0000
0000
,
0000
0001
0010
1000
,
0000
0000
1000
0100
,
0001
0010
0010
0010
,
1000
1000
1000
1000
,
0001
0001
0001
0001
,
1000
0100
0010
0001
,
0100
0100
0100
0000
,
1000
0001
1000
0001
,
0010
0010
0010
0000
,
0001
1000
0001
1000
,
0100
0100
0100
0000
,
0010
0100
0010
0100
,
0220
0000
0000
0000
,
0000
0000
0000
0000
,
0330
0000
0000
0000
,
1000
0001
1000
0001
,
0000
0000
0010
0100
,
0010
0100
0000
0000
,
1000
0001
0010
0100
,
0000
0000
0000
0000
,
0001
1000
0010
0100
,
1001
0000
1000
1000
,
0000
0001
0001
0000
,
1000
1000
0000
0000
,
0000
0001
0010
0000
,
1000
0100
0000
0000
,
0010
0100
0010
1000
,
1000
0001
0001
0010
,
0220
0000
0000
0000
,
0000
0330
0000
0000
,
0100
0100
0100
0000
,
1000
0001
1000
0001
,
0010
0010
0010
0000
,
0001
1000
0001
1000
,
0100
0100
0100
0000
,
0010
0100
0010
0100
,
0220
0000
0000
0000
,
0000
0000
0000
0000
,
0330
1001
1001
0001
,
0001
1001
1001
1000
,
1000
1001
1001
0001
,
0001
0100
0100
0010
,
0010
1001
1001
1000
,
1000
1001
1001
0001
,
0001
1001
1001
1000
,
1000
0001
0001
1000
,
1001
0010
0100
0010
,
0100
0010
0100
0010
,
1001
0010
0100
0010
,
1000
1000
0001
0001
,
1001
0000
0000
0000
;

//---------------dance-single - ----------------
#NOTES:
     dance-single:
     :
     Beginner:
     1:
     0.103,0.191,0.131,0.028,0.000,60.000,14.000,3.000,0.000,0.000:
0000
0000
0000
0000
,
0000
0000
0000
0000
,
0000
0000
0000
0000
,
0010
0000
0000
0000
,
0000
0000
0000
0000
,
0100
0000
0000
0000
,
1001
0000
0000
0000
,
0010
0010
0010
0000
,
0000
0000
0000
0000
,
0100
0100
0100
0000
,
0000
0000
0000
0000
,
0010
0010
0010
0000
,
0001
0000
0001
0000
,
1000
0000
0002
0000
,
0000
0000
0000
0000
,
0003
0000
0000
0000
,
1000
0000
0000
0000
,
1000
0000
0000
0000
,
0100
0000
0000
0000
,
0100
0000
0000
0000
,
0010
0000
0000
0000
,
0010
0000
0000
0000
,
0001
0000
0000
0000
,
0001
0000
0000
0000
,
1000
0000
0000
0000
,
1000
0000
0000
0000
,
0010
0000
0000
0000
,
0010
0000
0000
0000
,
0100
0000
0000
0000
,
0200
0000
0000
0000
,
0000
0000
0300
0000
,
0100
0100
0100
0000
,
0000
0000
0000
0000
,
0010
0010
0010
0000
,
0000
0000
0000
0000
,
0100
0100
0100
0000
,
1000
0000
1000
0000
,
0001
0000
2000
0000
,
0000
0000
3000
0000
,
0000
1001
1001
0000
,
0000
1001
1001
0000
,
0000
1001
1001
0000
,
0000
0000
0000
0000
,
0000
1001
1001
0000
,
0000
1001
1001
0000
,
0000
1001
1001
0000
,
0000
0000
0000
0000
,
0010
0000
0000
0000
,
0100
0000
0000
0000
,
0100
0000
0000
0000
,
0010
0000
0000
0000
,
1001
0000
0000
0000
;
