#TITLE:Song of Storms (Windmill Hut);
#SUBTITLE:;
#ARTIST:近藤浩治;
#TITLETRANSLIT:;
#SUBTITLETRANSLIT:;
#ARTISTTRANSLIT:Koji Kondo;
#CREDIT:Arch0wl;
#BANNER:songofstorms-bn.png;
#BACKGROUND:songofstorms-bg.png;
#LYRICSPATH:;
#CDTITLE:!Arch0wlTitle.png;
#MUSIC:songofstorms.ogg;
#OFFSET:-0.508;
#SAMPLESTART:27.432;
#SAMPLELENGTH:14.700;
#SELECTABLE:YES;
#BPMS:0.000=66.666;
#STOPS:;
#BGCHANGES:0.000=songofstorms-bg.png=1.000=0=0=1,
99999=-nosongbg-=1.000=0=0=0 // don't automatically add -songbackground-
;
// cache tags:
#FIRSTBEAT:0.000;
#LASTBEAT:103.000;
#SONGFILENAME:Songs/Archmage and Dark0wl Hammer of Thor UltraHyperMegaPack/Song of Storms/songofstorms.sm;
#HASMUSIC:1;
#HASBANNER:1;
#MUSICLENGTH:105.000;
// end cache tags

//---------------dance-single - Arch0wl----------------
#NOTES:
     dance-single:
     Arch0wl:
     Hard:
     8:
     0.430,0.319,0.000,0.000,1.000,316.000,0.000,0.000,0.000,0.000:
1000
0000
0010
0000
0010
0000
0000
0100
0001
0001
0001
0000
0000
0000
0100
0000
0100
0000
0000
0010
1000
1000
1000
0000
,
0000
0000
0100
0000
0100
0000
0000
0010
0001
0001
0001
0000
0000
0000
0100
0000
0100
0000
0000
0010
1000
1000
1000
0000
,
1000
0100
0010
0000
0000
0000
0001
0100
0010
0000
0000
0000
1000
0000
0000
1000
0100
0010
0001
0100
0010
0000
0000
0000
,
1000
0000
0001
0000
1000
0010
0100
0000
0000
0000
0000
0000
0001
0000
1000
0000
0001
0010
0100
0000
0000
0000
0000
0000
,
1000
0010
0100
0000
0000
0000
0001
0010
0100
0000
0000
0000
1000
0000
0000
1000
0010
0100
0001
0010
0100
0000
0000
0000
,
1000
0000
0001
0000
0010
0100
1000
0000
0000
0000
0100
0000
1000
0000
0010
0000
0010
0000
0000
0100
0001
0001
0001
0000
,
0000
0000
1000
0000
1000
0000
0000
0100
0010
0010
0010
0000
0000
0000
0001
0000
0001
0000
0000
1000
0010
0010
0010
0000
,
0000
0000
0100
0000
0100
0000
0000
0010
1000
1000
1000
0000
0001
0100
1000
0000
0000
0000
0001
0010
1000
0000
0000
0000
,
0100
0000
0000
0100
1000
0010
0100
0001
0010
0000
0000
0000
0001
0000
1000
0000
0100
0010
1000
0000
0000
0000
0000
0000
,
0010
0000
0001
0000
0100
0010
0001
0000
0000
0000
0000
0000
1000
0100
0001
0000
0000
0000
1000
0010
0001
0000
0000
0000
,
1000
0000
0000
1000
0100
0001
0010
0100
1000
0000
0000
0000
0001
0000
1000
0000
0100
0001
1000
0000
0000
0000
0010
0000
,
0001
0000
1000
0000
1000
0000
0000
0001
0100
0100
0100
0000
0000
0000
1000
0000
1000
0000
0000
0001
0010
0010
0010
0000
,
0000
0000
1000
0000
1000
0000
0000
0001
0100
0100
0100
0000
0000
0000
1000
0000
1000
0000
0000
0001
0010
0010
0010
0000
,
0010
1000
0001
0000
0000
0000
0100
1000
0001
0000
0000
0000
0010
0000
0000
0010
1000
0001
0100
1000
0001
0000
0000
0000
,
0010
0000
0100
0000
0010
0001
1000
0000
0000
0000
0000
0000
0100
0000
0010
0000
0100
0001
1000
0000
0000
0000
0000
0000
,
0100
1000
0001
0000
0000
0000
0010
1000
0001
0000
0000
0000
0100
0000
0000
0100
1000
0001
0010
1000
0001
0000
0000
0000
,
0100
0000
0010
0000
1000
0001
0100
0000
0000
0000
0001
0000
0100
0000
1000
0000
1000
0000
0000
0001
0010
0010
0010
0000
,
0000
0000
0100
0000
0100
0000
0000
0001
1000
1000
1000
0000
0000
0000
0010
0000
0010
0000
0000
0100
1000
1000
1000
0000
,
0000
0000
0001
0000
0001
0000
0000
1000
0100
0100
0100
0000
0010
0001
0100
0000
0000
0000
0010
1000
0100
0000
0000
0000
,
0001
0000
0000
0001
0100
1000
0001
0010
1000
0000
0000
0000
0010
0000
0100
0000
0001
1000
0100
0000
0000
0000
0000
0000
,
1000
0000
0010
0000
0001
1000
0010
0000
0000
0000
0000
0000
0100
0001
0010
0000
0000
0000
0100
1000
0010
0000
0000
0000
,
0100
0000
0000
0100
0001
0010
1000
0001
0100
0000
0000
0000
0010
0000
0100
0000
1000
0001
0100
0000
0000
0000
0001
0000
,
1000
0000
0010
0000
0010
0000
0000
0100
0001
0001
0001
0000
0000
0000
0100
0000
0100
0000
0000
0010
1000
1000
1000
0000
,
0000
0000
0100
0000
0100
0000
0000
0010
0001
0001
0001
0000
0000
0000
0100
0000
0100
0000
0000
0010
1000
1000
1000
0000
,
1000
0100
0010
0000
0000
0000
0001
0100
0010
0000
0000
0000
1000
0000
0000
1000
0100
0010
0001
0100
0010
0000
0000
0000
,
1000
0000
0001
0000
1000
0010
0100
0000
0000
0000
0000
0000
0001
0000
1000
0000
0001
0010
0100
0000
0000
0000
0000
0000
;

//---------------dance-single - Arch0wl----------------
#NOTES:
     dance-single:
     Arch0wl:
     Challenge:
     10:
     0.547,0.613,0.819,0.000,1.000,316.000,86.000,0.000,0.000,0.000:
1000
0000
0010
0000
0010
0000
0000
0100
0001
0001
0001
0000
0000
0000
0100
0000
0100
0000
0000
0010
1000
1000
1000
0000
,
0000
0000
0100
0000
0100
0000
0000
0010
0001
0001
0001
0000
0000
0000
0100
0000
0100
0000
0000
0010
1000
1000
1000
0000
,
1000
0100
0010
0000
0000
0000
0001
0100
0010
0000
0000
0000
1000
0000
0000
1000
0100
0010
0001
0100
0010
0000
0000
0000
,
1000
0000
0001
0000
1000
0010
0100
0000
0000
0000
0000
0000
0001
0000
1000
0000
0001
0010
0100
0000
0000
0000
0000
0000
,
1000
0010
0100
0000
0000
0000
0001
0010
0100
0000
0000
0000
1000
0000
0000
1000
0010
0100
0001
0010
0100
0000
0000
0000
,
1000
0000
0001
0000
0010
0100
1000
0000
0000
0000
0100
0000
1000
0000
0010
0000
0010
0000
0000
0100
0001
0001
0001
0000
,
0000
0000
1000
0000
1000
0000
0000
0100
0010
0010
0010
0000
0000
0000
0001
0000
0001
0000
0000
1000
0010
0010
0010
0000
,
0000
0000
0100
0000
0100
0000
0000
0010
1000
1000
1000
0000
0011
0110
1100
0000
0000
0000
0011
0110
1100
0000
0000
0000
,
1100
0000
0000
1100
1010
1100
1010
0101
0011
0000
0000
0000
0101
0000
1100
0000
0110
1010
1001
0000
0000
0000
0000
0000
,
0110
0000
0011
0000
0110
0011
1001
0000
0000
0000
0000
0000
1010
0110
0101
0000
0000
0000
1010
0110
0101
0000
0000
0000
,
1001
0000
0000
1100
0110
1100
0110
0011
1001
0000
0000
0000
0011
0000
1001
0000
0011
0101
1001
0000
0000
0000
1010
0000
,
0101
0000
1000
0000
1000
0000
0000
0001
0100
0100
0100
0000
0000
0000
1000
0000
1000
0000
0000
0001
0010
0010
0010
0000
,
0000
0000
1000
0000
1000
0000
0000
0001
0100
0100
0100
0000
0000
0000
1000
0000
1000
0000
0000
0001
0010
0010
0010
0000
,
0010
1000
0001
0000
0000
0000
0100
1000
0001
0000
0000
0000
0010
0000
0000
0010
1000
0001
0100
1000
0001
0000
0000
0000
,
0010
0000
0100
0000
0010
0001
1000
0000
0000
0000
0000
0000
0100
0000
0010
0000
0100
0001
1000
0000
0000
0000
0000
0000
,
0100
1000
0001
0000
0000
0000
0010
1000
0001
0000
0000
0000
0100
0000
0000
0100
1000
0001
0010
1000
0001
0000
0000
0000
,
0100
0000
0010
0000
1000
0001
0100
0000
0000
0000
0001
0000
0100
0000
1000
0000
1000
0000
0000
0001
0010
0010
0010
0000
,
0000
0000
0100
0000
0100
0000
0000
0001
1000
1000
1000
0000
0000
0000
0010
0000
0010
0000
0000
0100
1000
1000
1000
0000
,
0000
0000
0001
0000
0001
0000
0000
1000
0100
0100
0100
0000
0101
1001
1010
0000
0000
0000
0101
1001
1010
0000
0000
0000
,
1010
0000
0000
1010
0011
1010
0011
1100
0101
0000
0000
0000
1100
0000
1010
0000
1001
0011
0110
0000
0000
0000
0000
0000
,
1001
0000
0101
0000
1001
0101
0110
0000
0000
0000
0000
0000
0011
1001
1100
0000
0000
0000
0011
1001
1100
0000
0000
0000
,
0110
0000
0000
1010
1001
1010
1001
0101
0110
0000
0000
0000
0101
0000
0110
0000
0101
1100
0110
0000
0000
0000
0011
0000
,
1100
0000
0010
0000
0010
0000
0000
0100
0001
0001
0001
0000
0000
0000
0100
0000
0100
0000
0000
0010
1000
1000
1000
0000
,
0000
0000
0100
0000
0100
0000
0000
0010
0001
0001
0001
0000
0000
0000
0100
0000
0100
0000
0000
0010
1000
1000
1000
0000
,
1000
0100
0010
0000
0000
0000
0001
0100
0010
0000
0000
0000
1000
0000
0000
1000
0100
0010
0001
0100
0010
0000
0000
0000
,
1000
0000
0001
0000
1000
0010
0100
0000
0000
0000
0000
0000
0001
0000
1000
0000
0001
0010
0100
0000
0000
0000
0000
0000
;
