#TITLE:Promiscuous;
#SUBTITLE:;
#ARTIST:Nelly Furtado ft. Timbaland;
#TITLETRANSLIT:;
#SUBTITLETRANSLIT:;
#ARTISTTRANSLIT:;
#CREDIT:Brian "Ike" Dinh;
#BANNER:Promiscuous BN.png;
#BACKGROUND:Promiscuous BG.png;
#LYRICSPATH:;
#CDTITLE:;
#MUSIC:Promiscuous.ogg;
#OFFSET:-0.780;
#SAMPLESTART:23.868;
#SAMPLELENGTH:12.000;
#SELECTABLE:YES;
#BPMS:0.000=114.312;
#STOPS:91.500=0.525
;
#BGCHANGES:0.000=Promiscuous BG.png=1.000=0=0=1,
12.000=In The Groove 2/909_JumpBack.mpg=1.000=0=0=1,
20.000=In The Groove 2/462_JumpBack.mpg=1.000=0=0=1,
28.000=In The Groove 2/909_JumpBack.mpg=1.000=0=0=1,
36.000=In The Groove 2/462_JumpBack.mpg=1.000=0=0=1,
44.000=In The Groove 2/449_JumpBack.mpg=2.000=0=0=1,
48.000=In The Groove 2/909_JumpBack.mpg=2.000=0=0=1,
52.000=In The Groove 2/449_JumpBack.mpg=2.000=0=0=1,
53.000=In The Groove 2/909_JumpBack.mpg=2.000=0=0=1,
55.000=In The Groove 2/449_JumpBack.mpg=2.000=0=0=1,
72.000=In The Groove 2/643_JumpBack.mpg=0.700=0=0=1,
92.000=In The Groove 2/973_JumpBack.mpg=0.700=0=0=1,
99.000=In The Groove 2/942_JumpBack.mpg=1.000=0=0=1,
107.000=In The Groove 2/973_JumpBack.mpg=0.700=0=0=1,
115.000=In The Groove 2/942_JumpBack.mpg=1.000=0=0=1,
123.000=In The Groove 2/973_JumpBack.mpg=0.400=0=0=1,
124.500=In The Groove 2/942_JumpBack.mpg=0.500=0=0=1,
126.500=Promiscuous BG.png=0.400=0=0=1,
127.000=In The Groove 2/632_JumpBack.mpg=1.000=0=0=1,
131.000=In The Groove 2/643_JumpBack.mpg=0.700=0=0=1,
138.938=In The Groove 2/643_JumpBack.mpg=2.000=0=0=1,
138.938=In The Groove 2/643_JumpBack.mpg=2.000=0=0=1,
143.000=In The Groove 2/643_JumpBack.mpg=2.000=0=0=1,
147.000=In The Groove 2/843_JumpBack.mpg=2.000=0=0=1,
148.000=In The Groove 2/643_JumpBack.mpg=2.000=0=0=1,
150.000=In The Groove 2/843_JumpBack.mpg=2.000=0=0=1,
154.938=In The Groove 2/828_JumpBack.mpg=0.700=0=0=1,
167.000=In The Groove 2/643_JumpBack.mpg=0.700=0=0=1,
171.000=In The Groove 2/462_JumpBack.mpg=2.000=0=0=1,
175.000=In The Groove 2/942_JumpBack.mpg=2.000=0=0=1,
179.000=In The Groove 2/462_JumpBack.mpg=2.000=0=0=1,
180.000=In The Groove 2/942_JumpBack.mpg=2.000=0=0=1,
182.000=In The Groove 2/462_JumpBack.mpg=2.000=0=0=1,
199.000=In The Groove 2/632_JumpBack.mpg=1.000=0=0=1,
202.938=In The Groove 2/632_JumpBack.mpg=0.700=0=0=1,
212.500=672_JumpBack.mpg=1.000=0=0=1,
223.000=Promiscuous BG.png=1.000=0=0=1,
99999=-nosongbg-=1.000=0=0=0 // don't automatically add -songbackground-
;
// cache tags:
#FIRSTBEAT:12.000;
#LASTBEAT:223.000;
#SONGFILENAME:Songs/toune 2/Promiscuous/Promiscuous.sm;
#HASMUSIC:1;
#HASBANNER:1;
#MUSICLENGTH:119.865;
// end cache tags

//---------------dance-single - B. Dinh----------------
#NOTES:
     dance-single:
     B. Dinh:
     Beginner:
     1:
     0.144,0.233,0.159,0.000,0.000,102.000,19.000,0.000,0.000,0.000:
0000
0000
0000
0000
,
0000
0000
0000
0000
,
0000
0000
0000
0000
,
0001
0000
0000
0000
,
1000
0000
0000
0000
,
0010
0010
0000
0100
,
0000
0001
0000
0010
,
0010
0000
0000
0000
,
0100
0000
0000
0000
,
1000
1000
0000
0001
,
0000
0010
0000
0100
,
0100
0000
0000
0000
,
1001
0000
0000
0000
,
0110
0110
0000
1001
,
1001
0000
0000
0000
,
1000
1000
0000
1000
,
0000
0010
0000
0100
,
0100
0100
0000
0001
,
0001
0000
0000
0010
,
0010
0000
0010
0000
,
0100
0000
0100
0000
,
1000
0000
1000
0000
,
0001
0000
0001
0000
,
0000
0000
0000
1000
,
0000
0000
0001
0001
,
0001
0000
0100
0000
,
0010
0000
1000
1000
,
0000
0000
0000
0100
,
0000
0000
0010
0010
,
0010
0000
0001
0000
,
0001
0000
1000
1000
,
0000
0000
0000
0010
,
0000
0000
0100
0100
,
0100
0000
0100
0000
,
0001
0000
1000
1000
,
0000
0000
0000
1001
,
0000
0000
0000
0110
,
0110
0000
1001
1001
,
0000
0000
0000
1000
,
1000
0000
0100
0000
,
0010
0000
0001
0001
,
0001
0000
1000
1000
,
0000
0000
0000
1001
,
0000
0000
0000
0110
,
0000
0000
0000
1001
,
1001
0000
0110
0110
,
0000
0000
0000
0001
,
0001
0000
0010
0000
,
0100
0000
1000
1000
,
1000
0000
0010
0010
,
0000
0000
0000
1001
,
0000
0000
0000
0001
,
0001
0001
0000
1001
,
0000
0000
0000
0100
,
0100
0100
0000
0100
,
0000
0010
0000
1001
;

//---------------dance-single - B. Dinh----------------
#NOTES:
     dance-single:
     B. Dinh:
     Easy:
     3:
     0.216,0.233,0.100,0.242,0.000,140.000,12.000,29.000,0.000,0.000:
0000
0000
0000
0000
,
0000
0000
0000
0000
,
0000
0000
0000
0000
,
1000
0000
0000
0010
0000
0000
0000
0000
,
0001
0000
0000
0010
0000
0000
0000
0000
,
1000
1000
1000
0100
,
0001
0001
0001
0000
,
1000
0000
0000
0010
0000
0000
0000
0000
,
0001
0000
0000
0100
0000
0000
0000
0000
,
0001
0001
0001
0010
,
1000
1000
1000
0000
,
2001
0000
0000
0000
,
3200
0000
0000
0000
,
0310
0120
0000
0031
,
2002
0000
0000
3003
,
2000
0001
0000
0001
,
3002
0100
0000
0100
,
0103
0200
0000
0310
,
0220
0000
0000
0330
,
1000
0000
1000
0000
,
0100
0000
0001
0000
,
0010
0000
0010
0000
,
0001
0000
0100
0000
,
0000
0010
0000
0000
0000
0000
1000
0000
,
0000
0100
0000
0000
0000
0000
0001
0000
,
0001
0001
0100
1000
,
1000
1000
0000
0002
,
2000
0000
3003
1000
,
0000
0001
0000
0000
0000
0000
0001
0000
,
0001
0001
0010
1000
,
1000
1000
0000
0002
,
0000
2003
0000
0000
0000
0200
0000
0000
,
3300
0100
0000
0000
0000
0000
1000
0000
,
1000
0100
1000
0001
,
0001
0100
0100
1002
,
0000
0000
0000
0023
,
0000
0000
0000
0130
,
0210
0000
1300
2001
,
0000
0001
3001
2000
,
0010
0000
3010
0020
,
1000
0000
1030
1000
,
1002
0000
0013
0120
,
0000
0000
0130
2000
,
0001
0000
3010
0020
,
0100
0000
1030
1000
,
2001
0000
3100
0210
,
0000
0000
0010
0310
,
0001
0001
1000
1000
,
0001
1000
0001
0001
,
0200
0000
0010
0320
,
1000
0000
1030
1001
,
0000
0100
0100
0010
,
0000
1000
1000
0001
,
0000
0010
0010
0100
,
0000
1000
1000
0001
,
1000
0001
0001
0100
;

//---------------dance-single - B. Dinh----------------
#NOTES:
     dance-single:
     B. Dinh:
     Medium:
     5:
     0.310,0.372,0.217,0.367,0.000,190.000,26.000,44.000,2.000,0.000:
0000
0000
0000
0000
,
0000
0000
0000
0000
,
0000
0000
0000
0000
,
1001
0000
0000
0010
0000
0100
0000
0000
,
0100
0000
0000
0001
0000
1000
0000
0000
,
1001
0000
0000
0010
0000
0100
0000
0000
,
0001
0000
0000
1000
0000
0100
0000
0000
,
0011
0000
0000
0001
0000
0001
0000
0000
,
1000
0000
0000
0010
0000
0100
0000
0000
,
1001
0000
0000
1000
0000
0100
0000
0000
,
1000
0000
0000
0010
0000
0100
0001
0000
,
0012
0010
0000
0013
,
0210
0010
0000
2300
,
3100
2002
3000
0103
,
2002
0000
0000
3003
,
2000
0000
0010
0000
3010
0100
0001
0000
,
0002
0000
0100
0000
0103
0001
0010
0000
,
0020
0000
0230
0000
1300
0001
0200
0000
,
0020
0330
0MM0
0000
,
1000
0100
0001
0100
,
1000
0010
0001
0020
,
0130
1000
0010
0100
,
1000
0001
0010
2000
,
3000
0001
0000
0100
0000
0000
1000
0000
,
0010
0100
0000
0100
0000
0000
1001
0000
,
0001
0010
0000
0001
0000
0000
0100
0000
,
1000
0001
0000
1000
0000
0000
0200
0000
,
0000
0010
0000
0010
0000
0000
1300
0000
,
0001
1000
0000
0010
0000
0000
0101
0000
,
1000
0010
0000
0010
0000
0000
0001
0000
,
1000
0100
0000
0010
0000
0000
2002
0000
,
3003
0220
0000
0330
2000
0002
0000
3003
,
1000
0100
0000
0010
0000
0020
0001
0030
,
1000
0001
0000
0001
0000
0000
0100
0000
,
0010
1000
0000
0010
0000
0000
0201
0000
,
0010
0000
0310
2001
,
0100
0000
3100
0021
,
0230
0010
0310
2002
,
0000
0000
3003
2000
,
0010
3001
0100
0002
,
1000
0103
1000
0100
,
0200
0010
0310
2002
,
0000
0000
3003
2100
,
0100
0000
3010
0201
,
0010
0000
0301
1000
,
2100
0000
3010
0201
,
0310
0010
1000
2001
,
3001
1000
0100
0000
0100
0000
0020
0000
,
0031
0010
0001
0000
1000
0000
0002
0000
,
2003
3010
0100
2002
,
0000
0000
3003
0001
,
1000
0000
0001
0001
0001
0000
1000
0000
,
0001
0000
1000
1000
1000
0000
0110
0000
,
0100
0000
0010
0010
0100
0000
0010
0000
,
0100
0000
0010
0010
0100
0000
1001
0000
,
0001
0000
1000
0001
0100
0000
1001
0000
;

//---------------dance-single - B. Dinh----------------
#NOTES:
     dance-single:
     B. Dinh:
     Hard:
     7:
     0.480,0.465,0.717,0.167,0.096,296.000,86.000,20.000,13.000,0.000:
0000
0000
0000
0000
,
0000
0000
0000
0000
,
0000
0000
0000
0000
,
1001
0000
0000
0000
0010
0000
0110
0000
0000
0000
1001
0000
0000
1100
0000
0000
,
0011
0000
0000
0000
0100
0000
1001
0000
0000
0000
1010
0000
0000
1001
0000
0000
,
1100
0001
1000
0010
0100
0001
0001
0000
,
1001
0010
0100
0001
0010
0100
0100
0000
,
1100
0000
0000
0000
0001
0000
0011
0000
0000
0000
1100
0000
0000
1001
0000
0000
,
0110
0000
0000
0000
0001
0000
0110
0000
0000
0000
1001
0000
0000
1010
0000
0000
,
0101
1000
0010
0100
0001
0010
0010
0000
,
0011
0100
1000
0010
0100
0001
0001
0000
,
2020
0000
0000
3030
,
0202
0000
0000
0303
,
1001
1100
0100
1001
,
0220
0000
0000
0330
,
1001
0000
0001
0010
0000
0010
0100
0000
,
1001
0000
1000
0010
0000
0100
0001
0000
,
0101
0000
1010
0000
0100
0001
0010
0001
,
0100
0000
0000
0000
1000
0000
0101
0000
0000
0000
0100
0000
1001
0000
0000
0001
,
1000
0000
0100
0000
1000
0000
0000
0000
0001
0000
0010
0000
0001
0000
0000
0001
,
1000
0010
0100
0000
0001
0100
0010
0010
,
1000
0000
0100
0000
0100
0000
0000
0000
0001
0000
0100
0000
0100
0000
0000
0010
,
1000
0010
0100
0000
0001
0010
0100
1004
,
0003
0000
1100
0000
0000
0000
1001
0000
0000
0101
0000
0000
1010
0000
0000
0000
,
0001
0000
0011
0000
0000
0000
0101
0000
0000
0011
0000
0000
0110
0000
0010
0000
,
0100
1000
0010
0100
0100
0001
0010
0001
,
0100
1000
0100
0001
0001
0000
2M0M
0000
,
3010
0000
0101
0000
0000
0000
1001
0000
0000
1100
0000
0000
0110
0000
0000
0000
,
0100
0000
1001
0000
0000
0000
1010
0000
0000
0101
0000
0000
0011
0000
0001
0000
,
0100
1000
0100
0001
0001
0010
0100
1000
,
0010
0001
0010
1000
1000
0000
MMMM
0001
,
0100
0M0M
1000
0100
0010
0MM0
1001
0000
,
1000
0000
1100
0000
0000
0000
0011
0000
0000
0100
M0MM
0000
0101
0000
0010
0000
,
0001
0010
1000
0100
0100
0001
0100
1000
,
0010
0100
0001
0010
0010
0000
2001
0000
,
0000
0000
0100
0000
0000
0000
0001
0000
0000
3010
0000
0000
0102
0000
0000
0000
,
0000
0000
1000
0000
0000
0000
0010
0000
0000
0103
0000
0000
1001
0000
0000
0000
,
2100
0000
0001
0000
0000
0000
0010
0000
0000
3001
0000
0000
0101
0000
0000
0000
,
1000
0000
1100
0000
0000
0000
0011
0000
0000
1001
0000
0000
0202
0000
0000
0000
,
0000
0303
0010
1000
0100
0010
0021
0000
,
0130
0000
0010
0100
1000
0010
0110
0000
,
0101
1000
1001
1100
,
1000
0001
0010
0001
0100
0001
2002
0000
,
0000
0000
3003
0210
,
0000
0000
0010
0000
0000
0000
0010
0000
0000
0301
0000
0000
1100
0000
0000
0000
,
0201
0000
0001
0000
0000
0000
0010
0000
0000
0301
0000
0000
1010
0000
0000
0000
,
1000
0000
0001
0000
0000
0000
1100
0000
0000
1001
0000
0000
0220
0000
0000
0000
,
0000
0330
0010
1000
0100
0010
0021
0000
,
0031
0000
0100
1000
0010
0100
0101
0000
,
1001
0000
1000
0010
0101
0000
1100
0000
,
1000
0000
1001
0000
0000
0000
0101
0000
0000
1010
0000
0000
1100
0000
1000
0000
,
0001
0000
1000
0000
0100
0000
1000
0000
0001
0000
0001
0000
1000
0100
1000
0000
,
0001
0100
1000
0100
0001
0100
1001
0000
,
0100
0000
1001
0000
0000
0000
0001
0000
0010
0000
0001
0000
1000
0001
1000
0000
,
0001
0000
0010
0000
0100
0000
0010
0000
0001
0000
0100
0000
0010
0100
0010
0000
,
1000
0010
0100
0001
0010
0100
1001
0000
;

//---------------dance-double - B. Dinh----------------
#NOTES:
     dance-double:
     B. Dinh:
     Hard:
     8:
     0.487,0.465,0.476,0.159,0.142,333.000,57.000,19.000,5.000,1.000:
00000000
00000000
00000000
00000000
,
00000000
00000000
00000000
00000000
,
00000000
00000000
00000000
00000000
,
10010000
00000000
00000000
00000000
10000000
00000000
01000000
00000000
00000000
00000000
00010000
00000000
00000000
00001000
00000000
00000000
,
01100000
00000000
00000000
00000000
10000000
00000000
00100000
00000000
00000000
00000000
00010000
00000000
00000000
00001000
00000000
00000000
,
11000000
00000000
00000000
00000000
01000000
00000000
00100000
00000000
00010000
00000000
00100000
00001000
00000000
00100000
00001000
00000000
,
00011000
00000000
00000000
00000000
00000100
00000000
00001000
00000000
00000001
00000000
00001000
00000001
00000000
00001000
00000001
00000000
,
00000101
00000000
00000000
00000000
00000100
00000000
00010000
00000000
00000000
00000000
00001000
00000000
00000000
00000010
00000000
00000000
,
00000011
00000000
00000000
00000000
00000010
00000000
00001000
00000000
00000000
00000000
00010000
00000000
00000000
00000010
00000000
00000000
,
00000101
00000000
00000000
00000000
00000001
00000000
00001000
00000000
00000100
00000000
00000010
00000100
00000000
00010000
00000100
00000000
,
00011000
00000000
00000000
00000000
00001000
00000000
00100000
00000000
00010000
00000000
01000000
00100000
00000000
01000000
00100000
00000000
,
10010000
00000000
10000000
01000000
10000000
00100000
10000000
01100000
,
20010000
00000000
31000000
00000000
00100000
01000000
00100000
00010000
,
01010000
00000000
01001000
00000000
00100000
00010000
20000000
00000000
,
30010000
00100000
00001000
00010000
00000010
00000010
00001000
00000001
,
00001001
00000000
00000010
00000100
00000010
00001000
00000010
00000101
,
00002001
00000000
00003100
00000000
00000001
00000100
00001000
00000010
,
00010100
00000000
00001010
00000000
00000001
00000100
00000020
00000000
,
00001030
00000000
00000100
00000000
00010000
00000000
00001000
00000000
00100000
00000000
01000000
00100000
01000000
00000000
00000000
00000000
,
10000000
01000000
00010000
00000000
00010000
00001000
00010000
00000000
,
00010000
00000100
00000010
00000000
00000010
00000001
00000100
00000000
,
00000100
00001000
00010000
00000000
00010000
00100000
10000000
00000000
,
10000000
00000000
00000000
00000000
01000000
00000000
00000000
00000000
00010000
00000000
00000000
00000000
00000000
00000000
00000000
00000000
00010000
00000000
00000000
00000000
00001000
00000000
00000000
00000000
00000010
00000000
00000000
00000000
000000M2
000000M0
00000000
00000000
,
00000103
00000000
00001000
00000000
00000000
00000000
00010000
00000000
00000000
00000100
00000000
00000000
00000011
00000000
00000000
00000000
,
00000010
00000000
00001000
00000000
00000000
00000000
00010000
00000000
00000000
00000100
00000000
00000000
00001010
00000000
00000000
00000000
,
00000001
00000000
00001000
00000000
00000100
00000000
00000010
00000001
00000000
00001000
00000100
00000000
00010010
00000000
00000000
00000000
,
00000100
00000000
00010000
00000000
00001000
00000000
01000000
00010000
00000000
01000000
00100000
00000000
20020000
00000000
00000000
00000000
,
30030000
00000000
01000000
00000000
00000000
00000000
00001000
00000000
00000000
00100000
00000000
00000000
01100000
00000000
00000000
00000000
,
00001000
00000000
01000000
00000000
00000000
00000000
00100000
00000000
00000000
00001000
00000000
00000000
01010000
00000000
00000000
00000000
,
10000000
00000000
01000000
00000000
10000000
00000000
00100000
10000000
00000000
00010000
10000000
00000000
00101000
00000000
00000000
00000000
,
01000000
00000000
00001000
00000000
00010000
00000000
00000100
00001000
00000000
00000100
00000010
00000000
00002001
00000000
00000000
0000000M
,
00000000
00000000
00000200
00000000
00000000
00000000
00000000
00000000
00000000
00000000
00010010
00003300
00000000
00000000
00000000
00000000
,
00000100
00000000
00010000
00000000
00000000
00000000
00001000
00000000
00000000
00000010
00000000
00000000
00000011
00000000
00000000
00000000
,
00001000
00000000
00000001
00000000
00001000
00000000
00000010
00010000
00000000
00000100
00000010
00000000
00001001
00000000
00000000
00000000
,
00000100
00000000
00010000
00000000
00001000
00000000
00100000
00001000
00000000
01000000
00001000
00000000
10010000
00000000
M00M0000
00000000
,
10000000
01000000
10000000
00100000
01000000
10010000
00210000
00000000
,
01300000
00000000
10000000
01000000
00100000
00001000
01010000
00000000
,
00101000
00010000
00001000
00000000
02000000
00000000
03100000
10000000
,
01000000
00100000
00001000
00010000
00000010
00001000
00001010
00000000
,
00000001
00001000
00000100
00001000
00000010
00001010
00000210
00000000
,
00000301
00000000
00000010
00000001
00001000
00000001
00010010
00000000
,
00001001
00000100
00010000
00000000
00000200
00000000
00000310
00000001
,
00001000
00000000
00000010
00010000
00001000
00100000
00110000
00000000
,
01100000
00000000
11000000
00010000
10000000
10010000
20010000
00000000
,
30100000
00000000
01000000
00010000
00100000
01000000
11000000
00000000
,
00101000
00000000
10000000
00010000
02000000
00000000
03001000
00010000
,
00000100
00001000
00000010
00000000
00000100
00000001
00002001
00000000
,
00000100
00000100
00000100
00000000
00000001
00000001
00003002
00000000
,
00000103
00000010
00001000
00000001
00000010
00001100
00010100
00000000
,
00001001
00000000
00000001
00000100
00002000
00000000
00013000
00000100
,
00000010
00000000
00000200
00000000
00000000
00000000
00010300
00000000
00000000
00011000
00000000
00000000
00101000
00000000
00000000
00000000
,
00010000
10000000
01000000
00000000
00100000
00000000
00110000
00000000
,
00010000
10000000
00100000
01000000
00010000
10000000
11000000
00000000
,
00010000
01000000
00001000
00000000
00100000
00000000
00011000
00000000
,
00000100
00001000
00000010
00000100
00000001
00001000
00001100
00000000
,
00000011
00000000
00000000
00000000
00000001
00000000
00001000
00000000
00000010
00000000
00010000
00001000
00010000
00000000
00000000
00000000
;

//---------------dance-double - B. Dinh----------------
#NOTES:
     dance-double:
     B. Dinh:
     Challenge:
     9:
     0.515,0.512,0.634,0.192,0.217,332.000,76.000,23.000,81.000,15.000:
00000000
00000000
00000000
00000000
,
00000000
00000000
00000000
00000000
,
00000000
00000000
00000000
00000000
,
00011000
00000000
00000100
00000000
00010000
00000000
00000010
00000000
00010000
00000000
00000001
00001000
00000000
00000100
00010000
00000000
,
00101000
00000000
01000000
00000000
00000100
00000000
00010000
00000000
00000010
00000000
00010000
00001000
00000000
01000000
00100000
00000000
,
10100000
00000000
10000000
00000000
01000000
00000000
00010000
00000000
00000100
00000000
00000010
00000001
00000100
00000000
00000000
00000000
,
00001001
00000000
00000001
00000000
00000010
00000000
00001000
00000000
00100000
00000000
00000100
00001000
00000010
00000000
00000000
00000000
,
00001001
00000000
00000001
00000000
00000100
00000000
00000010
00000000
00010000
00000000
00000100
00010000
00000000
00001000
10000000
00000000
,
01100000
00000000
00010000
00000000
10000000
00000000
01000000
00000000
00100000
00000000
00001000
01000000
00000000
00000100
00001000
00000000
,
00001000
00000001
00001000
00000000
00000010
00000000
00001000
00000000
00100000
00000000
01000000
00001000
00010000
00000000
00010000
00000000
,
00000100
00001000
00000010
00000000
00010000
00000000
01000000
00000000
10010000
00000000
10010000
00000000
10010000
00000000
00000000
00000000
,
11000000
00000000
00000000
MM000000
00000000
00000000
00000000
00M0M000
00000000
00000000
0M00M000
00000000
000M00M0
00000000
00M00M00
00000000
,
00010001
00000000
000M000M
00000000
00000000
00M000M0
00000000
00000000
000MM000
00000000
M0000000
000M0000
0000000M
00000000
00M000M0
00000000
,
00101000
00000000
00000000
00000000
01000010
00000000
0M0000M0
000MM000
00000000
00000000
M0000000
0000000M
1M100000
00000000
000M0M00
00000000
,
00010100
00000000
00000000
000M0M00
00000000
00000000
0000000M
00000000
00MM0000
00000000
00000M00
00000000
M0000000
00000000
00M0M000
00000000
,
20002000
00000000
00100000
30000000
02000000
00000000
00100000
00003000
,
00020000
00000000
00100000
03000000
20000000
00000000
00100000
30030000
,
01001000
00100100
00010000
00001001
,
00101000
00000000
00000000
00000000
00001000
00000000
00010000
00000000
00000010
00000100
00000000
00000100
00000001
00000000
00000010
00000100
,
00001000
00000000
00000001
00000000
00000101
00000000
00000000
00000000
00000010
00000000
00010000
00000000
00001100
00000000
00000001
00001000
,
00000100
00010000
00010010
00000000
00000100
01000000
00011000
001MM000
,
00001000
00000000
01000000
00000000
01100000
00000000
00000000
00000000
00100000
00000000
10000000
00000000
11000000
00000000
00010000
10000000
,
01000000
00000000
10000000
00000000
01100000
00000000
00000000
00000000
00001000
00000000
01000000
00000000
00022000
00000000
01000000
00033000
,
00010000
00000000
00000100
00000000
00001000
00000000
00000010
00000100
00000000
00000001
00000010
00000000
00001100
00000000
00000010
00000000
,
00010000
00000000
00001000
00000000
00100000
00000000
00010000
10000000
00000000
00001000
01000000
00000000
10100000
00000000
00100000
00000000
,
00001000
00000010
00010000
00001000
00000010
00000001
00000110
00000001
,
00001000
00000010
00010000
01000000
00100000
00010000
10010000
M00M0000
,
01000000
00000000
00100000
00000000
1MM00000
00010000
00100000
00000000
01000000
00000000
00100000
00000000
00010000
00000000
10000000
00000000
,
00100000
00000000
00010000
00000000
00000100
000M0000
0000M100
000000M0
00000100
00000000
00000000
00000000
00001001
00000000
00000001
00000000
,
00000010
00001000
00010000
00000010
00000100
00000001
00001100
00010000
,
00001000
00100000
10000000
00100000
01000000
00000000
20020000
00000000
,
00000000
00101000
30030000
00000000
00000000
M1M11000
00000000
00000000
,
00100000
00000000
00001000
00000000
00010000
00000000
00000100
00001000
00000000
00000100
00001000
00000000
00000010
00000000
00100000
00000000
,
00010000
00000000
10000000
00000000
00100000
00000000
00010000
00001000
00010000
00000000
01000000
00000000
10000000
00000000
00100000
00000000
,
01000000
00000000
00000100
00000000
00000010
00000000
00001000
00000010
00000100
00000000
00000000
00000000
00001001
00000000
00000000
00000000
,
0000M10M
00000000
00MM00M0
00000000
01M0M000
000000M0
10001000
M000M000
,
00000100
0M000000
00000000
00000000
00MM0000
000000M0
00000000
00000000
0M0100M0
00000000
00000000
MM0M0000
00000011
00000000
00000000
00000000
,
00100100
00000000
00M00M00
00000000
00000000
00000000
M0000M00
00000000
00M01M10
00000000
00000000
00000000
01100000
00000000
00000000
00M00000
,
01000000
00000000
M0000000
00000000
00000M00
00000000
000M0000
00000000
000001M0
0M000000
00000000
00000000
00020002
00000000
00000000
00000000
,
00000010
00000003
00000200
00000000
00000010
00030000
00002000
00000000
,
00000010
00000300
00000002
00000000
00000010
00003003
00001001
00000000
,
00100010
00000000
00001000
01000000
10100000
00000000
00101000
00000000
,
00100000
00010000
01000000
00000100
00001000
00001000
00002002
00000000
,
00003003
00000000
00001100
00000000
00000000
00000000
00010010
00000000
00000000
01000100
00000000
00000000
00022000
00000000
00000000
00000000
,
00033000
00000000
01100000
00000000
00000000
00000000
11000000
00000000
00000000
10001000
00000000
00000000
01010000
00000000
00000000
00000000
,
10100000
00000000
10001000
00000000
00000000
00000000
01000100
00000000
00001000
00100000
00010000
00000000
01010000
00000000
00000000
00000000
,
00100000
00000000
00010100
00000000
00000000
00000000
00001001
00000000
00000000
00100010
00000000
00000000
20002000
00000000
00000000
00000000
,
00100000
30000000
02000000
00000000
00100000
00003000
00000200
00000000
,
00000010
03000000
00020000
00000000
00000010
00030300
00011000
00000000
,
00010001
00000000
00000010
00000100
00001001
00000000
00100010
00001000
,
00010000
00000000
00001100
00000000
00000000
00000000
00000011
00000000
00000000
00001100
00000000
00000000
00001001
00000000
00001000
00000000
,
00000001
00000000
00010000
00000000
00001000
00000000
00010000
00000000
00000010
00000100
00000010
00000000
00001000
00000001
00001000
00000000
,
00000001
00001000
00000100
00000000
00010000
00000000
00001000
00000000
00100000
00000000
00010000
00000000
10010000
00000000
00000000
00000000
,
01000000
00000000
10100000
00000000
00000000
00000000
00010000
00000000
10000000
00000000
00001000
00000000
00100000
00010000
01000000
00000000
,
00010000
00000000
10000000
00000000
00001000
00000000
00010000
00000000
00000100
00000000
00000010
00000000
00000100
00000010
00000100
00000000
,
00000010
00000001
00000010
00000000
00000010
00000000
00000100
00000000
01000000
00000000
00001000
00000000
00011000
00000000
00000000
00000000
;
