#TITLE:IN DULCI JUBILO;
#SUBTITLE:;
#ARTIST:MIKE OLDFIELD;
#TITLETRANSLIT:;
#SUBTITLETRANSLIT:;
#ARTISTTRANSLIT:;
#CREDIT:;
#BANNER:IN DULCI JUBILO.png;
#BACKGROUND:IN DULCI JUBILO-bg.PNG;
#LYRICSPATH:;
#CDTITLE:;
#MUSIC:IN DULCI JUBILO.mp3;
#OFFSET:-0.505;
#SAMPLESTART:68.380;
#SAMPLELENGTH:12.000;
#SELECTABLE:YES;
#BPMS:0.000=60.100,12.000=59.000,14.000=60.100,20.000=59.400,24.000=60.000,28.000=61.300,36.000=58.200,40.000=59.000,44.000=58.400,51.000=54.500,52.000=59.700,53.000=58.900,54.000=56.700,55.000=57.400,62.000=58.400,67.000=56.600,72.000=57.700,80.000=58.300,84.000=56.800,88.000=57.700,92.000=58.700,96.000=56.900,99.500=60.500,100.000=63.200,102.000=59.700,104.000=60.900,108.000=61.500,114.000=60.700,114.500=54.680,115.000=40.200;
#STOPS:;
#BGCHANGES:;
// cache tags:
#FIRSTBEAT:4.000;
#LASTBEAT:117.750;
#SONGFILENAME:Songs/DDRExtreme.co.uk presents ChristmasMix/IN DULCI JUBILO/IN DULCI JUBILO.sm;
#HASMUSIC:1;
#HASBANNER:1;
#MUSICLENGTH:122.096;
// end cache tags

//---------------dance-single - ----------------
#NOTES:
     dance-single:
     :
     Beginner:
     1:
     0.083,0.117,0.090,0.000,0.000,60.000,11.000,0.000,0.000,0.000:  // measure 1
0000
0000
0000
0000
,  // measure 2
0001
0000
0100
0000
,  // measure 3
0010
0000
0100
0000
,  // measure 4
1000
0000
0010
0000
,  // measure 5
0001
0000
0010
0000
,  // measure 6
0100
0000
0010
0000
,  // measure 7
1000
0000
0010
0000
,  // measure 8
1000
0000
0100
0000
,  // measure 9
0001
0000
1000
0000
,  // measure 10
0100
0000
1000
0000
,  // measure 11
0001
0000
0100
0000
,  // measure 12
1000
0000
0010
0000
,  // measure 13
1000
0000
1000
0000
,  // measure 14
0110
0000
0110
0000
,  // measure 15
1001
0000
1001
0000
,  // measure 16
1001
0000
1001
0000
,  // measure 17
0110
0000
0001
0000
,  // measure 18
0010
0010
0010
0000
,  // measure 19
0100
0100
0100
0000
,  // measure 20
0100
0000
1000
0000
,  // measure 21
0100
0000
1000
0000
,  // measure 22
1001
1001
0000
0001
,  // measure 23
0001
0000
0010
0000
,  // measure 24
0100
0000
0001
0000
,  // measure 25
0100
0000
1000
0000
,  // measure 26
0110
0110
0000
0001
,  // measure 27
0001
0000
0010
0000
,  // measure 28
1000
0000
0100
0000
,  // measure 29
1000
0000
0001
0000
;

//---------------dance-single - ----------------
#NOTES:
     dance-single:
     :
     Easy:
     3:
     0.124,0.177,0.090,0.041,0.000,90.000,11.000,5.000,0.000,0.000:  // measure 1
0000
0000
0000
0000
,  // measure 2
0001
0000
0100
0000
,  // measure 3
0010
1000
0100
0001
,  // measure 4
1000
0000
0010
0000
,  // measure 5
0100
0001
0010
1000
,  // measure 6
0100
0000
0010
0000
,  // measure 7
1000
0100
0010
0001
,  // measure 8
1000
0000
0100
0000
,  // measure 9
0010
0100
1000
0001
,  // measure 10
0100
0000
1000
0000
,  // measure 11
0001
0010
0100
0001
,  // measure 12
1000
0000
0010
0000
,  // measure 13
1000
0010
1000
0010
,  // measure 14
0110
1000
0110
0001
,  // measure 15
1001
0100
1001
0010
,  // measure 16
1001
0010
1001
1000
,  // measure 17
0110
1000
0001
0200
,  // measure 18
0320
0032
2003
3002
,  // measure 19
1003
0100
0010
0001
,  // measure 20
0100
0010
1000
0001
,  // measure 21
0100
0010
1000
0100
,  // measure 22
1001
0110
1000
0001
,  // measure 23
1000
0000
0010
0000
,  // measure 24
0100
0000
0001
0000
,  // measure 25
0100
0000
1000
0000
,  // measure 26
1001
0110
1000
0001
,  // measure 27
1000
0000
0010
0000
,  // measure 28
1000
0000
0100
0000
,  // measure 29
1000
0010
1000
0100
;

//---------------dance-single - ----------------
#NOTES:
     dance-single:
     :
     Medium:
     6:
     0.287,0.318,0.041,0.246,0.119,210.000,5.000,30.000,0.000,0.000:  // measure 1
0000
0000
0000
0000
,  // measure 2
0001
0000
0100
0001
0100
0000
1000
0010
,  // measure 3
1000
0000
0020
0000
0130
0100
0100
0000
,  // measure 4
1000
0000
0001
0100
0010
0000
1000
0000
,  // measure 5
0020
0000
0000
0000
0000
0000
0230
0000
0000
0000
0000
0000
1300
0000
0000
0001
0000
0000
0010
0000
0000
0000
0000
0001
,  // measure 6
0100
0000
0000
0000
0000
0001
0100
0000
0000
0001
0000
0000
0100
0000
0000
0000
0000
0000
1000
0000
0000
0001
0000
0000
,  // measure 7
0100
0000
0000
0000
0000
0000
0020
0000
0000
0000
0000
0000
0130
0000
0000
1000
0000
0000
1000
0000
0000
0000
0000
1000
,  // measure 8
0001
0000
0100
0010
0001
0000
1000
0010
,  // measure 9
0002
0000
0000
0000
0000
0000
0203
0000
0000
0000
0000
0000
1300
0000
0000
0010
0000
0000
0001
0000
0000
0000
0000
0100
,  // measure 10
0001
0000
0000
0000
0000
1000
0100
0000
0000
0010
0000
0000
0100
0000
0000
0000
0000
0001
1000
0000
0000
0100
0000
0000
,  // measure 11
0010
0000
0000
0001
0000
0010
2000
0000
0000
0100
0000
0000
3100
0000
0000
0001
0000
0000
0010
0000
0000
0000
0000
0010
,  // measure 12
0100
0000
0000
0000
0000
0010
0100
0000
0000
0001
0000
0000
0010
0000
0000
1000
0000
0000
0001
0000
0000
0000
0000
0001
,  // measure 13
2000
0000
0000
0000
0000
0000
3200
0000
0000
0000
0000
0000
0310
0000
0000
0001
0000
0000
0010
0000
0000
0000
0000
1000
,  // measure 14
0001
0000
0000
0100
0000
0000
0010
0000
0000
0100
0000
0010
0100
0000
0000
1000
0000
0000
0001
0000
0000
0100
0000
0000
,  // measure 15
0010
0100
2000
0001
3100
0010
0100
0001
,  // measure 16
0010
0000
0000
0001
0000
1000
0100
0000
0000
0010
0000
0000
0001
0000
0000
0100
0000
0001
0100
0000
0000
0010
0000
1000
,  // measure 17
0002
0000
0100
0000
0023
0000
0001
0000
0130
0000
0001
0000
1000
0100
1000
0100
,  // measure 18
1000
0000
0000
0010
0000
0000
0100
0000
1001
1001
0000
0000
0100
0000
0000
0010
0000
0000
0100
0000
1001
1001
0000
0000
,  // measure 19
0010
0000
0100
0000
1000
0000
0001
0000
1000
0010
1000
0010
1000
0000
0001
0000
,  // measure 20
0100
0001
0100
0001
0100
0000
0010
0000
0100
1000
0100
1000
0100
0000
0001
0000
,  // measure 21
0010
0100
0010
0100
0010
0000
0100
0000
1000
0001
1000
0001
1000
0000
0001
0000
,  // measure 22
0200
0000
0320
0000
0230
0320
0230
0320
,  // measure 23
1030
0000
0002
0000
0103
0010
1001
0000
,  // measure 24
1000
0000
0200
0000
0301
0010
0100
0000
,  // measure 25
0001
0000
2000
0000
3010
0100
0001
0000
,  // measure 26
2000
0010
3020
0100
0230
0302
2003
3200
,  // measure 27
0310
0001
2000
0100
3100
0010
0010
0000
,  // measure 28
0001
1000
0200
0010
0301
0010
0010
0000
,  // measure 29
0100
1000
0020
0100
0031
1000
0100
0000
;

//---------------dance-single - ----------------
#NOTES:
     dance-single:
     :
     Hard:
     10:
     0.583,0.555,0.205,0.188,0.938,450.000,25.000,23.000,0.000,0.000:  // measure 1
0000
0000
0000
0000
,  // measure 2
0010
0000
0010
0001
0000
0001
0010
0000
0010
0001
0000
0000
1000
0000
1000
0100
0000
0100
1000
0000
1000
0100
0000
0000
,  // measure 3
1000
0000
0010
1000
0000
0001
0200
0000
0000
0001
0000
0000
0310
0000
1000
0100
0000
1000
0010
0000
0010
0100
0000
0010
,  // measure 4
0100
0000
0001
1000
0000
0001
0020
0000
0000
0100
0000
0000
0031
0000
0001
1000
0000
1000
0100
0000
0100
1000
0000
0000
,  // measure 5
2000
0000
0000
3200
0000
0000
0320
0000
0000
0031
0000
1000
0010
0000
1000
0001
0000
1000
0100
0000
0000
0000
0000
1000
,  // measure 6
0001
0000
0100
0001
0000
1000
0001
0000
0010
0001
1000
0001
1000
0000
0010
1000
0000
0001
1000
0000
0100
1000
0000
0000
,  // measure 7
0100
0000
0010
0100
0000
0001
0100
1000
0010
0200
0000
0000
0301
0000
0010
0100
0000
1000
0100
0000
1000
0001
0000
0100
,  // measure 8
0001
0000
0100
0010
0000
0010
1000
0100
1000
0001
0000
0000
1000
0000
0010
0100
0000
0001
1000
0000
1000
0100
0010
0001
,  // measure 9
0020
0000
0000
0032
0000
0000
2003
0000
0000
3100
0000
1000
0100
0000
1000
0001
0000
0001
0100
0000
0000
0000
0000
0010
,  // measure 10
0001
0000
1000
0010
0000
0010
0100
0000
0001
0100
0000
0000
1000
0000
0100
1000
0000
1000
0001
0000
0100
0001
0000
0000
,  // measure 11
1000
0000
0010
0100
0000
0100
0010
1000
0001
0100
0000
0000
0100
0000
0001
0010
0000
0100
0010
0000
0100
1000
0000
1000
,  // measure 12
0001
0000
0001
1000
0000
1000
0100
0010
0001
0100
0000
0000
0100
0000
0010
0100
0000
0001
0100
0000
0010
1000
0100
1000
,  // measure 13
0200
0000
0000
0320
0000
0000
0032
0000
0000
1003
0000
0010
0100
0000
0010
0100
0000
0100
0010
0000
0000
0000
0000
0000
,  // measure 14
1001
0000
1000
1100
0000
0100
0010
0001
1000
0110
0000
0000
1100
0000
0100
0110
0000
1000
0010
1000
0001
0101
0000
0000
,  // measure 15
0110
0000
1000
1001
0000
0100
0102
0000
0000
1003
0000
0000
1100
0000
0001
0101
0000
0010
1001
0000
0100
0011
0000
1000
,  // measure 16
1100
0000
0010
0011
0000
0100
2100
0000
0000
3010
0000
0000
0101
0000
1000
1100
0000
0010
1010
0000
0001
1001
1000
0001
,  // measure 17
0020
0000
0000
0230
0000
0000
2300
0000
0000
3001
0000
0010
0100
0000
0001
1000
0000
1000
0001
0010
0100
1000
0010
0100
,  // measure 18
0001
0000
0000
1000
0000
0000
0001
0000
0010
0110
0000
0000
1000
0000
0001
0100
0010
1000
0100
0000
0010
0011
0000
0000
,  // measure 19
1000
0000
0000
0100
0000
0010
0001
0100
0010
1000
0001
0100
0010
1000
0100
0010
0001
0100
0010
1000
0001
0010
0000
0100
,  // measure 20
1000
0010
1000
0001
0100
0010
1000
0100
0010
0001
0100
0010
1000
0001
0010
0100
1000
0010
0100
0001
1000
0100
0000
1000
,  // measure 21
0001
0100
0010
1000
0001
0100
0010
1000
0100
0010
0001
1000
0010
0100
0001
0100
0010
0001
0010
1000
0001
1000
0000
0000
,  // measure 22
1000
0001
1000
1001
0000
0000
0001
1000
0001
1001
0000
1000
0010
0000
0001
0010
0000
1000
0010
0001
0010
1000
0000
0000
,  // measure 23
1000
0000
0000
0001
0000
0010
0100
1000
0010
0001
0010
1000
0100
0001
0100
0010
0001
1000
0010
0000
0100
0001
0000
1000
,  // measure 24
0010
1000
0100
1000
0100
0010
0001
0010
0001
0100
1000
0100
0001
0010
0100
0010
0001
0100
0010
0100
0001
0100
0000
0010
,  // measure 25
1000
0100
0010
0001
0100
0010
1000
0010
0100
0001
1000
0100
0010
1000
0010
0100
1000
0010
0001
0000
0010
0100
0000
0000
,  // measure 26
1000
0001
0100
0010
0000
0000
1000
0001
0100
0010
0000
0001
0010
0000
1000
0010
0000
0001
0010
1000
0010
0001
0000
0000
,  // measure 27
1000
0000
0001
0100
0000
0001
0200
0000
0000
0310
0000
0000
1000
0000
0100
0010
0000
0010
0100
0000
1000
0001
0000
0001
,  // measure 28
1000
0000
1000
0100
0000
0100
1000
0001
0100
0010
0000
0000
1000
0000
0001
0100
0000
0010
0100
0000
0001
1000
0100
0010
,  // measure 29
0002
0000
0000
0203
0000
0000
0320
0000
0000
1030
0000
1000
0010
0100
0001
1000
0010
0100
0001
1000
0001
2002
0000
0000
,  // measure 30
0000
0000
0000
0000
0000
0000
0000
3003
0000
0000
0000
0000
0000
0000
0000
0000
;

//---------------dance-double - ----------------
#NOTES:
     dance-double:
     :
     Easy:
     1:
     0.083,0.095,0.074,0.074,0.000,53.000,9.000,9.000,0.000,0.000:  // measure 1
00000000
00000000
00000000
00000000
,  // measure 2
00010000
00000000
00001000
00000000
,  // measure 3
00100000
00000000
01000000
00000000
,  // measure 4
10000000
00000000
00100000
00000000
,  // measure 5
20000000
00000000
30000000
00000000
,  // measure 6
00010000
00000000
00100000
00000000
,  // measure 7
00001000
00000000
00010000
00000000
,  // measure 8
00000100
00000000
00001000
00000000
,  // measure 9
00000020
00000000
00000030
00000000
,  // measure 10
00000001
00000000
00001000
00000000
,  // measure 11
00000100
00000000
00010000
00000000
,  // measure 12
00001000
00000000
00100000
00000000
,  // measure 13
20000000
00000000
30200000
00000000
,  // measure 14
10300000
00000000
01100000
00000000
,  // measure 15
00100000
00000000
00011000
00000000
,  // measure 16
00000100
00000000
00000110
00000000
,  // measure 17
00000001
00000000
00001000
00000000
,  // measure 18
00000100
00000000
00000200
00000000
,  // measure 19
00000310
00000000
00000110
00000000
,  // measure 20
00001000
00000000
00011000
00000000
,  // measure 21
01000000
00000000
10010000
00000000
,  // measure 22
02000000
03000000
00200000
00300000
,  // measure 23
10000000
00000000
00010000
00000000
,  // measure 24
01000000
00000000
00001000
00000000
,  // measure 25
00010000
00000000
00000100
00000000
,  // measure 26
00001001
00000000
00001001
00000000
,  // measure 27
00000100
00000000
00010000
00000000
,  // measure 28
00001000
00000000
00010000
00000000
,  // measure 29
00022000
00000000
00000000
00000000
,  // measure 30
00033000
00000000
00000000
00000000
;

//---------------dance-double - ----------------
#NOTES:
     dance-double:
     :
     Medium:
     5:
     0.233,0.214,0.057,0.164,0.000,172.000,7.000,20.000,0.000,0.000:  // measure 1
00000000
00000000
00000000
00000000
,  // measure 2
00100000
10000000
00010000
01000000
00001000
00010000
00000100
00000010
,  // measure 3
00000001
00001000
00000100
00000000
00010000
01000000
00100000
10000000
,  // measure 4
01000000
00010000
00001000
00000000
00100000
01000000
10000000
00100000
,  // measure 5
02000000
00000000
00000000
03000000
00010000
00100000
00001000
00000000
,  // measure 6
00010000
00000100
00001000
00000010
00010000
00001000
00100000
00010000
,  // measure 7
01000000
00100000
10000000
00000000
10000000
01000000
00100000
00010000
,  // measure 8
01000000
00001000
00010000
00000000
00000100
00010000
00000010
00001000
,  // measure 9
00000200
00000000
00000000
00000300
00010000
00001000
00010000
00000000
,  // measure 10
00000001
00001000
00000010
00000100
00000001
00000010
00000100
00010000
,  // measure 11
00000010
00001000
00000200
00000000
00010300
00001000
01000000
00100000
,  // measure 12
10000000
01000000
00020000
00000000
00031000
00100000
01000000
10000000
,  // measure 13
00020000
00000000
01000000
00030000
00100000
00100000
00100000
00000000
,  // measure 14
01000000
00100000
00011000
00000000
00010000
00001000
00000110
00000000
,  // measure 15
00000001
00001000
00000200
00000000
00010300
00001000
01010000
00000000
,  // measure 16
10000000
00010000
00200000
00000000
00301000
00010000
00001100
00000000
,  // measure 17
00200000
00000000
00010000
00300000
10000000
01000000
10000000
01000000
,  // measure 18
10000000
01000000
11000000
00000000
00100000
00010000
00110000
00000000
,  // measure 19
00010000
00001000
00100000
00001000
00010000
00000100
00001000
00000000
,  // measure 20
00000001
00000010
00001000
00000010
00000001
00000010
00001000
00000000
,  // measure 21
00010000
01000000
10000000
00100000
00010000
00100000
10000000
00000000
,  // measure 22
00100000
00000000
01000000
00000000
00020000
20030000
30020000
20030000
,  // measure 23
30100000
00000000
01000000
00000000
00001000
00010000
00000100
00000000
,  // measure 24
00001000
00000000
00000001
00000000
00000100
00000010
00000100
00000000
,  // measure 25
00001000
00000000
00000100
00000000
00010000
00001000
00010000
00000000
,  // measure 26
00002000
00000000
00023000
00000000
00030200
00000320
00000032
00000203
,  // measure 27
00001300
00000000
00010000
00000000
00000010
00010000
00001000
00000000
,  // measure 28
00100000
01000000
10000000
00000000
00001000
00100000
00010000
00000000
,  // measure 29
10000000
00010000
01000000
00000000
00202000
00000000
00000000
00000000
,  // measure 30
00303000
00000000
00000000
00000000
;

//---------------dance-double - ----------------
#NOTES:
     dance-double:
     :
     Hard:
     10:
     0.552,0.551,0.115,0.106,0.909,445.000,14.000,13.000,0.000,0.000:  // measure 1
00000000
00000000
00000000
00000000
,  // measure 2
00000010
00000000
00000001
00000010
00000000
00000100
00000010
00000000
00001000
00000010
00000000
00000000
00000001
00000000
00001000
00000010
00000000
00010000
00000010
00000000
00010000
00000100
00000000
00000000
,  // measure 3
00100000
00000000
00001000
00010000
00000000
00010000
00200000
00000000
00000000
10000000
00000000
00000000
01300000
00000000
00010000
10000000
00000000
10000000
01000000
00000000
10000000
00100000
00000000
00100000
,  // measure 4
01000000
00000000
01000000
00001000
00000000
00010000
00000200
00000000
00000000
00001000
00000000
00000000
00000310
00000000
00000001
00000100
00000000
00000010
00001000
00000000
00000100
00010000
00000000
00001000
,  // measure 5
00020000
00000000
00000000
10000000
00000000
00000000
01000000
00000000
00000000
00001000
00000000
00000000
00130000
00000000
00010000
01000000
00000000
10000000
01000000
00000000
00000000
00010000
00000000
00000000
,  // measure 6
00100000
00000000
01000000
10000000
00000000
10000000
00010000
00000000
00010000
01000000
00000000
00000000
00100000
00000000
10000000
00010000
00000000
01000000
00001000
00000000
00010000
00000010
00000000
00000000
,  // measure 7
00001000
00000000
00001000
00000100
00000000
00000010
00000001
00000100
00000001
00000010
00000000
00000000
00000100
00000000
00001000
00000010
00000000
00010000
00000100
00000000
00100000
01000000
00000000
10000000
,  // measure 8
00010000
00000000
01001000
00000000
00000000
00100000
00001000
00010000
00000100
00010000
00000000
00000000
00001000
00000000
00100000
00010000
00000000
01000000
00010000
00000000
01000000
00001000
00000000
00100000
,  // measure 9
00002000
00000000
00000000
00000010
00000000
00000000
00000001
00000000
00000000
00000100
00000000
00000000
00013000
00000000
00001000
00100000
00000000
00001000
01000000
00000000
00000000
00010000
00000000
00000000
,  // measure 10
01000000
00000000
01000000
00001000
00000000
00100000
00010000
00000000
01000000
00001000
00000000
00000000
00010000
00000000
00001000
00000010
00000000
00000010
00001000
00000000
00010000
00100000
00000000
00000000
,  // measure 11
10000000
00000000
00010000
01000000
00000000
00100000
01000000
10000000
01000000
00010000
00000000
00000000
00100000
00000000
00001000
00000100
00000000
00000100
00000001
00000000
00000001
00001000
00000000
00000010
,  // measure 12
00010000
00000000
00000100
00000010
00000000
00000001
00000100
00000010
00001000
00000100
00000000
00000000
00010000
00000000
00010000
00000100
00000000
00001000
00000001
00000000
00000100
00000010
00001000
00000100
,  // measure 13
00000020
00000000
00000000
00000001
00000000
00000000
00000100
00000000
00000000
00010000
00000000
00000000
00001030
00000000
00010000
01000000
00000000
10000000
01000000
00000000
00000000
00100000
00010000
00100000
,  // measure 14
00011000
00000000
00001000
00001010
00000000
00000010
00000100
00000001
00001000
00001100
00000000
00000000
00011000
00000000
00010000
01100000
00000000
10000000
00100000
00010000
00001000
01001000
00000000
00000000
,  // measure 15
00010000
00000000
00100000
00001000
00000000
00010000
00000200
00000000
00000000
01000300
00000000
00000000
00001000
00000000
00010000
00000100
00000000
00010000
00010100
00000000
00001000
00000001
00000000
00000100
,  // measure 16
00000110
00000000
00000010
00010000
00000000
00000100
00020000
00000000
00000000
10030000
00000000
00000000
00001000
00000000
01000000
00010000
00000000
10000000
11000000
00000000
00100000
00001000
00010000
00001000
,  // measure 17
02000000
00000000
00000000
10000000
00000000
00000000
00100000
00000000
00000000
00001000
00000000
00000000
03000010
00000000
00001000
00000001
00000000
00000001
00000010
00001000
00000100
00010000
00001000
00100000
,  // measure 18
02000000
00000000
00000000
10000000
00000000
00000000
03100000
00000000
00110000
00101000
00000000
00000000
00010000
00000000
00001000
00100000
00010000
01000000
00100000
00000000
11000000
10010000
00000000
00000000
,  // measure 19
00100000
00000000
00000000
00001000
00000000
00010000
00000100
00010000
00000100
00001000
00000010
00001000
00000010
00000100
00000001
00000100
00000001
00000010
00000100
00000010
00000100
00010000
00001000
00010000
,  // measure 20
00001000
00100000
01000000
10000000
00100000
00010000
00001000
00000100
00000001
00000010
00001000
00010000
00000100
00010000
00001000
00100000
01000000
10000000
00010000
01000000
00001000
00100000
00000100
00010000
,  // measure 21
00000010
00001000
00000010
00001000
00000001
00000100
00000001
00000100
00000010
00001000
00000100
00010000
00001000
00010000
01000000
10000000
00100000
01000000
00010000
01000000
00100000
00010000
00000000
00000000
,  // measure 22
10000000
01000000
10000000
00100000
00000000
00000000
00010000
01000000
00010000
00100000
00000000
10000000
00010000
00000000
00010000
00001000
00000000
00001000
00000001
00000010
00000001
00000100
00000000
00000000
,  // measure 23
00000001
00000000
00000000
00000100
00000000
00000010
00001000
00000100
00010000
00000010
00000100
00000001
00001000
00000010
00000100
00000001
00001000
00000100
00010000
00000000
00010000
00001000
00000000
00001000
,  // measure 24
00010000
01000000
00100000
10000000
00100000
00010000
01000000
00100000
10000000
00010000
01000000
00100000
10000000
00010000
01000000
00100000
01000000
00001000
00010000
00000100
00001000
00000010
00010000
00001000
,  // measure 25
00010000
00100000
01000000
00010000
00100000
01000000
10000000
00100000
01000000
00001000
00010000
00000100
00000010
00000001
00001000
00000100
00100000
00010000
01000000
00000000
10000000
00100000
00000000
00000000
,  // measure 26
01000000
00001000
01000000
00010000
00000000
00000000
00100000
00010000
00100000
00001000
00000000
00100000
10000000
00000000
00100000
00001000
00000000
00100000
01000000
10000000
00001000
00010000
00000000
00000000
,  // measure 27
00100000
00000000
00001000
01000000
00000000
00001000
00200000
00000000
00000000
00310000
00000000
00000000
01000000
00000000
00100000
01000000
00000000
00010000
01000000
00000000
00100000
10000000
00000000
00001000
,  // measure 28
00010000
00000000
00000010
00000100
00000000
00000001
00002000
00000000
00000000
00013000
00000000
00000000
00100000
00000000
00001000
01000000
00000000
00010000
01000000
00000000
10000000
00100000
00000000
10000000
,  // measure 29
02000000
00000000
00000000
00001000
00000000
00000000
00010000
00000000
00000000
00100000
00000000
00000000
13000000
00010000
01000000
00001000
00010000
00000100
00001000
00000010
00000100
00000002
00000000
00000000
,  // measure 30
00000000
00000003
00000000
00000000
;

//---------------dance-double - ----------------
#NOTES:
     dance-double:
     :
     Challenge:
     10:
     0.543,0.555,0.123,0.172,0.864,428.000,15.000,21.000,0.000,14.000:  // measure 1
00000000
00000000
00000000
00000000
,  // measure 2
01000000
00000000
10000000
01000000
00000000
00100000
01000000
00000000
00010000
01000000
00000000
00000000
10000000
00000000
00010000
01000000
00000000
00001000
01000000
00000000
00001000
00100000
00000000
00000000
,  // measure 3
00000100
00000000
00010000
00001000
00000000
00001000
00000200
00000000
00000000
00000001
00000000
00000000
00000310
00000000
00001000
00000001
00000000
00000001
00000010
00000000
00000001
00000100
00000000
00000100
,  // measure 4
00000010
00000000
00000010
00010000
00000000
00001000
00200000
00000000
00000000
00010000
00000000
00000000
01300000
00000000
10000000
00100000
00000000
01000000
00010000
00000000
00100000
00001000
00000000
00010000
,  // measure 5
00002000
00000000
00000000
00000001
00000000
00000000
00000010
00000000
00000000
00010000
00000000
00000000
00003100
00000000
00001000
00000010
00000000
00000001
00000010
00000000
00000000
00001000
00000000
00000000
,  // measure 6
00000100
00000000
00000010
00000001
00000000
00000001
00001000
00000000
00001000
00000010
00000000
00000000
00000100
00000000
00000001
00001000
00000000
00000010
00010000
00000000
00001000
01000000
00000000
00000000
,  // measure 7
00010000
00000000
00010000
00100000
00000000
01000000
10000000
00100000
10000000
01000000
00000000
00000000
00100000
00000000
00010000
01000000
00000000
00001000
00100000
00000000
00000100
00000010
00000000
00000001
,  // measure 8
00001000
00000000
00010010
00000000
00000000
00000100
00010000
00001000
00100000
00001000
00000000
00000000
00010000
00000000
00000100
00001000
00000000
00000010
00001000
00000000
00000010
00010000
00000000
00000100
,  // measure 9
00020000
00000000
00000000
01000000
00000000
00000000
10000000
00000000
00000000
00100000
00000000
00000000
00031000
00000000
00010000
00000100
00000000
00010000
00000010
00000000
00000000
00001000
00000000
00000000
,  // measure 10
00000010
00000000
00000010
00010000
00000000
00000100
00001000
00000000
00000010
00010000
00000000
00000000
00001000
00000000
00010000
01000000
00000000
01000000
00010000
00000000
00001000
00000100
00000000
00000000
,  // measure 11
00000001
00000000
00001000
00000010
00000000
00000100
00000010
00000001
00000010
00001000
00000000
00000000
00000100
00000000
00010000
00100000
00000000
00100000
10000000
00000000
10000000
00010000
00000000
01000000
,  // measure 12
00001000
00000000
00100000
01000000
00000000
10000000
00100000
01000000
00010000
00100000
00000000
00000000
00001000
00000000
00001000
00100000
00000000
00010000
10000000
00000000
00100000
01000000
00010000
00100000
,  // measure 13
02000000
00000000
00000000
10000000
00000000
00000000
00100000
00000000
00000000
00001000
00000000
00000000
03010000
00000000
00001000
00000010
00000000
00000001
00000010
00000000
00000000
00000100
00001000
00000100
,  // measure 14
00010000
00000000
02002000
10100000
03003000
00000000
00000000
00000000
00000000
00000000
00000000
00000000
00001000
00000000
00200200
00011000
00300300
00000000
00000000
00000000
00000000
00000000
00000000
00000000
,  // measure 15
00001000
00000000
00000100
00010000
00000000
00001000
00200000
00000000
00000000
00300010
00000000
00000000
00010000
00000000
00000000
00202000
00000000
00000000
10313000
00000000
00000000
00100000
00000000
00000000
,  // measure 16
00010000
00000000
01000000
00001000
00000000
00100000
00002000
00000000
00000000
00003001
00000000
00000000
00010000
00000000
00000010
00001000
00000000
00001001
00000011
00000000
00000100
00010000
00001000
00010000
,  // measure 17
00000020
00000000
00000000
00000001
00000000
00000000
00000100
00000000
00000000
00010000
00000000
00000000
01000030
00000000
00010000
10000000
00000000
10000000
01000000
00010000
00100000
00001000
00010000
00000100
,  // measure 18
00000020
00000000
00000000
00000001
00000000
00000000
00000130
00000000
00001100
00010100
00000000
00000000
00001000
00000000
00010000
00000100
00001000
00000010
00000100
00000000
00000011
00001001
00000000
00000000
,  // measure 19
00000100
00000000
00000000
00010000
00000000
00001000
00100000
00001000
00100000
00010000
01000000
00010000
01000000
00100000
10000000
00100000
10000000
01000000
00100000
01000000
00100000
00001000
00010000
00001000
,  // measure 20
00010000
00000100
00000010
00000001
00000100
00001000
00010000
00100000
10000000
01000000
00010000
00001000
00100000
00001000
00010000
00000100
00000010
00000001
00001000
00000010
00010000
00000100
00100000
00001000
,  // measure 21
01000000
00010000
01000000
00010000
10000000
00100000
10000000
00100000
01000000
00010000
00100000
00001000
00010000
00001000
00000010
00000001
00000100
00000010
00001000
00000010
00000100
00001000
00000000
00000000
,  // measure 22
00000001
00000010
00000001
00000100
00000000
00000000
00001000
00000010
00001000
00000100
00000000
00000001
00001000
00000000
00001000
00010000
00000000
00010000
10000000
01000000
10000000
00100000
00000000
00000000
,  // measure 23
10000000
00000000
00000000
00100000
00000000
01000000
00010000
00100000
00001000
01000000
00100000
10000000
00010000
01000000
00100000
10000000
00010000
00100000
00001000
00000000
00001000
00010000
00000000
00010000
,  // measure 24
00001000
00000010
00000100
00000001
00000100
00001000
00000010
00000100
00000001
00001000
00000010
00000100
00000001
00001000
00000010
00000100
00000010
00010000
00001000
00100000
00010000
01000000
00001000
00010000
,  // measure 25
00001000
00000100
00000010
00001000
00000100
00000010
00000001
00000100
00000010
00010000
00001000
00100000
01000000
10000000
00010000
00100000
00000100
00001000
00000010
00000000
00000001
00000100
00000000
00000000
,  // measure 26
00000010
00010000
00000010
00001000
00000000
00000000
00000100
00001000
00000100
00010000
00000000
00000100
00000001
00000000
00000100
00010000
00000000
00000100
00000010
00000001
00010000
00001000
00000000
00000000
,  // measure 27
00000100
00000000
00010000
00000010
00000000
00010000
00000200
00000000
00000000
00001300
00000000
00000000
00000010
00000000
00000100
00000010
00000000
00001000
00000010
00000000
00000100
00000001
00000000
00010000
,  // measure 28
00001000
00000000
01000000
00100000
00000000
10000000
00020000
00000000
00000000
00031000
00000000
00000000
00000100
00000000
00010000
00000010
00000000
00010000
00001000
00000000
00001000
00010000
00000000
00000000
,  // measure 29
02000200
00000000
00000000
00000000
00000000
00010000
00001000
00000000
00001000
00010000
00000000
00010000
00001000
00000000
00001000
00010000
00000000
00020000
00002000
00000000
00000000
00000000
00000000
00000000
,  // measure 30
00000000
00000000
00000000
00000000
00000000
00000000
00000000
03133310
00000000
00000000
00000000
00000000
00000000
00000000
00000000
00000000
;
