#TITLE:Ridiculosis;
#SUBTITLE:;
#ARTIST:TheBoxX;
#TITLETRANSLIT:;
#SUBTITLETRANSLIT:;
#ARTISTTRANSLIT:;
#CREDIT:;
#BANNER:../bn.png;
#BACKGROUND:../veyron.png;
#LYRICSPATH:;
#CDTITLE:;
#MUSIC:Music.ogg;
#OFFSET:0.005;
#SAMPLESTART:85.736;
#SAMPLELENGTH:18.660;
#SELECTABLE:YES;
#BPMS:0.000=209.920;
#STOPS:;
#BGCHANGES:;
// cache tags:
#FIRSTBEAT:0.000;
#LASTBEAT:428.000;
#SONGFILENAME:Songs/Cirque du Veyron/Zaia - Ridiculosis/Simfile.sm;
#HASMUSIC:1;
#HASBANNER:1;
#MUSICLENGTH:126.590;
// end cache tags

//---------------dance-single - Zaia----------------
#NOTES:
     dance-single:
     Zaia:
     Challenge:
     15:
     1.000,1.000,0.340,0.071,1.000,1191.000,43.000,9.000,0.000,0.000:
1000
1000
0001
1000
1000
0001
1000
0001
,
0100
0100
0001
0100
0100
0001
0010
0001
,
1000
1000
0010
1000
1000
0010
1000
0001
,
1000
0000
1000
0000
0010
0000
1000
0000
0001
0100
0010
1000
0001
0010
0100
1000
,
0001
0001
1000
0001
0001
1000
0001
1000
,
0100
0100
1000
0100
0100
1000
0001
1000
,
0010
0010
0100
0010
0010
0100
0001
1000
,
0001
0000
1000
0001
1000
0000
0001
0100
0010
1000
0010
0100
0001
1000
0100
0010
,
0001
1000
0010
0100
0010
1000
0001
0010
0001
1000
0100
0010
0001
0100
0010
1000
,
0001
0010
0001
1000
0010
1000
0100
0010
0100
1000
0001
1000
0100
1000
0001
0100
,
0010
1000
0001
0010
0001
1000
0100
1000
0001
0100
0010
1000
0100
0010
0001
1000
,
0010
0100
0001
1000
0010
0100
0001
1000
0100
1000
0001
0010
0001
0100
0010
1000
,
0001
0010
0100
1000
0001
0100
0010
0100
0001
1000
0100
0010
0100
1000
0001
0010
,
0001
1000
0010
1000
0001
0010
0100
1000
0100
0010
0001
1000
0100
1000
0100
0010
,
0001
0100
0010
0100
0001
1000
0100
0010
0001
0100
0010
1000
0010
0100
0001
1000
,
0010
0100
0010
0100
0001
1000
0001
1000
0001
0010
0001
0010
0100
1000
0100
1000
,
0010
1000
0010
1000
0010
0100
0010
0100
0001
0100
0001
0100
0001
1000
0001
1000
,
0020
0000
0000
0000
0000
0000
1030
0100
0010
0001
0100
0010
,
1000
0001
0001
1000
0001
0001
0010
0001
,
1000
0001
0001
1000
0001
0001
0100
0001
,
1000
0001
0001
1000
0001
0001
1000
0001
,
1000
0100
0100
0010
0100
0100
0010
0100
,
1000
0100
0100
0010
0100
0100
0010
0100
,
1000
0010
0010
1000
0010
0010
1000
0001
,
1000
0010
0010
1000
0010
0010
1000
0001
,
1001
0000
0000
0000
0000
0000
0000
0000
1000
0010
0100
0001
1000
0010
0100
0001
,
1000
0100
0010
0001
1000
0010
1000
0001
0010
0001
0100
0010
1000
0001
0010
0100
,
1000
0100
0010
0001
1000
0010
0100
0001
0010
0001
1000
0010
0100
0001
0010
0100
,
1000
0001
0100
0010
1000
0010
0100
0001
1000
0100
1000
0001
0100
0001
1000
0100
,
1000
0001
1000
0010
0100
0001
0100
0010
0100
0001
1000
0001
0010
0001
0100
0010
,
1000
0001
1000
0010
0100
0001
1000
0001
0010
0100
1000
0001
0010
0100
1000
0100
,
0010
0001
1000
0010
1000
0001
0100
0001
0010
0100
1000
0001
0100
0010
1000
0001
,
0100
0010
0100
0001
1000
0100
0010
0100
1000
0001
0010
0001
1000
0100
1000
0001
,
0100
0010
1000
0100
1000
0001
0010
0100
1000
0001
0100
0010
1000
0001
0010
0100
,
1000
0100
1000
0010
1000
0100
0010
0001
,
0100
0001
0010
0001
0100
0010
1000
0100
,
1000
0010
1000
0100
0010
0001
0100
0010
,
1000
0010
0100
0001
1000
0100
0010
0001
,
0101
0100
0010
1000
0010
0100
0010
1000
,
0100
0010
0001
0100
0010
1000
0001
0100
,
0101
0001
0010
0100
1000
0010
0100
0001
,
0010
0001
0100
0010
1000
0100
0010
0001
,
1001
1000
0010
1000
0100
1000
0001
1000
,
0010
1000
0100
1000
0001
1000
0010
1000
,
1010
0010
0100
0001
1000
0100
0010
0001
,
1000
0001
0100
0001
0010
0001
0100
0001
,
0011
0010
0100
1000
0001
0100
0010
1000
,
0100
0010
0001
0100
0010
0100
0001
1000
,
1001
0000
0000
0000
1000
0000
0000
0000
0001
0010
0100
1000
0001
0010
0100
1000
,
0001
0100
0001
0100
0010
0100
0010
0100
0010
1000
0010
1000
0001
1000
0001
1000
,
0001
0010
0001
0010
0100
1000
0100
1000
0001
1000
0001
1000
0010
0100
0010
0100
,
0001
0100
0001
0100
0001
1000
0001
1000
0001
0010
0001
0010
0100
0010
0100
0010
,
0100
1000
0100
1000
0001
1000
0001
1000
0010
0100
0010
0100
0001
0010
0001
0010
,
0001
0100
0010
1000
0001
0010
0001
0100
0010
1000
0001
0010
0001
0100
0010
1000
,
0001
0010
0001
0100
0010
1000
0001
0010
0001
0100
0010
1000
0001
0010
0100
1000
,
0010
0100
0001
1000
0100
0010
0100
1000
0001
0100
0010
0100
0001
1000
0001
0010
,
0200
0300
1100
1000
,
0001
0000
0000
0001
1001
0000
0000
0001
,
0120
0000
1030
0000
1010
0000
0000
1000
,
1100
0000
0000
0001
0010
0000
0000
1000
,
1200
0000
0310
0000
0011
0000
0000
1000
,
1001
0000
0000
0001
0100
0000
0000
0010
,
1020
0000
0130
0000
1001
0000
0000
1000
,
1010
0000
0000
0001
1001
0000
0000
1000
,
2100
0000
3001
0000
1001
0000
0000
0001
,
0101
0000
1000
0000
0011
0000
0000
0001
,
2001
0000
3100
0000
1100
0000
0000
0001
,
0011
0000
0000
0001
1000
0000
0000
0001
,
0200
0000
0310
0000
1010
0000
0000
0010
,
0110
0000
0000
0001
0101
0000
0000
1000
,
2001
0000
3001
0000
1100
0000
0000
1000
,
0001
1000
0001
1000
0010
0100
0001
1000
0100
0010
0001
0010
0100
1000
0001
0100
,
0001
0100
0010
1000
0001
0010
0100
1000
0001
0100
0010
1000
0010
0100
0001
1000
,
0100
0010
0001
1000
0010
0100
0010
1000
0001
0010
0001
1000
0010
1000
0001
0010
,
0100
1000
0010
0100
0001
1000
0100
1000
0001
0100
0010
1000
0100
0010
0100
1000
,
0001
0010
0001
1000
0001
0010
0001
1000
0001
0010
0001
1000
0001
0010
0001
0100
,
0001
1000
0001
0100
0001
1000
0001
0100
0001
1000
0001
0100
0001
1000
0001
0100
,
0001
1000
0010
0100
0001
1000
0010
0100
0001
1000
0010
0100
0001
1000
0010
0100
,
0001
1000
0100
1000
0001
1000
0100
1000
0001
1000
0100
1000
0001
1000
0100
1000
,
0001
1000
0010
1000
0001
1000
0010
1000
0001
1000
0010
1000
0001
1000
0010
1000
,
0001
1000
0100
0010
0001
1000
0100
0010
0001
1000
0100
0010
0001
1000
0100
0010
,
0001
0100
0001
1000
0001
0100
0001
1000
0001
0100
0001
1000
0001
0100
0001
1000
,
0100
1000
0001
1000
0100
1000
0001
1000
0100
1000
0001
1000
0100
1000
0001
1000
,
0010
0100
0001
1000
0100
0010
0001
1000
0010
0100
0001
1000
0100
0010
0001
1000
,
0010
0100
0010
1000
0010
0100
0010
1000
0010
0100
0010
1000
0010
0100
0010
1000
,
0100
0010
0100
1000
0100
0010
0100
1000
0100
0010
0100
1000
0100
0010
0100
1000
,
0100
0010
0001
1000
0001
0100
0001
1000
0001
0010
0001
1000
0001
0100
0001
1000
,
0010
1000
0001
1000
0100
1000
0001
1000
0010
1000
0001
1000
0100
1000
0001
1000
,
0100
0010
0001
1000
0010
0100
0001
1000
0100
0010
0001
1000
0010
0100
0001
1000
,
0100
1000
0001
1000
0010
1000
0001
1000
0100
1000
0001
1000
0010
1000
0001
1000
,
0100
0010
0001
1000
0001
0100
0001
1000
0001
0010
0001
1000
0001
0100
0001
0010
,
0001
0000
0100
0000
0001
0000
0010
0000
0001
1000
0100
1000
0010
1000
0100
1000
,
0001
0000
0100
0000
0010
0000
1000
0000
0001
1000
0001
1000
0001
0010
0001
0010
,
0100
0000
1000
0000
0100
0000
0010
0000
0100
0010
0001
1000
0010
1000
0010
0100
,
0001
0000
1000
0000
0010
0000
1000
0000
0100
0010
0100
0010
0001
0010
0001
0010
,
0100
1000
0001
0100
0010
0100
0001
0010
0100
1000
0010
0100
0001
0100
0010
1000
,
0001
0010
0100
1000
0001
0010
0100
1000
0001
0100
0010
0100
0001
1000
0100
1000
,
0001
0000
1001
0000
0000
0100
1001
0000
,
0010
0000
0101
0000
0000
0010
0101
0000
,
0001
0000
0110
0000
0000
0001
0110
0000
,
1000
0100
0010
0001
0010
0100
1000
0010
1000
0100
0010
0001
0010
0100
1000
0001
,
0100
0000
0110
0000
0000
0010
1010
0000
,
0100
0000
0101
0000
0000
0010
1001
0000
,
0100
0000
1010
0000
0000
0001
0101
0000
,
0010
0100
0010
0100
0001
0100
0001
0100
0001
1000
0001
1000
0100
1000
0100
1000
,
0100
0010
0100
0010
0001
0010
0001
0010
0001
0100
0001
0100
0010
0100
0010
0100
,
0001
0000
0000
0000
0000
0000
1000
0010
0100
0001
0010
0100
,
1000
0000
0000
0000
;
