#TITLE:The End of All Things to Come;
#SUBTITLE:By Nicholas Mihaila;
#ARTIST:Mudvayne;
#TITLETRANSLIT:;
#SUBTITLETRANSLIT:;
#ARTISTTRANSLIT:;
#CREDIT:;
#BANNER:end-banner.gif;
#BACKGROUND:the-end.gif;
#LYRICSPATH:;
#CDTITLE:NTM-2.gif;
#MUSIC:Mudvayne - The End of All Things to Come.mp3;
#OFFSET:0.000;
#SAMPLESTART:100.000;
#SAMPLELENGTH:12.000;
#SELECTABLE:YES;
#BPMS:0.000=225.001,36.000=255.001,36.750=130.001,37.000=75.641,37.250=25.001,37.500=225.002,117.000=150.002,172.000=225.002,211.000=150.002,247.000=100.002,247.250=68.502,247.500=225.003,398.000=150.003,458.500=225.003,477.500=280.003,478.250=220.003,478.500=85.503,478.750=30.003,479.000=225.003;
#STOPS:6.500=1.400
,11.500=1.400
,398.000=0.700
,451.000=1.400
,454.333=1.300
;
#BGCHANGES:;
// cache tags:
#FIRSTBEAT:2.500;
#LASTBEAT:568.250;
#SONGFILENAME:Songs/juju steps/Mudvayne - The End of All Things to Come/Mudvayne - The End of All Things to Come.sm;
#HASMUSIC:1;
#HASBANNER:1;
#MUSICLENGTH:181.349;
// end cache tags

//---------------dance-single - ----------------
#NOTES:
     dance-single:
     :
     Challenge:
     11:
     0.895,1.000,0.976,0.761,0.466,814.000,177.000,138.000,89.000,8.000:
0000
0000
0000
0000
0000
1000
0100
0010
,
0001
0010
0100
1000
0100
0011
0000
1000
,
0100
1000
0100
0010
0100
0010
0100
0011
,
0000
1000
0100
0010
0001
0010
0100
1000
,
0100
0001
0000
0011
0000
0100
0000
1100
,
0001
0010
0001
0010
0100
0010
0100
0010
,
0100
1000
0100
1000
0000
0100
0000
1100
,
0000
0010
0000
0011
0100
1000
0100
1000
,
0100
0010
0001
0010
0100
1000
0100
0010
,
0002
0000
0000
0013
1100
1100
1100
0000
,
0001
0110
0110
0110
0000
0100
1001
1001
,
1001
0100
0000
0011
0110
1100
0000
0001
,
0010
0100
1000
0001
0010
0100
1000
0010
,
0001
0010
0001
0010
0100
0010
1100
0101
,
0000
0000
0000
0101
0000
0000
0000
0000
0000
1100
0000
1100
0000
0110
0000
0110
0000
0000
0000
0000
0000
0000
0000
0000
,
1001
0000
1001
0000
0110
0000
0110
0000
0000
0000
0000
0000
0000
0000
0000
1000
0000
0000
0100
0000
0000
1000
0000
0000
,
0100
0011
0000
1100
0000
1001
0000
1000
,
0100
0010
0001
0100
0010
1000
0001
0010
,
0001
0010
0100
0010
0100
1000
0011
0000
,
1100
0000
0000
0000
2222
3333
0000
0000
MMMM
0000
0000
0000
0000
0000
0100
0000
,
0010
0001
0110
0000
0000
1000
0100
0010
,
0100
0000
0010
0000
1001
0000
0110
0000
0000
0000
1010
0000
2222
3333
0000
0000
,
MMMM
0000
1000
0100
0010
0100
0010
0100
,
1000
0100
0010
0001
0010
1100
0000
0011
,
0000
1100
0000
1001
0110
1001
0000
1010
,
0101
1010
0000
0000
0000
0100
1000
0100
,
0010
0100
0011
1000
0011
0000
0000
1000
,
0100
1000
0100
0010
0001
0010
0001
0010
,
0100
1000
0100
1000
0100
1010
0000
0110
,
0000
0000
0000
0000
0000
0000
0000
0000
0000
0000
0000
0000
0000
0000
0000
0000
0000
0000
0000
0000
0000
0000
0000
0000
0101
0000
0000
0000
0000
0000
0000
0000
0000
0000
0000
0000
0000
0000
0000
0000
0000
0000
0000
0000
0000
0000
0000
0000
0020
0000
0000
0000
0000
0000
0000
0000
0000
0000
0000
0000
0000
0000
0000
0000
0000
0000
0000
0000
0000
0000
0000
0000
0000
0000
0000
0000
0000
0000
0000
0000
0000
0000
0000
0000
0000
0000
0000
0000
0000
0000
0000
0000
0000
0000
0000
0000
0000
0000
0000
0000
0000
0000
0000
0000
0000
0000
0000
0000
0000
0000
0000
1000
0030
0000
0000
0000
0000
0000
0000
0000
0000
0000
0000
0000
0000
0000
0000
0000
0000
0000
0000
0000
0000
0000
0000
0000
0000
0000
0000
0000
0000
0000
0000
0000
0000
0000
0000
0000
0000
0000
0000
0000
0000
0000
0000
0000
0000
0000
0000
1000
0000
0000
0000
0000
0000
0000
0000
0000
0000
0000
0000
0000
0000
0000
0000
0000
0000
0000
0000
0000
0000
0000
0000
0000
0000
0000
0000
0000
0000
0000
0000
0000
,
0200
0000
0000
0000
0000
0000
0000
0000
0000
0000
0000
0000
0000
0000
0000
0000
0000
0000
0000
0000
0000
1000
0000
0000
0000
0000
0000
0000
0000
0000
0000
0000
0000
0000
0000
0000
0000
0000
0000
0000
0000
0000
0000
0000
0000
0000
0000
0000
0000
0000
0000
0000
0000
0000
0000
0000
0000
0000
0000
0000
0000
0000
0000
0000
0300
0000
0000
0000
0000
0000
0000
0000
0000
0000
0000
1000
0000
0000
0000
0000
0000
0000
0000
0000
0000
0000
0000
0000
0000
0000
0000
0000
0000
0000
0000
0000
0002
0000
0000
0000
0000
0000
0000
0000
0000
0000
0000
0000
0000
0000
0000
0000
0000
0000
0000
0000
0000
0000
0000
0000
0000
0000
0000
0000
0000
0000
0000
0000
0000
1000
0000
0000
0000
0000
0000
0000
0000
0000
0000
0000
0000
0000
0000
0000
0000
0000
0000
0000
0000
0000
0000
0000
0000
0000
0000
0000
0000
0000
0000
0000
0003
0000
0000
0000
0000
0000
0000
0000
0000
0000
0000
0000
0000
0000
0000
0000
0000
0000
0000
0000
0000
0000
0000
1000
0000
0000
0000
0000
0000
0000
0000
0000
,
0000
0000
0000
0000
0000
0000
0000
0000
0000
0000
0000
0000
0000
0000
0000
0000
0020
0000
0000
0000
0000
0000
0000
0000
0000
0000
0000
0000
0000
0000
0000
0000
0000
0000
0000
0000
0000
0000
0000
0000
0000
0000
0000
0000
0000
1000
0000
0000
0000
0000
0000
0000
0000
0000
0000
0000
0000
0000
0000
0000
0000
0000
0000
0000
0000
0000
0000
0000
0000
0000
0000
0000
0000
0000
0000
0000
0000
0000
0000
0000
0030
0000
0000
0000
0000
0000
0000
0000
0000
0000
0000
0000
0000
0000
0000
0000
0200
0000
0000
1000
0000
0000
0000
0000
0000
0000
0000
0000
0000
0000
0000
0000
0000
0000
0000
0000
0000
0000
0000
0000
0000
0000
0000
0000
0000
0000
0000
0000
0000
0000
0000
0000
0000
0000
0000
0000
0000
0000
0000
0000
0000
0000
0000
0000
0000
0000
0000
0000
0000
0000
0000
0000
0000
1000
0000
0000
0000
0000
0000
0000
0300
0000
0000
0000
0000
0000
0000
0000
0000
0000
0000
0000
0000
0000
0000
0000
0000
0000
0000
0000
0000
0000
0000
0000
0000
0000
0000
0000
0000
0000
0000
0000
,
0000
0000
0000
0000
0000
0000
0000
0000
0000
0000
0000
0000
0000
0000
0000
1000
0000
0000
0000
0000
0000
0000
0000
0000
0000
0000
0000
0000
0000
0000
0000
0000
0000
0000
0000
0000
0000
0000
0000
0000
0000
0000
0000
0000
0000
0000
0000
0000
0020
0000
0000
0000
0000
0000
0000
0000
0000
0000
0000
0000
0000
0000
0000
0000
0000
0000
0000
0000
0000
1000
0000
0000
0000
0000
0000
0000
0000
0000
0000
0000
0000
0000
0000
0000
0000
0000
0000
0000
0000
0000
0000
0000
0000
0000
0000
0000
0000
0000
0000
0000
0000
0000
0000
0000
0000
0000
0000
0000
0000
0000
0000
0000
0030
0000
0000
0000
0000
0000
0000
0000
0000
0000
0000
1000
0000
0000
0000
0000
0002
0000
0000
0000
0000
0000
0000
0000
0000
0000
0000
0000
0000
0000
0000
0000
0000
0000
0000
0000
0000
0000
0000
0000
0000
0000
0000
0000
0000
0000
0000
0000
0000
0000
0000
0000
0000
0000
0000
0000
0000
0000
0000
0000
0000
0000
0000
0000
0000
0000
0000
0000
0000
0000
0000
1000
0000
0000
0000
0000
0000
0000
0000
0000
,
0003
0000
0000
0000
0100
0010
0100
0010
0001
0010
2MM2
0000
,
0000
0000
3003
0000
0000
0000
MM22
0000
0000
0000
0033
22MM
,
0000
0000
0000
3300
0000
0000
0000
0000
2M2M
0000
0000
0000
,
3030
M2M2
0000
0000
0000
0303
0000
0000
0000
2MM2
0000
0000
,
0000
3003
M22M
0000
0000
0000
0330
0000
0000
0000
0000
22MM
,
0000
0000
0000
3300
M2M2
0000
0000
0000
0303
0000
0000
0000
,
MM22
0000
0000
0000
0033
0000
2M2M
0000
0000
0000
3030
0000
,
0000
0000
M22M
0000
0000
0000
0330
0000
2MM2
0000
0000
0000
,
3003
0000
0000
0000
22MM
0000
0000
0000
3300
0000
MM22
0000
,
0000
0000
0033
0000
1000
0100
1000
0100
0010
0001
0000
0000
,
1000
0100
0010
0001
0000
1000
0100
0010
,
0001
0000
1000
0100
0010
0001
0000
1010
,
0000
1010
0000
1010
0000
0100
1000
0100
,
1000
0100
0010
0001
0010
0001
0010
0100
,
1000
0100
1000
0001
0000
0011
0000
0011
,
1100
0000
0000
0000
0000
1100
0000
0000
0000
0000
1100
0000
0000
0000
0000
1100
0000
0000
0000
0000
0000
0000
0000
0000
0000
0000
0000
0000
0000
0000
0011
0000
0000
0000
0000
0011
0000
0000
0000
0000
0011
0000
0000
0000
0000
0011
0000
0000
,
0000
0000
1000
0100
1000
0100
0010
1000
,
0000
0101
0000
0000
0000
0101
0000
0000
1000
0000
0100
0000
0010
0000
0001
0000
,
0010
0100
0010
0100
1000
0100
0010
0001
,
0010
0000
0000
0000
0000
0000
0000
0000
0001
0000
0000
0000
0000
0000
0000
0000
1000
0000
0000
0000
0000
0000
0000
0000
0000
0000
0000
0000
0000
0000
0000
0000
0110
0000
0000
0000
0000
0000
0000
0000
0000
0000
0000
0000
0000
0000
0000
0000
0110
0000
0000
0000
0000
0000
0000
0000
0000
0000
0000
0000
0000
2200
00MM
0000
,
3300
0000
0000
0000
0000
0000
0000
0000
0000
0000
0000
0000
0000
M22M
0000
0000
0330
0000
0000
0000
0000
0000
0000
0000
0000
0000
0000
0000
0000
22MM
0000
0000
3300
0000
0000
0000
0000
0000
0000
0000
0000
0000
0000
0000
0000
0000
0000
M2M2
0000
0000
0303
0000
0000
0000
0000
0000
0000
0000
0000
0000
0000
0000
0000
0000
,
0000
2MM2
0000
0000
3003
0000
0000
0000
0000
0000
0000
0000
0000
0000
0000
0000
0000
0000
0000
22MM
0000
0000
3300
0000
0000
0000
0000
0000
0000
0000
0000
0000
0000
0000
0000
0000
0000
MM22
0000
0000
0033
0000
0000
0000
0000
0000
0000
0000
0000
0000
0000
0000
0000
0000
0000
M2M2
0000
0000
0303
0000
0000
0000
0000
0000
,
0000
0000
0000
0000
0000
0000
0000
0000
0000
M22M
0000
0000
0330
0000
0000
0000
0000
0000
0000
0000
0000
0000
0000
0000
0000
0000
0000
22MM
0000
0000
3300
0000
0000
0000
0000
0000
0000
0000
0000
0000
0000
0000
0000
0000
0000
2MM2
0000
0000
3003
0000
0000
0000
0000
0000
0000
0000
0000
0000
0000
0000
0000
0000
0000
M2M2
,
0000
0000
0000
0000
0000
0000
0303
0000
0000
0000
0000
0000
0000
0000
0000
0000
0000
0000
0000
0000
0000
0000
0000
0000
0000
0000
0000
0000
0000
0000
0000
0000
0000
0000
0000
0000
0000
0000
0000
0000
0000
0000
0000
0000
0000
0000
0000
0000
0000
0000
0000
M22M
0000
0000
0000
0000
0000
0000
0000
0000
0330
0000
0000
0000
0000
0000
0000
0000
0000
0000
0000
0000
0000
0000
0000
0000
0000
0000
0000
0000
0000
0000
0000
0000
0000
0000
0000
0000
0000
0000
0000
0000
0000
0000
0000
0000
0000
0000
0000
0000
0000
0000
0000
0000
0000
2M2M
0000
0000
0000
0000
0000
0000
0000
0000
3030
0000
0000
0000
0000
0000
0000
0000
0000
0000
0000
0000
0000
0000
0000
0000
0000
0000
0000
0000
0000
0000
0000
0000
0000
0000
0000
0000
0000
0000
0000
0000
0000
0000
0000
0000
0000
0000
0000
0000
0000
0000
0000
0000
0000
0000
1000
0000
0000
0000
0000
0000
0000
0000
0000
0000
0000
0000
0000
0000
0000
0000
0100
0000
0000
0000
0000
0000
0000
0000
0000
0000
0000
0000
0000
0000
0000
0000
,
0010
0001
0010
0001
0010
2200
0000
0000
0000
3300
0000
0010
,
0001
0010
0100
1000
0100
0010
2002
0000
0000
0000
3003
0000
,
0000
0010
0001
0010
0001
0010
0100
1000
0220
0000
0000
0000
,
0330
0000
0000
0010
0100
1000
0001
0010
0100
1000
0202
0000
,
0000
0000
0000
0000
0303
0000
0000
0000
0000
0000
1000
0000
0100
0000
0010
0000
0001
0000
2200
0000
0000
3310
0000
0000
,
0100
1000
0000
0000
0000
1000
0100
0010
,
0000
0000
0010
0100
0010
0100
1000
0001
,
0000
0110
0000
1001
0100
0010
0001
0010
,
0001
0010
0100
1000
0100
1000
0100
0010
,
0100
0010
0100
1000
0000
0011
0000
0110
,
1000
0100
0010
0001
0000
1010
0110
0011
,
1001
0000
0100
0010
0001
0010
0001
1000
,
0000
0110
0000
0101
1000
0100
1000
0100
,
0010
0001
0010
0100
1000
0100
0010
0100
,
0010
1000
0000
0110
0000
0110
0000
1001
,
0000
0100
0010
1000
0000
0001
0100
0010
,
0000
0000
1000
0100
0010
0001
0010
1000
,
0000
0110
0000
1001
0100
0010
0100
1000
,
0100
0010
0100
0010
0001
0010
0100
1000
,
0100
0010
0100
0010
1000
0110
0011
1000
,
0100
0010
0001
0000
0000
0001
0010
0100
,
1000
0000
0010
0100
0010
0001
0010
1000
,
0000
0011
0000
0000
0000
0011
0000
0000
1000
0000
0100
0000
0010
0000
0100
0000
,
0010
0001
0010
0100
1000
0001
0010
0100
,
1000
0001
0010
0100
1000
0100
0010
0000
,
2000
0000
0000
0000
0MM2
0000
0000
0000
0000
3003
0000
0000
0000
0000
0200
0000
,
0000
0000
M02M
0000
0000
0000
0000
0330
0000
0000
0000
0000
0020
0000
0000
0000
,
2M0M
0000
0000
0000
0000
3030
0000
0000
0000
0000
22MM
0000
0000
0000
3310
0000
,
0000
0000
0010
0000
0000
0000
2010
0000
3000
0200
0000
0300
0020
0000
0000
0000
,
0030
0001
0010
0001
0010
0100
1000
0000
,
0000
0000
0202
0000
0303
2020
0000
3030
0202
0000
0000
0000
0303
0000
0000
0000
,
1000
0100
1000
0100
0010
0000
0000
0000
,
0000
0002
0000
0003
2000
0000
3000
0020
0000
0000
0000
0030
0000
0000
1000
0000
,
0100
1000
0100
0011
0000
0000
0000
2200
,
3300
0220
0000
0330
0022
0000
0000
0000
0033
0000
1000
0000
0100
0000
0010
0000
,
0001
0000
0010
0000
1100
0000
0000
0000
0000
0000
2002
0000
3003
0220
0000
0330
,
2002
0000
3003
0000
1000
0010
0100
0001
,
0010
0000
0000
0000
0000
0000
0000
2000
0000
0000
0020
0000
0030
0200
0000
0000
,
0000
3300
0000
0000
0000
0000
1000
0000
0100
0000
1000
0000
0100
0000
1000
0000
,
0000
0000
0000
0000
0202
0000
0000
0020
0000
0030
2000
0000
0000
0000
3303
0000
,
0000
0010
0100
0001
0010
0100
1000
0000
,
0000
0000
2002
0000
3003
2002
0000
3003
2002
0000
0000
0000
3003
0000
0000
0000
,
0100
0000
0000
0010
0000
0000
0001
0000
0000
0010
0000
0000
1100
0000
0000
0000
1000
0000
0000
0000
0100
0000
0000
0000
,
1000
0000
0000
0010
0000
0000
0100
0010
0001
0000
0000
0010
,
0000
0100
0000
1000
0000
0010
0000
0011
0000
0000
0000
1000
,
0000
0010
0000
0100
0000
0010
0000
0000
1000
0000
0000
0001
,
0000
0110
0000
0000
0000
0000
1000
0000
0100
0000
0011
0000
,
0000
0000
0000
0000
0010
0000
0100
0000
1100
0000
0000
0000
,
1000
0000
0010
0000
0100
0010
0001
0000
0110
0000
0000
1000
,
0000
0010
0000
0011
0000
0000
0000
0000
0100
0000
1000
0000
,
0110
0000
0000
2000
0000
0100
0000
3001
0000
0110
0000
0000
,
0000
0000
1000
0000
0100
0010
0001
0000
1100
0000
0000
0000
,
0000
1000
0000
0001
0000
0110
0000
0000
0000
1000
0000
0010
,
0000
0100
0000
0011
0000
0000
0000
1000
0000
0010
0000
1100
,
0000
0000
0000
0000
0100
1000
0100
0010
0001
0010
1100
0000
,
0000
1000
0100
0010
0001
0010
0100
1000
0100
0011
0000
1000
,
0100
0010
0001
1000
0100
0010
0001
1100
0000
1000
0100
1000
,
0100
0000
0010
0000
0100
0000
0010
0000
0001
0000
0000
0000
0000
0000
0000
0010
0000
0000
0100
0000
0000
1000
0000
0000
,
0100
0010
0100
1000
0100
0010
0001
0010
,
0100
0010
0001
0010
0100
1000
0000
0000
,
0010
0001
0010
0100
0010
0100
0010
0001
,
0010
0100
1000
0001
0010
0001
0010
0100
,
1000
0100
0010
0200
0000
0000
1300
0100
,
1000
0100
0000
0001
0010
0001
0010
0000
,
1000
0100
1000
0100
0001
0000
0110
0000
,
0110
0000
1000
0100
1000
0100
0010
0001
,
0010
0100
0010
0001
0010
0100
1000
0001
,
0000
0110
0000
1001
0000
1001
0100
0010
,
0100
0010
0000
1100
0011
1100
0011
0000
,
1000
0100
0010
0001
1000
0000
1100
0000
,
0101
0000
1000
0100
1000
0100
1000
0100
,
1000
0100
0010
0001
0010
0001
0010
0001
,
0010
0000
0100
0000
0010
0000
0100
0000
0010
0000
0000
0000
2222
3333
0000
0000
,
MMMM
0000
1000
0100
1000
0100
0000
0000
,
0001
0010
0100
0010
0100
0001
0000
1010
,
0000
1010
0100
0010
0001
1000
0100
0010
,
0001
0010
0100
1000
0100
0001
0010
1000
,
0100
0001
1000
0110
0000
0110
1000
0100
,
0010
0001
0000
0001
0010
0100
1000
0000
,
0100
0010
0100
1000
0001
0000
0110
0000
,
1100
0000
0001
0010
0001
0010
0001
0010
,
0001
0010
0001
0010
0100
1000
0100
1000
,
0100
0000
1000
0000
0100
0000
0011
0000
0000
2M22
0033
0000
0000
00M0
0000
0000
,
0000
000M
0000
0000
0000
00M0
0000
0000
0000
0M00
0000
0000
0000
00M0
0000
0000
,
0000
000M
0000
0000
0000
00M0
0000
0000
0000
0M00
0000
0000
3000
00M0
0000
0000
,
0000
000M
0000
0000
0000
0000
0000
0000
0000
0000
0000
0000
0000
0000
0000
0000
;
