#TITLE:5.1.1;
#SUBTITLE:(AG Supercool Mix);
#ARTIST:Remixed By Dj Aerogroove;
#TITLETRANSLIT:;
#SUBTITLETRANSLIT:;
#ARTISTTRANSLIT:;
#CREDIT:;
#BANNER:5.1.1 (AG Supercool Mix).png;
#BACKGROUND:5.1.1 (AG Supercool Mix)-bg.png;
#LYRICSPATH:;
#CDTITLE:!mm989cdtitle.png;
#MUSIC:5.1.1 (AG Supercool Mix).mp3;
#OFFSET:-1.834;
#SAMPLESTART:30.440;
#SAMPLELENGTH:12.000;
#SELECTABLE:YES;
#BPMS:0.000=134.000;
#STOPS:;
#BGCHANGES:;
// cache tags:
#FIRSTBEAT:0.000;
#LASTBEAT:212.000;
#SONGFILENAME:Songs/IzzySM Keyboard Mega Pack/5.1.1 (AG Supercool Mix)/5.1.1 (AG Supercool Mix).sm;
#HASMUSIC:1;
#HASBANNER:1;
#MUSICLENGTH:105.720;
// end cache tags

//---------------dance-single - ----------------
#NOTES:
     dance-single:
     :
     Easy:
     4:
     0.322,0.426,0.293,0.265,0.019,179.000,31.000,28.000,0.000,0.000:  // measure 1
2000
0000
0000
0000
,  // measure 2
0001
0000
0001
3000
,  // measure 3
0002
0000
1003
0010
,  // measure 4
0100
0001
0010
1001
,  // measure 5
2002
0000
0000
3003
,  // measure 6
0220
0000
0000
0330
,  // measure 7
0001
1000
0100
0010
,  // measure 8
0001
1000
0001
0110
,  // measure 9
0110
1000
0010
0100
,  // measure 10
0001
0100
0010
1000
,  // measure 11
1001
0000
1001
0000
,  // measure 12
0101
0000
0101
0000
,  // measure 13
1000
1000
0001
0001
,  // measure 14
1000
1000
0001
0001
,  // measure 15
0010
0100
1000
0000
,  // measure 16
0001
0010
0100
0000
,  // measure 17
1001
0010
0010
0000
,  // measure 18
1001
0100
0100
0000
,  // measure 19
0110
0000
0110
0000
,  // measure 20
1010
0000
1010
0000
,  // measure 21
2000
3002
1003
0020
,  // measure 22
0230
0302
0203
0000
,  // measure 23
0320
2030
3010
0002
,  // measure 24
0023
0230
2300
0000
,  // measure 25
3002
0203
0320
0230
,  // measure 26
0302
2003
3200
0310
,  // measure 27
1001
0000
1001
0000
,  // measure 28
0010
0000
0100
0000
1000
0100
0010
0001
,  // measure 29
1001
0000
0000
0000
,  // measure 30
0000
0000
0001
0010
,  // measure 31
1000
0010
0001
0010
,  // measure 32
0100
1000
0100
0001
,  // measure 33
1000
1000
0010
0010
,  // measure 34
1001
0010
0100
0001
,  // measure 35
2000
3010
0100
0010
,  // measure 36
0200
0301
0010
1000
,  // measure 37
0002
0000
0103
0000
1000
0001
1000
0001
,  // measure 38
1000
0000
0000
0000
0100
0000
0000
0000
0001
0000
0000
0001
0000
0000
0001
0000
,  // measure 39
0000
0000
0000
0000
0010
0000
0000
0000
1000
0000
0000
1000
0000
0000
1000
0000
,  // measure 40
0000
0000
0000
0000
0100
0000
0000
0000
0010
0000
0000
0100
0000
0000
0010
0000
,  // measure 41
0000
0000
0000
0000
0001
0000
0000
0000
1000
0000
0000
0001
0000
0000
1000
0000
,  // measure 42
0001
0001
0001
0001
,  // measure 43
0110
0010
0010
0010
,  // measure 44
1001
0000
0000
1100
0000
0000
0001
0000
,  // measure 45
0101
0000
0000
1001
0000
0000
0010
0000
,  // measure 46
1001
0100
0100
1000
,  // measure 47
1000
0001
0001
0010
,  // measure 48
0010
1000
0100
1000
,  // measure 49
0001
0100
0010
1000
,  // measure 50
1001
0000
1010
0000
,  // measure 51
0101
0000
1010
0000
,  // measure 52
1001
0100
0010
0100
,  // measure 53
1000
0001
0100
0010
,  // measure 54
1001
0000
0000
0000
;

//---------------dance-single - ----------------
#NOTES:
     dance-single:
     :
     Medium:
     8:
     0.470,0.526,0.378,0.350,0.047,271.000,40.000,37.000,0.000,0.000:  // measure 1
2002
0000
0000
3003
,  // measure 2
1000
0010
0100
0010
1000
0001
0010
0100
,  // measure 3
2000
0000
3000
0000
0110
0000
0000
1100
,  // measure 4
0000
0000
0011
0000
0000
0101
0000
0000
,  // measure 5
1001
0100
0010
0100
0001
0010
0100
1000
,  // measure 6
0001
0000
1000
0100
1000
0001
0010
0001
,  // measure 7
0100
0000
0000
0101
0000
0000
0010
1000
,  // measure 8
1001
0110
1001
0110
,  // measure 9
0001
1000
0010
0100
,  // measure 10
1001
0010
1000
0001
,  // measure 11
1001
0000
0000
0100
0000
0000
0010
1000
,  // measure 12
0010
0000
0000
0011
0000
0000
0100
0000
,  // measure 13
1001
0100
0010
0100
0000
0001
1000
0000
,  // measure 14
1010
0100
0001
0100
0000
0001
0010
0000
,  // measure 15
0011
0100
1000
0010
0000
0100
0001
0000
,  // measure 16
0101
0010
1000
0010
0000
1000
0100
0010
,  // measure 17
1001
0110
0100
0001
,  // measure 18
0101
0001
0010
0100
,  // measure 19
1000
0000
0000
0110
0000
0000
0001
0001
,  // measure 20
0100
0000
0000
1010
0000
0000
0001
0000
,  // measure 21
1002
0000
2003
0000
3001
0010
0200
0320
,  // measure 22
2030
0000
3002
0000
0203
0000
0000
0310
,  // measure 23
2001
0000
3200
0000
0310
0001
2000
3020
,  // measure 24
0230
0000
0302
0000
2003
0000
0000
3010
,  // measure 25
0100
0010
0101
1010
,  // measure 26
1000
0001
0010
0100
1000
0000
1001
0000
,  // measure 27
0010
0100
1000
0010
,  // measure 28
0001
0000
1000
0010
0100
0001
0010
0100
,  // measure 29
1001
0000
0000
0000
,  // measure 30
0000
0000
0000
0000
0100
0010
0001
1000
,  // measure 31
0001
0000
0001
0010
0100
0000
0100
0010
,  // measure 32
0001
1000
0001
0000
1000
0010
0100
0010
,  // measure 33
1000
0001
1000
0100
0010
0100
1000
0020
,  // measure 34
0030
0000
0100
0000
0000
0001
0000
0000
1000
0000
0000
0010
0000
0000
0200
0000
,  // measure 35
0300
0000
0001
0000
0000
0010
0000
0000
0100
0000
0000
0010
0000
0000
0002
0000
,  // measure 36
0003
0000
0010
0000
0000
0001
0000
0000
0100
0000
0000
0010
0000
0000
2000
0000
,  // measure 37
3001
0010
0100
0010
0001
0100
0010
0000
,  // measure 38
1001
0000
0100
0000
0010
0000
1000
0000
0200
0000
0300
2000
0000
3000
0002
0000
,  // measure 39
1003
0000
0100
0000
1000
0000
0001
0000
0200
0000
0300
0020
0000
0030
2000
0000
,  // measure 40
3001
0000
0100
0000
0001
0000
1000
0000
0020
0000
0030
0200
0000
0300
0002
0000
,  // measure 41
0013
0000
0100
0000
1000
0000
0001
0000
0200
0000
0300
0020
0000
0030
2000
0000
,  // measure 42
3001
0110
0001
0110
,  // measure 43
1000
1100
1000
0101
,  // measure 44
0110
0000
0000
1001
0000
0000
0100
0010
,  // measure 45
1001
0000
0000
0011
0000
0000
0100
0000
,  // measure 46
1001
1000
0001
2000
0000
0000
3001
0010
,  // measure 47
0100
0100
0010
0200
0000
0000
0301
1000
,  // measure 48
0010
0010
0100
0020
0000
0000
0031
0100
,  // measure 49
0001
0001
1000
0002
0000
0000
1003
0100
,  // measure 50
1000
1000
0000
0000
0001
0001
0000
0000
,  // measure 51
0010
0010
0000
0000
0100
0100
0000
0000
,  // measure 52
0001
1000
0100
0000
0010
0001
0010
0000
,  // measure 53
0100
1000
0010
0100
0010
1000
0001
0010
,  // measure 54
1100
0000
0000
0000
;

//---------------dance-single - ----------------
#NOTES:
     dance-single:
     :
     Hard:
     12:
     1.000,1.000,0.946,0.672,1.000,585.000,100.000,71.000,0.000,0.000:  // measure 1
2002
0000
0000
3003
,  // measure 2
1000
0001
1000
0001
0010
0100
0010
0100
1000
0100
0010
0001
1000
0001
0010
0100
,  // measure 3
2000
0000
0000
3010
1020
0000
0130
0102
,  // measure 4
0000
1003
1020
0000
0130
0210
0000
0301
,  // measure 5
1001
0100
0010
0100
0001
1000
0100
0010
0001
1000
0010
1000
0001
0100
0001
0010
,  // measure 6
1001
0100
0010
1000
0010
0100
0001
1000
0001
0100
0010
1000
0100
1000
0001
0010
,  // measure 7
1001
0000
0100
1001
0000
0011
1000
0001
,  // measure 8
1001
1000
0011
1000
1100
1000
0011
1000
,  // measure 9
0001
1000
0001
0000
0010
0100
0010
0000
0001
0010
0001
0000
1000
0100
1000
0000
,  // measure 10
0001
0100
0001
0000
1000
0100
0010
0001
0100
0001
0010
1000
0100
0010
0001
1000
,  // measure 11
1001
0000
0000
0000
1010
0000
0001
0000
1000
0010
0100
0001
0100
0010
1000
0000
,  // measure 12
0011
0000
0000
0000
1100
0000
0001
0000
0010
0100
0010
0001
0100
0010
0100
0001
,  // measure 13
1001
0000
1000
0100
1000
0100
0000
0100
0010
0001
0010
0001
0000
0001
0000
0100
,  // measure 14
0110
0000
1000
0010
1000
0010
0000
1000
0001
0100
0001
0100
0000
1000
0000
0001
,  // measure 15
1001
0000
0010
0100
0001
1000
0000
0100
1000
0001
0010
0100
0000
0001
0000
1000
,  // measure 16
0011
0000
0001
0010
0100
1000
0000
0010
0001
0100
0010
1000
0000
0100
0000
0010
,  // measure 17
0100
0010
0001
0000
0001
0010
0100
0000
1000
0001
0010
0000
0010
0001
1000
0000
,  // measure 18
0100
1000
0010
0000
0010
1000
0100
0010
0001
0100
0010
1000
0010
0100
0001
0100
,  // measure 19
1001
0000
0000
0000
0110
0000
0001
0000
0010
0100
1000
0100
0001
0010
0100
0010
,  // measure 20
1100
0000
0000
0000
0101
0000
0010
0000
1000
0001
0010
0100
1000
0010
0100
0000
,  // measure 21
2002
0000
0000
3003
0220
0000
0000
0330
0101
1000
0001
0010
1100
0000
1010
0000
,  // measure 22
0202
0000
0000
0303
2020
0000
0000
3030
2200
0000
0000
0000
0000
3300
0110
0000
,  // measure 23
0022
0000
0000
0033
0220
0000
0000
0330
1001
0010
0001
0100
1010
0000
0011
0000
,  // measure 24
0220
0000
0000
0330
2020
0000
0000
3030
0022
0000
0000
0000
0000
0033
0110
0000
,  // measure 25
2200
0000
0000
3300
0022
0000
0000
0033
2200
0000
0000
3300
0022
0000
0000
0033
,  // measure 26
1100
0000
0001
0000
0101
0000
1000
0000
2200
0000
0000
3300
1001
0000
0000
0000
,  // measure 27
1000
0100
0010
0001
1000
0100
0010
0001
0100
0010
0100
0001
0100
0001
1000
0100
,  // measure 28
0010
0000
0001
0000
1000
0000
0010
0000
1000
0000
0001
0000
0100
0000
0010
0000
1000
0000
0100
0000
0010
0000
0001
0000
0010
0100
0010
0100
0010
0100
0010
0100
,  // measure 29
1001
0000
0000
0000
,  // measure 30
0000
0000
0000
0000
0010
0100
1000
0001
,  // measure 31
1000
0010
0100
0010
1000
0000
0001
1000
0010
0000
1001
0000
1000
0001
0100
0010
,  // measure 32
1000
0100
0010
0100
1000
0000
1001
0000
0010
0100
0010
0100
0001
0000
0101
0000
,  // measure 33
0010
0100
1000
0000
1000
0001
0010
0001
0100
1000
0001
0010
0100
0000
0022
0000
,  // measure 34
0033
0000
0101
0000
0000
1010
0000
0000
0101
0000
0010
1100
0000
0000
0220
0000
,  // measure 35
0330
0000
1001
0000
0000
1010
0001
0000
1001
0000
0010
0101
0000
0000
2200
0000
,  // measure 36
3300
0000
1100
0000
1000
0011
0000
0000
1100
0000
0000
0101
0010
0000
0110
0000
,  // measure 37
0001
0000
0010
0000
0100
0000
1000
0000
0100
0000
0010
0000
0001
0000
0010
0000
0100
0000
1000
0000
0100
0000
0010
0000
0001
0010
0100
1000
0001
0010
0100
1000
,  // measure 38
0001
1000
0021
0130
1000
0102
0013
0100
1020
0130
1000
0012
0103
0010
1002
0000
,  // measure 39
1003
0100
2010
3001
0100
0021
1030
0001
2100
3010
0001
1020
0130
0001
0210
0000
,  // measure 40
0301
1000
0102
0013
0100
2001
3100
0010
1200
0301
0010
0102
1003
0100
1020
0000
,  // measure 41
0130
0001
2100
3010
0100
0021
0130
1000
0201
0310
1000
0120
1030
0100
0012
0000
,  // measure 42
2003
0100
3200
0010
0320
0001
0032
0100
,  // measure 43
0203
0010
0320
1000
2030
0010
3020
0130
,  // measure 44
1001
0000
0010
0100
0010
0100
1010
0000
0001
0010
0100
1000
0001
1000
0100
0010
,  // measure 45
1001
0000
0100
0010
0100
0010
0101
0000
1000
0001
0100
0010
1000
0100
0010
0000
,  // measure 46
0100
0100
1100
0000
0000
0000
0001
0001
0001
1000
0010
0100
0001
1000
0001
0100
,  // measure 47
0010
0010
1010
0000
0000
0000
0100
0100
0100
0001
1000
0010
0100
0001
1000
0100
,  // measure 48
1000
1000
1100
0000
0000
0000
0010
0010
0010
0001
1000
0100
0010
0100
1000
0001
,  // measure 49
0100
0100
0101
0000
0000
0000
1000
1000
1000
0001
0010
0100
1000
0010
0100
0000
,  // measure 50
0010
1000
0010
0000
0100
0100
0100
0100
0001
0010
0001
0000
1000
1000
1000
1000
,  // measure 51
0010
0100
0010
0000
0001
0001
0001
0001
1000
0100
1000
0000
0010
0010
0010
0010
,  // measure 52
0001
1000
0010
1000
0001
0100
0010
1000
0001
1000
0010
0100
0001
1000
0001
0010
,  // measure 53
0100
0010
0001
1000
0010
1000
0100
0010
0001
0100
0001
0100
0010
1000
0010
0100
,  // measure 54
0001
0000
0000
0000
;
