#TITLE:Flash back 90's;
#SUBTITLE:;
#ARTIST:disconation;
#TITLETRANSLIT:;
#SUBTITLETRANSLIT:;
#ARTISTTRANSLIT:;
#CREDIT:;
#BANNER:Flash back 90's-bn.png;
#BACKGROUND:Flash back 90's-bg.jpg;
#LYRICSPATH:;
#CDTITLE:Type MARS.png;
#MUSIC:Flash back 90's.mp3;
#OFFSET:-0.420;
#SAMPLESTART:40.660;
#SAMPLELENGTH:12.420;
#SELECTABLE:YES;
#BPMS:0.000=155.000,97.500=77.500,99.500=155.000,130.000=77.500,130.500=155.000,160.500=77.500,161.000=155.000,192.000=77.500,210.500=155.000;
#STOPS:92.000=0.100
,92.250=0.100
,92.500=0.200
,94.000=0.200
,94.750=0.095
,95.250=0.090
,95.750=0.095
,96.250=0.090
,129.500=0.048
,129.625=0.048
,129.750=0.048
,129.875=0.048
,158.750=0.195
,159.750=0.195
,182.000=0.195
,183.500=0.195
,208.000=1.150
;
#BGCHANGES:;
// cache tags:
#FIRSTBEAT:0.000;
#LASTBEAT:290.500;
#SONGFILENAME:Songs/Definitive Keyboard Megapack/Flash back 90's (Type MARS)/Flash back 90's.sm;
#HASMUSIC:1;
#HASBANNER:1;
#MUSICLENGTH:126.701;
// end cache tags

//---------------dance-single - ----------------
#NOTES:
     dance-single:
     :
     Hard:
     13:
     1.000,1.000,1.000,0.655,1.000,957.000,204.000,83.000,0.000,1.000:

1000
0001
1100
0010
0001
1100
0010
0001
,
0110
1000
0001
0110
1000
0001
1100
0010
,
0001
0100
1010
0100
0001
1010
0001
0100
,
0001
0100
0010
1100
0010
0101
1100
0010
,
0101
0010
0001
1100
0010
0100
0011
0110
,
1100
0110
0001
1100
0010
0101
1010
0110
,
1100
0110
0011
0110
0101
1100
0110
1001
,
0101
1010
0110
0101
1010
0110
0101
0110
,
1001
0000
0000
0101
0000
0000
0100
0000
0000
0110
0000
0000
1000
0000
0000
0011
0000
0000
0100
0000
0000
1001
0010
0100
,
1000
0000
0110
0000
0001
0000
1100
0000
0010
0000
0101
0000
0001
1100
0010
0000
,
0110
0000
0001
1100
0010
0000
0110
0000
1001
0000
0110
0000
1010
0000
0101
0000
,
1001
0100
0010
1100
0010
0001
0110
0100
1000
0110
0010
0001
,
1010
0100
0010
0001
0110
1000
0010
0001
1100
0010
1000
0001
0110
1000
0001
0010
,
1001
0100
0010
0101
0010
0100
1010
0001
0010
1100
0010
0100
,
1010
0000
0100
0000
0010
0000
0101
0000
0010
0000
0001
0000
0110
0000
0000
0100
0000
0000
0020
0000
0000
0000
0000
0000
,
1030
0100
0010
0001
0000
0000
0001
0010
0100
1000
0100
0010
0001
0200
0000
0310
,
0100
0010
0001
0010
0100
1000
0000
1000
0010
0000
0001
0010
1000
0100
0010
0000
,
1000
0010
0100
0001
0100
0010
0100
0010
1000
0000
0010
0100
0001
0010
0000
1000
,
0001
0010
0100
0001
0010
1000
0001
0010
1000
0100
0010
1000
0100
0001
1000
0010
,
0001
1000
0001
1000
0001
0000
0100
1000
0110
0000
1001
0000
1010
0000
0110
0000
,
0001
0010
0100
1000
0010
0100
0000
0001
1000
0000
0010
0100
0011
1100
0011
1100
,
0010
0000
0100
0000
0001
0000
0010
0000
0000
0000
1000
0000
0011
0000
1100
0000
0011
0000
0000
0000
1010
0000
0101
0000
0000
0000
1001
0000
0110
1000
0100
0010
,
0001
0000
0000
0010
0000
0000
0100
0000
0000
0001
0000
0000
0010
0000
0000
1000
0000
0000
0001
0000
0000
0010
0000
0000
1000
0000
0100
0000
0010
0000
0001
0000
0010
0000
0100
0000
1000
0000
0000
0010
0000
0000
0001
0000
0000
0100
0000
0000
,
1001
0000
0000
1100
0000
0000
1001
0000
0000
0000
0000
0000
1001
0000
0100
0000
0010
0000
1100
0000
0010
0000
0001
0000
1010
0000
0000
0000
0000
0000
0110
0000
0000
0101
0000
0000
1100
0000
0000
0011
0000
0000
0110
0000
0000
1001
0000
0000
,
1100
0011
0110
0001
1000
0010
0200
0302
2003
3020
0230
0000
0020
0330
1002
0003
,
0120
0030
0201
0300
2010
3000
0110
0000
0100
0011
1000
0000
1001
0000
0210
0301
,
2010
3000
0120
0030
2100
3000
0011
1100
0000
1001
0000
0100
1001
0000
0120
0030
,
1002
0003
1020
0030
0102
0003
1001
0000
0010
1100
0000
1000
0011
0000
1100
0011
,
0000
0011
1100
0000
0101
1010
0000
0010
2200
3301
2020
3030
0100
0000
0110
0000
,
1001
0000
1100
0000
0011
0000
0110
0000
0100
0011
0000
0001
1100
0000
1001
0100
,
0011
0000
1100
0000
1010
0000
0101
1010
0000
0110
0000
0100
1001
0000
0110
0000
,
1001
0000
0110
0000
0110
0000
1001
0000
1000
0110
0000
0010
0101
0000
0011
1100
,
1001
0000
0000
0000
0110
0000
0000
0000
0001
0000
1000
0000
0011
1100
0011
1100
0012
0000
0000
0000
1003
0000
0010
0000
0100
0000
0001
0000
1000
0000
0100
0000
,
0010
1000
0001
1000
0010
0100
0001
0010
0100
0000
0010
1000
0001
0000
0100
0001
,
0000
0001
1000
0100
0010
0100
0001
0010
0100
1000
0010
0100
1000
0000
0010
0100
,
1000
0001
0010
0001
1000
0010
0100
0001
0010
1000
0010
0100
0001
0000
0010
1000
,
0100
1000
0001
0010
0100
0010
0001
0100
0010
1000
0010
0100
1000
0000
1100
0010
,
0000
0100
0011
0000
0010
1000
0110
1000
0001
0000
0110
1000
0010
0000
0110
0001
,
0000
0001
1100
0000
0010
1000
0110
0001
0100
0000
0011
1000
0010
0000
1100
0010
,
0000
0001
0110
1000
0100
0010
1001
0010
0100
1000
0011
1100
0101
1010
0101
1010
,
1001
0000
2001
0000
3001
0010
0100
0000
1000
0010
0000
0010
0001
0000
0100
0010
,
0001
0010
0100
1000
0010
0100
0001
0000
0010
1000
0000
1000
0010
0000
0100
0001
,
1000
0010
0100
1000
0010
0100
0001
0000
0001
1000
0000
1000
0100
0000
0010
0100
,
1000
0010
0100
0000
0001
0010
1000
0000
0100
0010
0000
0010
0100
1000
0010
0100
,
0001
0010
0100
1000
0010
0001
1000
0000
0100
1000
0000
0010
0100
0000
0001
0010
,
1000
0100
0010
0001
1000
0100
0010
0001
1000
0000
0010
0000
0100
0000
0000
0000
2002
0000
3003
0000
0100
0000
0001
0000
1000
0000
0000
0000
2002
0000
3003
0000
,
0110
0001
1100
0000
0110
0000
1010
0000
0110
0001
1010
0000
0110
0000
1000
0100
,
0001
0010
1000
0000
1000
0010
0000
0100
0002
2003
3002
2003
3002
0000
0003
0000
,
1001
0100
0010
0001
1001
0100
0010
0001
1001
0100
0010
0001
1001
0100
0010
0001
,
0110
0100
1000
0100
0110
0100
1000
0100
0110
0100
1000
0100
0110
0100
1000
0100
,
0101
0010
0100
1000
0101
0010
0100
1000
0101
0010
0100
1000
0101
0010
0100
1000
,
0011
0100
1000
0010
0011
0100
1000
0010
0011
0100
1000
0010
0011
0100
1000
0010
,
1001
0000
0000
0000
0001
0100
0010
0100
0010
0001
1000
0100
0010
0100
0001
0010
1000
0100
0001
0000
1000
0000
0010
0000
0100
0000
0010
0000
1000
0000
0100
0000
,
0001
0010
0100
0001
0010
0100
0001
0010
0100
1000
0100
0001
1000
0100
0001
1000
,
0100
0001
0010
1000
0001
0010
1000
0001
0010
1000
0001
0100
0010
0001
0100
0010
,
1000
0100
0010
1000
0100
0010
1000
0010
0001
1000
0010
0001
0100
0001
1000
0100
,
0001
1000
0010
1000
0001
0010
1000
0001
0010
0100
1000
0001
0010
1000
0001
0010
,
1000
0001
0100
1000
0001
0100
1000
0001
0100
0010
1000
0001
0010
1000
0001
0010
,
1000
0100
0010
1000
0100
0010
1000
0100
0001
1000
0010
0100
0001
0010
0100
0001
,
0010
0100
0001
0010
1000
0001
0010
1000
0001
0100
1000
0001
0100
1000
0001
0100
,
1000
0010
0100
1000
0010
0100
1000
0010
0001
0010
2000
3100
0010
2000
3100
0010
,
2000
3100
0020
1030
0001
0020
0130
0001
0020
0130
2000
3100
0001
2000
3100
0001
,
2000
3100
0002
0013
1000
0002
0013
1000
0002
0013
2000
3010
0100
2000
3010
0100
,
2000
3010
0200
0301
0010
0200
0301
0010
0200
0301
0020
1030
0001
0020
1030
0001
,
0020
1030
0002
0103
1000
0002
0103
1000
0002
0103
2000
3010
0001
0200
0310
0001
,
2000
3010
0200
0301
1000
0020
0130
0001
2000
3010
0200
0301
1000
0020
0130
0001
,
2000
3010
0200
0301
0010
0002
0103
0010
2000
3100
0020
0031
0100
0020
1030
0100
,
0020
0031
0200
0310
1000
0200
0301
0010
0200
0310
0002
1003
0010
0200
0301
0010
,
0200
1300
0020
0130
0001
2000
3010
0100
0002
0103
1000
0001
0010
0000
0100
0000
,
1000
0010
0100
0001
0010
0000
0100
0000
0010
1000
0001
0100
0010
0000
1000
0000
,
0010
0100
0001
0010
0100
0000
1000
0010
0100
0001
0010
0100
1000
0000
0010
0100
,
1000
0010
0100
0001
0010
0000
0100
1000
0010
0100
0001
0010
0100
1000
0100
0010
,
0001
0010
0100
1000
0100
0010
0100
0010
0001
0010
1001
0000
0000
0000
0000
0000
;
