#TITLE:Fight Fire With Fire;
#SUBTITLE:;
#ARTIST:Apocalyptica;
#TITLETRANSLIT:;
#SUBTITLETRANSLIT:;
#ARTISTTRANSLIT:;
#CREDIT:;
#BANNER:../fallback-bn.png;
#BACKGROUND:../fallback-bg.png;
#LYRICSPATH:;
#CDTITLE:;
#MUSIC:13 - Apocalyptica - Fight Fire With Fire.ogg;
#OFFSET:0.005;
#SAMPLESTART:21.834;
#SAMPLELENGTH:12.000;
#SELECTABLE:YES;
#BPMS:0.000=100.000,1.000=92.000,47.000=94.000,54.500=199.501,150.500=202.000,176.000=198.000,196.500=200.000,223.000=190.001,245.000=190.300,309.000=188.000,312.000=190.300,325.000=190.000,389.000=192.000,405.000=202.000,421.500=199.500,528.000=200.500,564.000=202.000;
#STOPS:196.500=0.420
,420.000=0.100
,499.500=0.440
;
#BGCHANGES:;
// cache tags:
#FIRSTBEAT:1.000;
#LASTBEAT:584.000;
#SONGFILENAME:Songs/SSSC PACK/[Kanji pad edit] - fight fire/fire.sm;
#HASMUSIC:1;
#HASBANNER:1;
#MUSICLENGTH:105.000;
// end cache tags

//---------------dance-single - ----------------
#NOTES:
     dance-single:
     :
     Challenge:
     15:
     1.000,1.000,1.000,0.724,1.000,1583.000,140.000,76.000,0.000,0.000:

0000
1000
0100
0010
,
0001
0000
0000
0010
0000
0000
0100
1000
0100
0010
0000
0000
0100
0000
0000
1000
0000
0000
0010
0000
0000
0100
0000
0000
,
0001
0000
0010
0100
2000
0000
0000
0000
3000
0000
0001
0000
0001
0000
0100
0000
,
0010
0000
1000
0000
0001
0000
0010
0100
,
1000
0001
0010
0001
0000
0000
0010
0000
0000
0100
0000
0000
1000
0000
0000
0001
0000
0000
0100
0000
0000
0010
0000
0000
,
0200
0000
0000
0000
0310
1000
0010
0000
,
0100
0000
0000
0000
0000
0000
0001
0000
0000
0000
0000
0000
0010
0000
0000
0100
0000
0000
1000
0100
0010
0001
0000
0000
,
1000
0000
0100
0000
0010
0000
0001
0000
1100
0000
1000
0010
0200
0000
0000
0000
,
0301
0000
0001
0010
0010
0000
0100
0000
,
1000
0000
0000
0000
0000
0000
0001
0000
0000
1000
0000
0000
0010
0100
0010
1000
0000
0000
0100
0000
0000
0010
0000
0000
,
0001
1000
0001
0010
0100
0100
1000
0001
,
1000
0000
0000
0000
0000
0100
0000
0000
0000
0000
0010
0000
0000
0000
0000
0000
0001
0000
0000
0000
0000
0000
0000
0000
2000
0000
0000
0000
0000
0000
0000
0000
,
0000
0000
0000
0000
,
0000
0000
0000
0000
0000
0000
0000
0000
3000
0000
0001
0010
0100
1000
0100
1000
,
0001
1000
0001
1000
0010
0100
0001
0010
0001
1000
0100
0010
0001
0100
0010
0100
,
0001
1000
0010
0100
0001
0100
0001
0010
0001
1000
0100
0010
0100
1000
0001
0010
,
0001
1000
0010
0100
0001
1000
0001
0010
0100
1000
0001
0010
0100
1000
0100
0010
,
0001
1000
0001
0100
0001
0010
0001
1000
0100
1000
0010
0100
0001
1000
0001
0010
,
0100
1000
0001
0010
0100
1000
0100
0010
0100
1000
0001
0010
0100
1000
0100
0010
,
0100
1000
0001
0010
0100
0010
0001
1000
0001
0100
0010
1000
0001
0100
0010
0100
,
0001
0010
0100
1000
0001
0100
0010
1000
0001
0010
0100
1000
0100
0010
0100
1000
,
0010
0100
0001
0010
0100
0010
0001
1000
0001
1000
0010
0100
0010
1000
0100
1000
,
0001
0010
0100
1000
0100
0010
0001
1000
0001
0010
0100
1000
0100
0010
0001
1000
,
0001
0010
0001
1000
0010
0100
0001
0100
0001
0010
0001
1000
0001
0010
0100
1000
,
0100
0010
0001
0010
0100
1000
0100
0010
0001
0010
0001
1000
0001
1000
0001
0100
,
0010
1000
0100
1000
0001
0010
0100
1000
0010
0100
0010
1000
0001
0100
0010
1000
,
0010
1000
0100
1000
0001
0010
0100
0010
0001
1000
0100
1000
0001
0100
0010
1000
,
0001
1000
0100
0010
0001
1000
0100
0010
0001
0010
0100
1000
0001
1000
0010
1000
,
0100
1000
0001
0010
0001
0100
0010
1000
0001
1000
0100
0010
0001
1000
0100
0010
,
0001
0010
0100
0010
0001
1000
0100
0010
0001
0000
0011
0000
0110
0000
1100
0000
,
1000
0010
0100
0001
0010
0000
0110
0000
1100
0000
1001
0000
1010
0000
0010
0100
,
0001
0011
0000
1100
0000
1100
0011
0101
,
0100
0010
1000
0100
0010
0000
0001
0000
1010
0000
0101
0000
1010
0000
0001
1000
,
0001
1010
0000
1010
0000
0101
0011
0110
,
0100
1000
0100
0010
0100
0000
1000
0000
1100
0000
1010
0000
0101
0000
0010
1000
,
0001
0110
0000
1001
0000
1010
0101
0011
,
0010
0100
1000
0100
0010
0000
0001
0000
1001
0000
0011
0000
1001
0000
1000
0010
,
0100
0001
1000
0000
0000
0000
1001
0000
0000
0000
1000
0001
1000
0001
0100
0010
,
2000
3000
0000
0000
0100
0000
0000
0000
1000
0000
0000
0000
0001
0000
0000
0000
0010
0000
0000
0000
0100
0000
0000
0000
1000
0000
0000
0000
0010
0000
0000
0000
0200
0300
0000
0000
0010
0000
0000
0000
1000
0000
0000
0000
0001
0000
0000
0000
0100
0000
0000
0000
0010
0000
0000
0000
1000
0000
0000
0000
0010
0000
0000
0000
,
2000
3000
0000
0000
0100
0000
0000
0000
1000
0000
0000
0000
0001
0000
0000
0000
0020
0030
0000
0000
0100
0000
0000
0000
0010
0000
0000
0000
0001
0000
0000
0000
2000
3000
0000
0000
0100
0000
0000
0000
1000
0000
0000
0000
0001
0000
0000
0000
0100
0000
0000
0000
0010
0000
0000
0000
1000
0000
0000
0000
0001
0000
0000
0000
,
2000
3000
0000
0000
0100
0000
0000
0000
0010
0000
0000
0000
0001
0000
0000
0000
1000
0000
0000
0000
0100
0000
0000
0000
0010
0000
0000
0000
0001
0000
0000
0000
0020
0030
0000
0000
0100
0000
0000
0000
1000
0000
0000
0000
0001
0000
0000
0000
1000
0000
0000
0000
0010
0000
0000
0000
1000
0000
0000
0000
0100
0000
0000
0000
,
2000
3000
0000
0000
0001
0000
0000
0000
0010
0000
0000
0000
0001
0000
0000
0000
0200
0300
0000
0000
0010
0000
0000
0000
1000
0000
0000
0000
0001
0000
0000
0000
2000
3000
0000
0000
0100
0000
0000
0000
0010
0000
0000
0000
0001
0000
0000
0000
1000
0000
0000
0000
0100
0000
0000
0000
0010
0000
0000
0000
0001
0000
0000
0000
,
0020
0030
0000
0000
0100
0000
0000
0000
0010
0000
0000
0000
0001
0000
0000
0000
1000
0000
0000
0000
0100
0000
0000
0000
0010
0000
0000
0000
0001
0000
0000
0000
0020
0030
0000
0000
0100
0000
0000
0000
0010
0000
0000
0000
0001
0000
0000
0000
1000
0000
0000
0000
0100
0000
0000
0000
0010
0000
0000
0000
0100
0000
0000
0000
,
2000
3000
0000
0000
0001
0000
0000
0000
1000
0000
0000
0000
0010
0000
0000
0000
0200
0300
0000
0000
0001
0000
0000
0000
1000
0000
0000
0000
0010
0000
0000
0000
0200
0300
0000
0000
0010
0000
0000
0000
1000
0000
0000
0000
0100
0000
0000
0000
0010
0000
0000
0000
0001
0000
0000
0000
1000
0000
0000
0000
0010
0000
0000
0000
,
0200
0300
0000
0000
0001
0000
0000
0000
1000
0000
0000
0000
0100
0000
0000
0000
0010
0000
0000
0000
0001
0000
0000
0000
0010
0000
0000
0000
0100
0000
0000
0000
0020
0030
0000
0000
0001
0000
0000
0000
0100
0000
0000
0000
0010
0000
0000
0000
1000
0000
0000
0000
0100
0000
0000
0000
0010
0000
0000
0000
0100
0000
0000
0000
,
2000
3000
0000
0000
0001
0000
0000
0000
1000
0000
0000
0000
0001
0000
0000
0000
2000
3000
0000
0000
0001
0000
0000
0000
1000
0000
0000
0000
0001
0000
0000
0000
0010
0000
0000
0000
0000
0000
0000
0000
1100
0000
0000
0000
0000
0000
0000
0000
0011
0000
0000
0000
0000
0000
0000
0000
1001
0000
0000
0000
0000
0000
0000
0000
,
0001
0010
0100
1000
0001
0000
1000
0000
0011
0000
0110
0000
1100
0000
0001
0010
,
0100
1010
0000
1010
0000
0101
0110
1010
,
0001
1000
0001
1000
0001
0000
0010
0000
0110
0000
1100
0000
1001
0000
0001
0010
,
0001
0000
0000
1001
0000
0000
2100
0000
0000
0000
0010
0000
0000
0000
0001
3000
0000
0000
0012
0000
0000
0000
0100
0000
,
0000
0000
0000
0000
1000
0000
0003
0000
0000
0000
0000
0000
0001
0000
0000
1000
0000
0000
0001
0000
0000
1000
0000
0000
0001
0000
0000
1000
0000
0000
0001
0000
0000
1000
0000
0000
0100
0000
0000
1000
0000
0000
0100
0000
0000
1000
0000
0000
,
0100
0000
0000
1000
0000
0000
0100
0000
0000
0000
0000
0000
1200
0000
0000
0000
0000
0000
0000
0000
0010
0000
0000
0000
0000
0000
0000
0000
1000
0000
0300
0000
0000
0000
0000
0000
0201
0000
0000
0000
0000
0000
0000
0000
0010
0000
0000
0000
,
0000
0000
0000
0000
0001
0000
0300
0000
0000
0000
0000
0000
1000
0000
0000
0010
0000
0000
1000
0000
0000
0010
0000
0000
1000
0000
0000
0010
0000
0000
1000
0000
0000
0010
0000
0000
0100
0000
0000
0010
0000
0000
0100
0000
0000
0010
0000
0000
,
0100
0000
0000
0010
0000
0000
0100
0000
0000
0000
0000
0000
0201
0000
0000
0000
0000
0000
0000
0000
0010
0000
0000
0000
0000
0000
0000
0000
0001
0000
0300
0000
0000
0000
0000
0000
2010
0000
0000
0000
0000
0000
0000
0000
0001
0000
0000
0000
,
0000
0000
0000
0000
0100
0000
3000
0000
0000
0000
0000
0000
0001
0000
0000
0100
0000
0000
0001
0000
0000
0100
0000
0000
0001
0000
0000
0100
0000
0000
0001
0000
0000
0100
0000
0000
0010
0000
0000
1000
0000
0000
0010
0000
0000
1000
0000
0000
,
0010
0000
0000
1000
0000
0000
0010
0000
0000
0000
0000
0000
2010
0000
0000
0000
0000
0000
0000
0000
0100
0000
0000
0000
0000
0000
0000
0000
0001
0000
3000
0000
0000
0000
0000
0000
0022
0000
0000
0000
0000
0000
0000
0000
0000
0000
0000
0000
,
0000
0000
0000
0000
0000
0000
0000
0000
0000
0033
0000
0000
0000
0000
0000
0000
0000
0000
0011
0000
0000
0000
0110
0000
,
0000
1100
0000
2002
0000
0000
0000
0000
0000
0000
0000
0000
,
3003
0000
0000
2020
0000
0000
3030
0000
0000
0101
0000
0110
,
0000
1010
0000
2002
0000
0000
0000
0000
0000
0000
0000
0000
,
3003
0000
0000
0000
0000
0000
2002
0000
0000
0000
0000
0000
0000
0000
0000
3003
0000
0000
0011
0000
0000
0000
1100
0000
,
0000
0000
0000
0000
0011
0000
0000
0000
0000
0000
0000
0000
1000
0000
0000
0100
0000
0000
0010
0000
0000
0001
0000
0000
1000
0000
0000
0100
0000
0000
0010
0000
0000
0001
0000
0000
1000
0000
0000
0100
0000
0000
0010
0000
0000
0001
0000
0000
,
1000
0100
0010
0001
1000
0100
0010
0001
1000
0100
0010
0001
1000
0000
0001
0000
,
0100
0010
1000
0000
0001
0000
0000
0000
0000
0000
0010
0000
0100
1000
0100
0010
,
0001
0010
0100
1000
0001
1000
0001
0010
0100
1000
0001
1000
0001
1000
0010
0100
,
0001
0100
0010
0100
0001
0010
0100
1000
0100
0010
0001
0010
0200
0000
0000
0000
,
0300
0000
0000
0000
1000
0001
0010
0100
1000
0100
0010
0100
1000
0001
0100
0001
,
0010
0100
0010
0001
1000
0001
0010
0001
1000
0010
0100
0001
1000
0010
0100
0001
,
1000
0001
0010
0100
0010
0001
0100
0001
0010
0100
0010
0001
1000
0100
1000
0001
,
1000
0010
0100
0010
2000
0000
0000
0000
0000
0000
0000
0000
3002
0000
0000
0000
,
0003
0010
0020
0000
0030
0100
0200
0000
,
1300
0000
0100
0000
0010
0001
0010
0100
0010
0001
1000
0001
0010
0100
1000
0001
,
1000
0010
0100
0001
0100
0010
0100
0001
0010
0100
1000
0100
2000
0000
0000
0000
,
0000
0000
0000
3002
,
0000
0000
0100
0000
0103
0010
0100
0001
0010
0100
0010
0001
1000
0010
0100
0001
,
0100
0010
1000
0100
0010
0001
1000
0100
0010
0001
0010
0001
1000
0100
1000
0001
,
0010
0100
0010
0001
1000
0010
0100
0010
0100
0010
1000
0100
0010
0001
0010
0100
,
1000
0001
1000
0000
1001
0000
0100
0000
0110
0000
0010
0000
1010
0000
0001
0000
,
0101
0010
1010
1000
0101
1000
1100
0001
,
0110
0000
0101
0100
1010
0001
0101
0010
,
1100
0001
0110
0001
1001
1000
1010
0001
,
1001
0000
0001
0010
0001
0000
0010
0000
0100
0000
0010
0000
0001
0000
0010
0000
,
0100
1000
0100
0010
0100
1000
0001
1000
,
0001
0100
0010
0100
0000
0001
0100
0010
,
0000
0000
1000
0000
0100
0000
0010
0001
0010
0100
0010
0001
1000
0000
0001
0000
,
0000
0000
1000
0000
0010
0000
0100
0001
0010
0001
1000
0100
0010
0000
0100
0000
,
0000
0100
1000
0001
0010
0100
1000
0100
,
0000
0000
0010
0001
0010
0000
0100
0000
0010
0000
0001
0000
1000
0000
0001
0000
,
0100
0000
0000
0000
0001
0000
0001
0010
0100
0000
1000
0001
1000
0000
0001
0000
,
0001
0000
0010
0100
1000
0000
0001
0000
0010
0000
0001
0000
1000
0000
0001
0000
,
0010
0100
1000
0100
0010
0001
0010
0100
,
1000
0001
0100
0010
0000
0100
0001
0010
,
0000
0000
0100
0000
1000
0000
0001
0010
0001
0010
0100
1000
0001
0000
0010
0000
,
0000
0000
0100
0000
1000
0000
0001
0100
0010
1000
0001
0010
0100
0000
1000
0000
,
0000
0001
0100
0001
0010
0001
1000
0001
,
0000
1000
0100
0010
0001
0100
0010
1000
,
0000
0000
0001
0000
0010
0000
0100
1000
0100
0000
0010
0001
1000
0000
0001
0000
,
1000
0010
1010
0010
0110
0100
0101
1000
,
1010
0100
0101
0001
1010
0001
0011
1000
,
0110
0000
1010
0010
0101
1000
1010
0100
,
0011
1000
0110
1000
1001
0001
0101
1000
,
1001
0000
0000
0000
1000
0010
0100
0001
0100
0010
1000
0100
0010
0001
0010
0100
,
1000
0010
0100
0001
0100
0010
1000
0100
0010
0001
0010
0100
1000
0010
0100
0001
,
0100
0010
1000
0100
0010
0001
0010
0100
1000
0010
0100
0001
0100
0010
1000
0100
,
0010
0001
0010
0100
1000
0010
0100
0001
0100
0010
1000
0100
0010
0001
0010
0100
,
1000
0000
1000
0100
1000
0001
1000
0001
1000
0010
0100
0001
0010
0001
1000
0100
,
0010
0001
0100
0010
0100
0001
1000
0010
0100
0001
0100
0001
0010
0001
1000
0100
,
0010
0100
1000
0001
0010
0001
1000
0010
0100
0001
1000
0001
0010
0100
1000
0001
,
0010
0100
1000
0100
0010
0001
1000
0001
0100
0001
0010
0001
1000
0100
1000
0010
,
0100
0001
1000
0001
0010
0100
1000
0001
0010
0100
1000
0100
0010
0100
1000
0001
,
0010
0100
1000
0100
0010
0100
1000
0001
0010
0100
0010
0001
1000
0001
0100
0010
,
1000
0001
0100
0010
0100
0001
0010
0100
1000
0001
0100
0010
1000
0001
0010
0100
,
1000
0100
0010
0100
1000
0010
0100
0001
0010
0100
0010
0001
1000
0001
1000
0001
,
0220
0000
0000
0000
0000
0000
0000
0000
0000
0000
0000
0000
0000
0000
0000
0000
0000
0000
0000
0000
0000
0000
0000
0000
0000
0000
0000
0000
0000
0000
0000
0000
0330
0000
0000
0000
0000
0000
0000
0000
0000
0000
0000
0000
0000
0000
0000
0000
0000
0000
0000
0000
0000
0000
0000
0000
0000
0000
0000
0000
0000
0000
0000
0000
0000
0000
0000
0000
0000
0000
0000
0000
0001
0000
0000
0000
0000
0000
0000
0000
0000
0000
0000
0000
0010
0000
0000
0000
0000
0000
0000
0000
0000
0000
0000
0000
0100
0000
0000
0000
0000
0000
0000
0000
0000
0000
0000
0000
1000
0000
0000
0000
0000
0000
0000
0000
0000
0000
0000
0000
0001
0000
0000
0000
0000
0000
0000
0000
0000
0000
0000
0000
0010
0000
0000
0000
0000
0000
0000
0000
0000
0000
0000
0000
0002
0000
0000
0003
0000
0000
0000
0000
0000
0000
0000
0000
1000
0000
0000
0000
0000
0000
0000
0000
0000
0000
0000
0000
0100
0000
0000
0000
0000
0000
0000
0000
0000
0000
0000
0000
0010
0000
0000
0000
0000
0000
0000
0000
0000
0000
0000
0000
,
0100
0000
0000
0000
0010
0000
0000
0000
0001
0000
0000
0000
1000
0000
0000
0000
0020
0030
0000
0000
0100
0000
0000
0000
0001
0000
0000
0000
0010
0000
0000
0000
0001
0000
0000
0000
1000
0000
0000
0000
0010
0000
0000
0000
0100
0000
0000
0000
0002
0003
0000
0000
0100
0000
0000
0000
0010
0000
0000
0000
0100
0000
0000
0000
,
0002
0003
0000
0000
0010
0000
0000
0000
0100
0000
0000
0000
0010
0000
0000
0000
0002
0003
0000
0000
1000
0000
0000
0000
0010
0000
0000
0000
0100
0000
0000
0000
0010
0000
0000
0000
1000
0000
0000
0000
0010
0000
0000
0000
0100
0000
0000
0000
0020
0030
0000
0000
1000
0000
0000
0000
0001
0000
0000
0000
0100
0000
0000
0000
,
0010
0000
0000
0000
1000
0000
0000
0000
0100
0000
0000
0000
0010
0000
0000
0000
0002
0003
0000
0000
0100
0000
0000
0000
0010
0000
0000
0000
0100
0000
0000
0000
0001
0000
0000
0000
0010
0000
0000
0000
0100
0000
0000
0000
0010
0000
0000
0000
0200
0300
0000
0000
1000
0000
0000
0000
0001
0000
0000
0000
0100
0000
0000
0000
,
0020
0030
0000
0000
1000
0000
0000
0000
0100
0000
0000
0000
0010
0000
0000
0000
0002
0003
0000
0000
0010
0000
0000
0000
0100
0000
0000
0000
1000
0000
0000
0000
0100
0000
0000
0000
0010
0000
0000
0000
0001
0000
0000
0000
1000
0000
0000
0000
0200
0300
0000
0000
1000
0000
0000
0000
0001
0000
0000
0000
0010
0000
0000
0000
,
0100
0000
0000
0000
0010
0000
0000
0000
0100
0000
0000
0000
1000
0000
0000
0000
0002
0003
0000
0000
0100
0000
0000
0000
0010
0000
0000
0000
1000
0000
0000
0000
0100
0000
0000
0000
1000
0000
0000
0000
0001
0000
0000
0000
0100
0000
0000
0000
0020
0030
0000
0000
1000
0000
0000
0000
0010
0000
0000
0000
0100
0000
0000
0000
,
0020
0030
0000
0000
1000
0000
0000
0000
0100
0000
0000
0000
0010
0000
0000
0000
0200
0300
0000
0000
1000
0000
0000
0000
0001
0000
0000
0000
0100
0000
0000
0000
0010
0000
0000
0000
0100
0000
0000
0000
0001
0000
0000
0000
0100
0000
0000
0000
0020
0030
0000
0000
0100
0000
0000
0000
0001
0000
0000
0000
1000
0000
0000
0000
,
0010
0000
0000
0000
0100
0000
0000
0000
0001
0000
0000
0000
0010
0000
0000
0000
0200
0300
0000
0000
1000
0000
0000
0000
0010
0000
0000
0000
0100
0000
0000
0000
0010
0000
0000
0000
1000
0000
0000
0000
0100
0000
0000
0000
0010
0000
0000
0000
0002
0003
0000
0000
0010
0000
0000
0000
0001
0000
0000
0000
1000
0000
0000
0000
,
0020
0030
0000
0000
0100
0000
0000
0000
0001
0000
0000
0000
0010
0000
0000
0000
0100
0000
0000
0000
0000
0000
0000
0000
0011
0000
0000
0000
0000
0000
0000
0000
1100
0000
0000
0000
0000
0000
0000
0000
1001
0000
0000
0000
0000
0000
0000
0000
1000
0000
0000
0000
0100
0000
0000
0000
0010
0000
0000
0000
0001
0000
0000
0000
,
1000
0000
0001
0000
1100
0000
0110
0000
0011
0000
1000
0100
0010
0000
0101
0000
,
0000
0000
0101
0000
0000
0000
1010
0000
0110
0000
0101
0000
1000
0001
1000
0001
,
1000
0000
0100
0000
0110
0000
0011
0000
1001
0000
1000
0100
1000
0000
0110
0000
,
1100
0000
0011
0000
1100
0000
1010
0000
0101
0000
1010
0000
,
0001
0010
0100
1000
0010
0100
0001
0010
0100
1000
0010
0100
0001
0010
0100
0000
,
1100
0000
0110
0000
0011
0000
0101
0000
0110
0000
1010
0000
,
1000
0010
0100
0001
0010
0100
1000
0010
0100
0001
0010
0100
1000
0010
0100
0000
,
0101
0000
1100
0000
0101
0000
0011
0000
1010
0000
0011
0000
,
0001
0010
0001
0010
0001
0010
0001
0010
0001
1000
0001
1000
0001
1000
0001
0000
,
1010
0000
0101
0000
0011
0000
2000
0000
0001
0000
0010
3000
,
0001
0010
0100
0010
0001
0010
0100
0010
0001
1000
0100
1000
0001
1000
0100
1000
,
0001
0010
0100
0010
0001
1000
0001
0100
0010
0100
0001
0010
0100
1000
0100
1000
,
0010
0100
0001
0010
0100
0010
0001
0100
0010
1000
0010
0100
0010
1000
0100
0010
,
0100
1000
0100
1000
0001
0010
0100
0010
0001
1000
0001
0010
0100
1000
0100
0010
,
0002
0000
0000
0100
0023
0000
0000
1000
,
0230
0000
0000
0010
0302
0000
0000
0000
,
1003
0100
0010
0100
1000
0001
0100
0010
1000
0010
0100
0010
1000
0010
0100
0001
,
0010
0100
1000
0100
0010
0001
0100
0010
0100
0001
0010
0100
0010
0001
0010
0100
,
1000
0100
0010
0001
1000
0001
0100
0001
0010
0100
0010
0001
1000
0010
0100
0001
,
2000
3000
0000
0000
0000
0000
0000
0000
,
1001
0000
0000
0000
,
0001
0010
0100
1000
0000
0000
1000
0100
0010
0001
0000
0000
,
2002
0000
0000
0000
,
0000
0000
0000
0000
,
3003
0000
0000
0000
;
