#TITLE:BF2014;
#SUBTITLE:;
#ARTIST:DJ Sharpnel;
#TITLETRANSLIT:;
#SUBTITLETRANSLIT:;
#ARTISTTRANSLIT:;
#CREDIT:;
#BANNER:bf2014 bn.png;
#BACKGROUND:bf2014 bg.png;
#LYRICSPATH:;
#CDTITLE:;
#MUSIC:BF2014.ogg;
#OFFSET:-0.078;
#SAMPLESTART:21.186;
#SAMPLELENGTH:19.858;
#SELECTABLE:YES;
#DISPLAYBPM:193.000;
#BPMS:0.000=193.370,164.000=96.685,172.000=193.370;
#STOPS:;
#BGCHANGES:;
// cache tags:
#FIRSTBEAT:0.000;
#LASTBEAT:379.750;
#SONGFILENAME:Songs/SHARPNELSTREAMZ v2/bf2014/bf2014.sm;
#HASMUSIC:1;
#HASBANNER:1;
#MUSICLENGTH:120.633;
// end cache tags

//---------------dance-single - 14+ (ZaiYLR)----------------
#NOTES:
     dance-single:
     14+ (ZaiYLR):
     Challenge:
     14:
     1.000,1.000,0.539,0.473,1.000,1091.000,65.000,57.000,6.000,1.000:
1000
0000
0000
0000
1000
0000
0000
0000
1000
0000
0000
0000
1000
0001
1000
0100
,
0020
0000
0031
0000
0100
0000
0001
1000
0100
1000
0001
0000
0010
0000
0001
0000
,
0100
0010
1000
0000
0100
0010
0001
0000
0100
0010
1000
0000
0001
0000
1000
0000
,
0200
0000
1300
0000
0010
0000
0100
0001
1000
0001
0100
0000
0010
0000
0000
0000
,
2002
0000
0000
0000
0000
0000
0000
0000
0000
0000
0000
0000
0000
0000
0000
3003
0010
0000
0000
0000
0000
0000
0000
0000
0100
0000
0000
0000
0000
0000
0000
0000
2002
0000
0000
0000
0000
0000
0000
0000
0000
0000
0000
0000
0000
0000
0000
3003
0220
0000
0000
0000
0000
0000
0000
0000
0000
0000
0000
0000
0000
0000
0000
0330
,
1001
0000
1000
0000
0100
0000
1000
0001
0010
0001
1000
0000
0010
0000
1000
0000
,
0100
0010
0001
0000
0100
0010
1000
0000
0100
0010
0001
0000
1000
0000
0001
0000
,
0020
0000
0130
0000
1000
0000
0001
0100
0010
0100
0001
0000
1000
0000
0000
0000
,
0220
0000
0000
0000
0000
0000
0000
0000
0000
0000
0000
0000
0000
0000
0000
0330
0001
0000
0000
0000
0000
0000
0000
0000
1000
0000
0000
0000
0000
0000
0000
0000
0220
0000
0000
0000
0000
0000
0000
0000
0000
0000
0000
0000
0000
0000
0000
0330
2002
0000
0000
0000
0000
0000
0000
0000
0000
0000
0000
0000
0000
0000
0000
3003
,
1100
0000
0001
0000
1100
0000
0010
0000
1000
0001
1000
0001
0010
0000
0100
0000
,
1010
0001
1010
0100
1000
0001
1001
0000
,
0002
0000
0000
0000
0000
0000
0000
0000
1003
0000
0000
0000
0000
0000
0000
0000
0010
0000
0000
0000
M00M
0000
0000
0000
0020
0030
0000
0000
0000
0000
0000
0000
0001
0000
0000
0000
0000
0000
0000
0000
0100
0000
0000
0000
0000
0000
0000
0000
0020
0000
0000
0000
0000
0000
0000
0000
0000
0000
0000
0000
0000
0000
0000
0000
,
1030
0000
0000
0000
0000
0000
0000
0000
0100
0000
0000
0000
M00M
0000
0000
0000
0200
0300
0000
0000
0000
0000
0000
0000
0001
0000
0000
0000
0000
0000
0000
0000
0010
0000
0000
0000
0000
0000
0000
0000
0200
0300
0000
0000
0000
0000
0000
0000
2000
0000
0000
0000
0000
0000
0000
0000
0000
0000
0000
0000
0000
0000
0000
0000
,
3011
0000
0000
0000
0100
0000
0000
0000
0011
0000
0000
0000
1000
0000
0000
0000
0011
0000
0000
0000
0100
0000
0000
0000
0002
0003
0000
0000
1000
0000
0000
0000
,
0101
0010
0101
1000
0101
0010
0101
1000
,
1001
0000
0001
0000
0200
0000
0000
0000
0301
0000
1000
0000
0001
0010
0100
1000
,
0001
0020
0032
0203
0320
2030
3200
0320
,
0031
1000
0001
1000
0010
0100
0010
1000
0001
0010
0001
1000
0100
1000
0001
1000
,
0010
0100
0001
0100
0010
1000
0001
0010
0001
1000
0100
1000
0010
0100
0001
1000
,
0100
0010
0001
1000
0001
1000
0010
1000
0001
0010
0001
1000
0100
1000
0001
0100
,
0010
1000
0100
1000
0001
0010
0100
1000
0010
0100
0001
0010
0100
1000
0001
1000
,
0001
0100
0010
1000
0001
1000
0100
1000
0001
0010
0001
1000
0010
0100
0001
1000
,
0100
0010
0001
0010
0100
1000
0001
0100
0001
1000
0010
1000
0100
0010
0001
1000
,
0010
0100
0001
1000
0001
1000
0100
1000
0001
0100
0001
1000
0010
1000
0001
0010
,
0100
1000
0010
1000
0001
0100
0010
1000
0100
0010
0001
0100
0010
1000
0010
1000
,
0100
0010
0001
0010
0100
1000
0001
1000
0010
0100
0001
0100
0010
1000
0001
1000
,
0100
0010
0001
1000
0001
1000
0010
0100
0001
1000
0100
0010
0100
1000
0100
1000
,
0010
0100
0010
1000
0001
0010
0001
1000
0010
0100
0010
1000
0001
1000
0100
0010
,
0001
1000
0001
1000
0010
0100
0010
1000
0100
0010
0001
1000
0001
0010
0100
1000
,
0010
0100
0010
1000
0100
0010
0100
1000
0001
0100
0001
1000
0100
0010
0001
1000
,
0001
0100
0010
1000
0010
0100
0001
1000
0001
0010
0100
1000
0001
1000
0001
0100
,
0010
1000
0010
1000
0100
0010
0100
0010
0001
1000
0001
1000
0001
0100
0010
1000
,
0001
1000
0010
0100
0001
1000
0001
1000
0100
0010
0001
0100
0010
1000
0010
1000
,
0001
0000
1000
0100
0010
0000
0100
1000
0001
0000
0100
0001
0100
0000
0010
1000
,
0001
0000
1000
0001
1000
0000
0100
1000
0010
0000
0100
0001
0100
0000
0001
0010
,
0100
0000
1000
0001
0010
0000
0001
1000
0010
0000
0100
0001
1000
0000
0001
1000
,
0100
0000
0010
0001
0010
0000
0100
1000
0001
1000
0100
0010
0001
0000
1000
0001
,
0100
0000
0010
1000
0001
0000
1000
0010
0100
0000
0001
1000
0010
0000
1000
0001
,
0010
0000
0100
1000
0100
0000
0010
0001
1000
0000
0001
0100
0010
1000
0010
1000
,
0100
0000
1000
0001
0100
0000
0010
1000
0001
0000
1000
0010
0100
0000
0001
1000
,
0200
0000
0000
0000
0000
0000
0000
0000
0000
0000
0000
0000
0300
0000
0000
0000
0000
0000
0000
0000
0000
0000
0000
0000
0020
0000
0000
0000
0000
0000
0000
0000
0000
0000
0000
0000
0000
0000
0000
0000
0000
0000
0030
0000
0000
0000
0000
0000
0002
0000
0000
0000
0000
0000
0000
0000
0000
0000
0000
0000
0000
0000
0000
0000
0000
0000
0000
0000
0000
0000
0000
0000
0023
0000
0000
0000
0000
0000
0000
0000
0000
0000
0000
0000
0000
0000
0000
0000
0000
0000
0000
0000
0000
0000
0000
0000
0200
0000
0000
0000
0000
0000
0030
0000
0000
0000
0000
0000
0000
0000
0000
0000
0000
0000
0000
0000
0000
0000
0000
0000
2000
0000
0000
0000
0000
0000
0000
0000
0000
0000
0000
0000
0300
0000
0000
0000
0000
0000
0000
0000
0000
0000
0000
0000
0002
0000
0000
0000
0000
0000
0000
0000
0000
0000
0000
0000
3000
0000
0000
0000
0000
0000
0000
0000
0000
0000
0000
0000
0200
0000
0000
0000
0000
0000
0000
0000
0000
0000
0000
0000
0000
0000
0000
0000
0003
0000
0000
0000
0000
0000
0000
0000
,
M320
0000
0000
2030
3002
0023
0230
0320
0032
0203
0302
0000
2003
3020
2030
3200
,
0320
0000
0000
0000
0030
0000
0000
0010
0002
0203
0302
0203
0000
0320
1030
0000
,
1M01
1100
0011
0101
,
0110
1010
1001
1100
,
1010
0101
1100
0110
,
1001
0110
0101
0001
,
0001
1000
0001
1000
0010
0100
0010
1000
0001
0010
0001
1000
0100
1000
0001
1000
,
0010
0100
0001
0100
0010
1000
0001
0010
0001
1000
0100
1000
0010
0100
0001
1000
,
0100
0010
0001
1000
0001
1000
0010
1000
0001
0010
0001
1000
0100
1000
0001
0100
,
0010
1000
0100
1000
0001
0010
0100
1000
0010
0100
0001
0010
0100
1000
0001
1000
,
0001
0100
0010
1000
0001
1000
0100
1000
0001
0010
0001
1000
0010
0100
0001
1000
,
0100
0010
0001
0010
0100
1000
0001
0100
0001
1000
0010
1000
0100
0010
0001
1000
,
0010
0100
0001
1000
0001
1000
0100
1000
0001
0100
0001
1000
0010
1000
0001
0010
,
0100
1000
0010
1000
0001
0100
0010
1000
0100
0010
0001
0100
0010
1000
0010
1000
,
0001
1000
0001
1000
0100
0010
0100
1000
0001
0100
0001
1000
0010
1000
0001
1000
,
0100
0010
0001
0010
0100
1000
0001
0100
0001
1000
0010
1000
0100
0010
0001
1000
,
0010
0100
0001
1000
0001
1000
0100
1000
0001
0100
0001
1000
0010
1000
0001
0010
,
0100
1000
0010
1000
0001
0100
0010
1000
0100
0010
0001
0100
0010
1000
0001
1000
,
0001
0010
0100
1000
0001
1000
0010
1000
0001
0100
0001
1000
0100
0010
0001
1000
,
0010
0100
0001
0100
0010
1000
0001
0010
0001
1000
0100
1000
0010
0100
0001
1000
,
0100
0010
0001
1000
0001
1000
0010
1000
0001
0010
0001
1000
0100
1000
0001
0100
,
0010
1000
0100
1000
0001
0010
0100
1000
0010
0100
0001
0010
0100
1000
0001
1000
,
0001
0000
0010
0000
0100
0000
1000
0000
0001
0000
1000
0010
1000
0000
0001
0010
,
0001
0000
1000
0000
0100
0000
1000
0000
0001
0000
1000
0100
1000
0000
0001
0100
,
0001
0000
0010
0000
0001
0000
0100
0000
0010
0000
1000
0001
0010
0000
0001
1000
,
0010
0000
0100
0000
0001
0000
1000
0000
0100
0000
0010
0001
0100
0000
0010
1000
,
0001
0000
1000
0000
0010
0000
0100
0000
0001
0000
0010
0100
1000
0000
0010
0100
,
0001
0000
1000
0000
0100
0000
0010
0000
0001
0000
0010
0100
1000
0000
0001
0100
,
0010
0000
1000
0000
0100
0000
0010
0000
0100
0000
1000
0001
0010
0000
0001
1000
,
0010
0000
0100
0000
0001
0000
1000
0000
0100
0000
0010
0001
0100
0000
0001
0000
,
1000
0100
0010
0001
1000
0010
0100
0001
1000
0100
1000
0010
0100
0001
0010
0001
,
1000
0010
0100
0001
1000
0100
0010
0001
1000
0010
1000
0100
0010
0001
0100
0001
,
1000
0100
0010
0001
1000
0010
0100
0001
0010
0100
0010
0100
1000
0001
0100
0010
,
1000
0001
1000
0001
0010
0100
1000
0001
0010
0001
1000
0001
1000
0010
0100
0001
,
1000
0100
0010
0001
1000
0010
0100
0001
1000
0100
1000
0010
0100
0001
0010
0001
,
1000
0010
0100
0001
1000
0100
0010
0001
1000
0010
1000
0100
0010
0001
0100
0001
,
1000
0100
0010
0001
1000
0010
0100
0001
0010
0100
0010
0100
1000
0001
0100
0010
,
1000
0001
1000
0001
0010
0100
1000
0001
0010
0001
1000
0001
1000
0010
0100
0001
,
1000
0100
1000
0010
1000
0001
1000
0100
,
1000
0001
1000
0010
1000
0100
1000
0010
,
1000
0001
1000
0100
1000
0001
1000
0010
,
1000
0100
1000
0010
1000
0001
1000
0100
,
1000
0001
1000
0010
1000
0100
1000
0010
,
1000
0001
1000
0100
1000
0001
1000
0010
,
1000
0100
1000
0010
1000
0001
1000
0100
,
1000
0001
1000
0010
1000
0100
1000
0010
,
1000
0110
0000
0101
0000
0011
0000
1100
,
0000
1010
0000
0110
0000
1001
0000
0011
,
0000
0101
0000
1010
0000
1100
0000
1001
,
0000
0110
0000
0101
0000
1010
0000
0011
,
0000
1001
0000
1100
0000
0101
0000
1010
,
0000
0011
0000
0110
0000
1100
0000
0011
,
0000
0101
0000
0110
0000
1001
0000
1010
,
0000
0000
0011
0000
0000
0000
1001
0000
0000
0000
1000
0000
0001
0010
0100
1000
;

//---------------dance-single - 14- (ZaiYLR)----------------
#NOTES:
     dance-single:
     14- (ZaiYLR):
     Hard:
     14:
     1.000,1.000,0.812,0.729,1.000,965.000,98.000,88.000,5.000,0.000:
1000
0000
0000
0000
1000
0000
0000
0000
1000
0000
0000
0000
1000
0001
1000
0100
,
0020
0000
0031
0000
0100
0000
0001
1000
0100
1000
0001
0000
0010
0000
0001
0000
,
0100
0010
1000
0000
0100
0010
0001
0000
0100
0010
1000
0000
0001
0000
1000
0000
,
0200
0000
1300
0000
0010
0000
0100
0001
1000
0001
0100
0000
0010
0000
0000
0000
,
2002
0000
0000
0000
0000
0000
0000
0000
0000
0000
0000
0000
0000
0000
0000
3003
0010
0000
0000
0000
0000
0000
0000
0000
0100
0000
0000
0000
0000
0000
0000
0000
2002
0000
0000
0000
0000
0000
0000
0000
0000
0000
0000
0000
0000
0000
0000
3003
0220
0000
0000
0000
0000
0000
0000
0000
0000
0000
0000
0000
0000
0000
0000
0330
,
1001
0000
1000
0000
0100
0000
1000
0001
0010
0001
1000
0000
0010
0000
1000
0000
,
0100
0010
0001
0000
0100
0010
1000
0000
0100
0010
0001
0000
1000
0000
0001
0000
,
0020
0000
0130
0000
1000
0000
0001
0100
0010
0100
0001
0000
1000
0000
0000
0000
,
0220
0000
0000
0000
0000
0000
0000
0000
0000
0000
0000
0000
0000
0000
0000
0330
0001
0000
0000
0000
0000
0000
0000
0000
1000
0000
0000
0000
0000
0000
0000
0000
0220
0000
0000
0000
0000
0000
0000
0000
0000
0000
0000
0000
0000
0000
0000
0330
2002
0000
0000
0000
0000
0000
0000
0000
0000
0000
0000
0000
0000
0000
0000
3003
,
1100
0000
0001
0000
1100
0000
0010
0000
1000
0001
1000
0001
0010
0000
0100
0000
,
1010
0001
1010
0100
1000
0001
1001
0000
,
0002
0000
0000
0000
0000
0000
0000
0000
1003
0000
0000
0000
0000
0000
0000
0000
0010
0000
0000
0000
M00M
0000
0000
0000
0020
0030
0000
0000
0000
0000
0000
0000
0001
0000
0000
0000
0000
0000
0000
0000
0100
0000
0000
0000
0000
0000
0000
0000
0020
0000
0000
0000
0000
0000
0000
0000
0000
0000
0000
0000
0000
0000
0000
0000
,
1030
0000
0000
0000
0000
0000
0000
0000
0100
0000
0000
0000
M00M
0000
0000
0000
0200
0300
0000
0000
0000
0000
0000
0000
0001
0000
0000
0000
0000
0000
0000
0000
0010
0000
0000
0000
0000
0000
0000
0000
0200
0300
0000
0000
0000
0000
0000
0000
4000
0000
0000
0000
0000
0000
0000
0000
0000
0000
0000
0000
0000
0000
3000
0000
,
0011
0000
0000
0000
1000
0000
0000
0000
0011
0000
0000
0000
0100
0000
0000
0000
0011
0000
0000
0000
1000
0000
0000
0000
0200
0300
0000
0000
1000
0000
0000
0000
,
0101
1000
0101
0010
0101
1000
0101
0010
,
1001
0000
1000
0000
0020
0000
0000
0000
2030
0000
0000
0000
3001
0010
0100
1000
,
0002
0023
0032
0203
0320
2030
3200
0320
,
0031
1000
0001
1000
0010
0100
0010
1000
0001
0010
0001
1000
0100
1000
0001
1000
,
0010
0100
0001
0100
0010
1000
0001
0010
0001
1000
0100
1000
0010
0100
0001
1000
,
0100
0010
0001
1000
0001
1000
0010
1000
0001
0010
0001
1000
0100
1000
0001
0100
,
0010
1000
0100
1000
0001
0010
0100
1000
0010
0100
0001
0010
0100
1000
0001
1000
,
0001
0100
0010
1000
0001
1000
0100
1000
0001
0010
0001
1000
0010
0100
0001
1000
,
0100
0010
0001
0010
0100
1000
0001
0100
0001
1000
0010
1000
0100
0010
0001
1000
,
0010
0100
0001
1000
0001
1000
0100
1000
0001
0100
0001
1000
0010
1000
0001
0010
,
0100
1000
0010
1000
0001
0100
0010
1000
0100
0010
0001
0100
0010
1000
0001
1000
,
0001
0002
0010
0023
0100
0130
1000
0001
,
0010
0000
0001
0000
0100
0000
0010
0000
0100
0001
0000
1000
0000
0100
0000
0000
,
0110
0000
0020
0000
0001
0000
0032
0000
1000
0000
1003
0001
0100
0000
0010
0000
,
1000
0000
0001
1000
0001
0000
0010
0000
0100
1000
0000
0001
0000
0000
1000
0000
,
0001
0000
0002
0000
0100
0000
0203
0000
0010
0000
0310
1000
0001
0000
0010
0000
,
0100
0000
0010
0000
0010
0000
0001
0000
1000
0001
0000
0100
0000
0000
0010
0000
,
2000
0000
0000
0000
0000
0000
0000
3000
2000
0000
0000
0000
0000
0000
0000
0000
3002
0000
0000
0000
0000
0000
0000
0003
0002
0000
0000
0000
0000
0000
0000
0000
0023
0000
0000
0000
0000
0000
0000
0000
0000
0000
0000
0000
0031
0000
0000
0000
1000
0000
0000
0000
0000
0000
0000
0000
0010
0000
0000
0000
0000
0000
0000
0000
,
0100
0000
0000
0000
0001
0000
1000
0100
0010
0000
0001
0100
0010
1000
0010
1000
,
0001
0000
1000
0100
0010
0000
0100
1000
0001
0000
0100
0001
0100
0000
0010
1000
,
0001
0000
1000
0001
1000
0000
0100
1000
0010
0000
0100
0001
0100
0000
0001
0010
,
0100
0000
1000
0001
0010
0000
0001
1000
0010
0000
0100
0001
1000
0000
0001
1000
,
0100
0000
0010
0001
0010
0000
0100
1000
0001
1000
0100
0010
0001
0000
1000
0001
,
0100
0000
0010
1000
0001
0000
1000
0010
0100
0000
0001
1000
0010
0000
1000
0001
,
0010
0000
0100
1000
0100
0000
0010
0001
1000
0000
0001
0100
0010
1000
0010
1000
,
0100
0000
1000
0001
0100
0000
0010
1000
0001
0000
1000
0010
0100
0000
0001
1000
,
0200
0000
0000
0000
0000
0000
0000
0000
0000
0000
0000
0000
0300
0000
0000
0000
0000
0000
0000
0000
0000
0000
0000
0000
0020
0000
0000
0000
0000
0000
0000
0000
0000
0000
0000
0000
0000
0000
0000
0000
0000
0000
0030
0000
0000
0000
0000
0000
0002
0000
0000
0000
0000
0000
0000
0000
0000
0000
0000
0000
0000
0000
0000
0000
0000
0000
0000
0000
0000
0000
0000
0000
0023
0000
0000
0000
0000
0000
0000
0000
0000
0000
0000
0000
0000
0000
0000
0000
0000
0000
0000
0000
0000
0000
0000
0000
0200
0000
0000
0000
0000
0000
0030
0000
0000
0000
0000
0000
0000
0000
0000
0000
0000
0000
0000
0000
0000
0000
0000
0000
2000
0000
0000
0000
0000
0000
0000
0000
0000
0000
0000
0000
0300
0000
0000
0000
0000
0000
0000
0000
0000
0000
0000
0000
0002
0000
0000
0000
0000
0000
0000
0000
0000
0000
0000
0000
3000
0000
0000
0000
0000
0000
0000
0000
0000
0000
0000
0000
0200
0000
0000
0000
0000
0000
0000
0000
0000
0000
0000
0000
0000
0000
0000
0000
0003
0000
0000
0000
0000
0000
0000
0000
,
M320
0000
0000
2030
3002
0023
0230
0320
0032
0203
0302
0000
2003
3020
2030
3200
,
0320
0000
0000
0000
0030
0000
0000
0010
0002
0203
0302
0203
0000
0320
1030
0000
,
1001
1100
0011
0101
,
0110
1010
1001
1100
,
1010
0101
1100
0110
,
1001
0110
0101
0001
,
1002
0000
0000
0000
0000
0000
0000
0000
1000
0000
0000
0000
0000
0000
0000
0003
1001
0000
0000
0000
0000
0000
0000
0000
0001
0000
0000
0000
0000
0000
0000
0000
0012
0000
0000
0000
0000
0000
0000
0000
0013
0000
0000
0000
0000
0000
0000
0000
0120
0000
0000
0000
0000
0000
0000
0000
0130
0000
0000
0000
0000
0000
0000
0000
,
1200
1300
2001
3001
1002
1003
2010
3010
,
0120
0130
0101
0001
1001
1000
1100
0100
,
0021
0000
0000
0000
0000
0000
0000
0000
0031
0000
0000
0000
0000
0000
0000
0000
0012
0000
0000
0000
0000
0000
0000
0000
0013
0000
0000
0000
0000
0000
0000
0000
0110
0000
0000
0000
0000
0000
0000
0000
0200
0000
0000
0000
0000
0000
0000
0300
1100
0000
0000
0000
0000
0000
0000
0000
1000
0000
0000
0000
0000
0000
0000
0000
,
2001
0000
0000
0000
0000
0000
0000
0000
0001
0000
0000
0000
0000
0000
0000
3000
1001
0000
0000
0000
0000
0000
0000
0000
1000
0000
0000
0000
0000
0000
0000
0000
2100
0000
0000
0000
0000
0000
0000
0000
3100
0000
0000
0000
0000
0000
0000
0000
0210
0000
0000
0000
0000
0000
0000
0000
0310
0000
0000
0000
0000
0000
0000
0000
,
0021
0031
1002
1003
2001
3001
0102
0103
,
0210
0310
1010
1000
1010
0010
0110
0100
,
0101
0000
0001
0100
0000
0100
0010
0000
1000
0000
1000
0000
0001
0000
0010
0000
,
0001
1000
0001
1000
0100
0010
0100
1000
0001
0100
0001
1000
0010
1000
0001
1000
,
0100
0010
0001
0010
0100
1000
0001
0100
0001
1000
0010
1000
0100
0010
0001
1000
,
0010
0100
0001
1000
0001
1000
0100
1000
0001
0100
0001
1000
0010
1000
0001
0010
,
0100
1000
0010
1000
0001
0100
0010
1000
0100
0010
0001
0100
0010
1000
0001
1000
,
0001
0010
0100
1000
0001
1000
0010
1000
0001
0100
0001
1000
0100
0010
0001
1000
,
0010
0100
0001
0100
0010
1000
0001
0010
0001
1000
0100
1000
0010
0100
0001
1000
,
0100
0010
0001
1000
0001
1000
0010
1000
0001
0010
0001
1000
0100
1000
0001
0100
,
0010
1000
0100
1000
0001
0010
0100
1000
0010
0100
0001
0010
0100
1000
0001
1000
,
0001
0000
0010
0000
0100
0000
1000
0000
0001
0000
1000
0010
1000
0000
0001
0010
,
0001
0000
1000
0000
0100
0000
1000
0000
0001
0000
1000
0100
1000
0000
0001
0100
,
0001
0000
0010
0000
0001
0000
0100
0000
0010
0000
1000
0001
0010
0000
0001
1000
,
0010
0000
0100
0000
0001
0000
1000
0000
0100
0000
0010
0001
0100
0000
0010
1000
,
0001
0000
1000
0000
0010
0000
0100
0000
0001
0000
0010
0100
1000
0000
0010
0100
,
0001
0000
1000
0000
0100
0000
0010
0000
0001
0000
0010
0100
1000
0000
0001
0100
,
0010
1000
0010
0100
0101
0001
1000
0100
,
1100
1000
0001
0010
0011
0001
1000
0010
,
1000
0100
0010
0001
1000
0010
0100
0001
1000
0100
1000
0010
0100
0001
0010
0001
,
1000
0010
0100
0001
1000
0100
0010
0001
1000
0010
1000
0100
0010
0001
0100
0001
,
1000
0100
0010
0001
1000
0010
0100
0001
0010
0100
0010
0100
1000
0001
0100
0010
,
1000
0001
1000
0001
0010
0100
1000
0001
0010
0001
1000
0001
1000
0010
0100
0001
,
1000
0100
0010
0001
1000
0010
0100
0001
1000
0100
1000
0010
0100
0001
0010
0001
,
1000
0010
0100
0001
1000
0100
0010
0001
1000
0010
1000
0100
0010
0001
0100
0001
,
1000
0100
0010
0001
1000
0010
0100
0001
0010
0100
0010
0100
1000
0001
0100
0010
,
1000
0001
1000
0001
0010
0100
1000
0001
0010
0001
1000
0001
1000
0010
0100
0001
,
1000
0100
1000
0010
1000
0001
1000
0100
,
1000
0001
1000
0010
1000
0100
1000
0010
,
1000
0001
1000
0100
1000
0001
1000
0010
,
1000
0100
1000
0010
1000
0001
1000
0100
,
1000
0001
1000
0010
1000
0100
1000
0010
,
1000
0001
1000
0100
1000
0001
1000
0010
,
1000
0100
1000
0010
1000
0001
1000
0100
,
1000
0001
1000
0010
1000
0100
1000
0010
,
1000
0110
0000
0101
0000
0011
0000
1100
,
0000
1010
0000
0110
0000
1001
0000
0011
,
0000
0101
0000
1010
0000
1100
0000
1001
,
0000
0110
0000
0101
0000
1010
0000
0011
,
0000
1001
0000
1100
0000
0101
0000
1010
,
0000
0011
0000
0110
0000
1100
0000
0011
,
0000
0101
0000
0110
0000
1001
0000
1010
,
0000
0000
0011
0000
0000
0000
1001
0000
0000
0000
1000
0000
0001
0010
0100
1000
;
