#TITLE:tripping contact;
#SUBTITLE:;
#ARTIST:kors k vs teranoid;
#TITLETRANSLIT:;
#SUBTITLETRANSLIT:;
#ARTISTTRANSLIT:;
#CREDIT:Darkmage;
#BANNER:trippingcontact-bn.png;
#BACKGROUND:trippingcontact-bg.png;
#LYRICSPATH:;
#CDTITLE:!darkmagetitle2.png;
#MUSIC:trippingcontact.ogg;
#OFFSET:0.876;
#SAMPLESTART:62.015;
#SAMPLELENGTH:22.465;
#SELECTABLE:YES;
#BPMS:0.000=182.000;
#STOPS:;
#BGCHANGES:0.000=trippingcontact-bg.png=1.000=0=0=1,
99999=-nosongbg-=1.000=0=0=0 // don't automatically add -songbackground-
;
// cache tags:
#FIRSTBEAT:4.000;
#LASTBEAT:380.000;
#SONGFILENAME:Songs/Archmage and Dark0wl Hammer of Thor UltraHyperMegaPack/tripping contact/trippingcontact.sm;
#HASMUSIC:1;
#HASBANNER:1;
#MUSICLENGTH:105.000;
// end cache tags

//---------------dance-single - Darkmage----------------
#NOTES:
     dance-single:
     Darkmage:
     Hard:
     11:
     1.000,1.000,1.000,0.000,1.000,784.000,146.000,0.000,0.000,0.000:
0000
0000
0000
0000
,
1001
0000
0000
0000
,
0000
0000
0000
0000
0000
0000
0000
1001
,
1001
1001
0000
0000
,
1001
0000
0000
0000
0000
0000
0000
0000
0000
0000
0000
0000
0000
0000
0000
0000
0000
0000
0100
0010
0000
0100
0010
0000
,
1001
0101
0110
1010
,
1001
0000
1100
0000
0110
0000
0011
1000
,
1100
0000
1000
0100
1000
0000
0001
0010
0001
0000
1000
0010
1000
0000
0001
0100
,
1001
0000
0010
0000
1000
0001
0000
0100
,
1001
0001
0000
0101
0000
0101
0001
1000
,
1010
0100
0000
0110
0000
0110
0010
1000
,
1100
0100
0000
1100
0000
1100
1000
0010
,
0110
0100
0000
0101
0000
0101
0001
0010
,
0110
0100
0000
0110
0000
1100
0100
1000
,
0110
0100
0000
0101
0000
0011
0010
0100
,
1100
1100
1100
1100
0011
0011
0011
0011
,
1000
0100
0000
1000
0010
0000
0100
0010
0000
1000
0001
0000
0100
0010
0000
1000
0000
0000
0100
0000
0000
0010
0000
0000
,
0001
0010
0100
1000
0100
0010
0001
0010
,
0100
1000
0100
0010
0001
0010
0100
1000
,
0010
0100
0001
0100
0010
1000
0010
0100
,
0001
0100
0010
1000
0010
0100
0001
0100
,
0010
1000
0001
0010
0001
1000
0010
1000
,
0001
0010
0001
1000
0010
1000
0001
0010
,
0001
0100
0001
1000
0100
1000
0001
0100
,
1001
0000
0000
1001
0000
0000
1001
0000
0000
1001
0000
0000
1010
0000
0100
0001
,
0100
0000
0001
0000
0010
0000
0000
0100
1000
0100
1000
0000
0000
0001
0010
0001
,
0010
0000
0100
0000
0010
0000
0100
1000
0100
0000
1000
0000
0010
0000
0000
0000
,
0100
0000
0100
0000
0010
0000
0100
0000
0000
0010
1000
0010
1000
0000
0000
1000
,
0001
1000
0001
0000
1000
0000
0001
0100
0001
0000
1000
0000
0010
0000
0000
0000
,
0100
0000
0010
0000
1000
0000
0100
0010
0001
0000
1000
0000
0000
0010
0100
0010
,
1000
0000
1000
0000
0001
0000
1000
0100
1000
0000
0001
0000
0100
0000
0010
1000
,
0010
0100
0010
0100
0010
0100
0010
0100
0010
0100
0010
0100
0010
0100
0010
0100
,
0001
1000
0001
1000
0001
1000
0001
1000
0001
1000
0001
1000
0001
1000
0001
1000
,
0001
0000
0000
0100
0000
0000
0000
0010
0000
1000
0000
0000
0010
0000
0000
0001
,
0000
0010
0000
0000
0100
0000
0000
0001
0000
0010
0000
0000
0100
0000
0000
0001
,
0000
0100
0000
0000
0010
0000
0000
0001
0000
1000
0000
0000
0010
0000
0000
0001
,
0000
1000
0000
0000
0100
0000
0000
0010
0000
1000
0000
0000
0001
0000
0000
0010
,
0000
1000
0000
0000
0001
0000
0000
0100
0000
0010
0000
0000
0001
0000
0000
1000
,
0000
0010
0000
0000
0100
0000
0000
1000
0000
0100
0000
0000
0010
0000
0000
1000
,
0000
0001
0000
0000
0010
0000
0000
0100
0000
0001
0000
0000
0100
0000
0000
0010
,
0000
0001
0000
0000
1000
0000
0000
0010
0000
0100
0000
0000
0001
0000
0000
0010
,
0100
0000
0000
1000
0000
0000
0000
1000
0000
0010
0000
0000
1000
0000
0000
0001
,
0010
0000
0000
0001
0000
0000
0000
0010
0000
0001
0000
0000
0010
0000
0000
0001
,
0100
0000
0000
0010
0000
0000
0000
0100
0000
0010
0000
0000
0100
0000
0000
0010
,
1000
0000
0000
0010
0000
0000
0000
1000
0010
0100
0000
0000
0100
0000
0000
0010
,
0100
0000
0010
0000
0100
0000
0010
0000
1000
0000
0001
0000
1000
0000
0001
0100
,
0001
0000
1000
0100
1000
0000
0001
0010
0001
0000
1000
0010
1000
0000
0001
0010
,
1100
1100
0110
0110
0011
0011
0101
0101
,
1001
0000
0010
0000
1000
0001
0000
0000
,
1000
0100
1000
0000
0001
0000
1000
0100
1000
0100
1000
0000
0001
0000
1000
0010
,
1000
0010
1000
0000
0010
0000
0100
0010
0100
0010
0100
0000
0001
0000
0010
0100
,
0010
0001
0010
0000
0100
0000
0010
0001
0010
0001
0010
0000
0100
0000
0010
0001
,
0010
0100
0010
0000
0001
0000
0010
0100
0010
0100
0010
0000
0001
0000
0010
0100
,
1000
0100
0010
0000
0001
0000
0010
0100
1000
0100
0010
0000
0001
0000
0010
0100
,
1000
0001
0100
0000
0010
0000
0100
0001
1000
0100
1000
0000
0010
0000
0100
0001
,
0010
0100
0010
0000
0001
0000
0100
0010
1000
0001
0010
0000
0100
0000
1000
0001
,
0100
0010
1000
0000
0010
0000
0100
0001
0010
0001
1000
0000
0100
0000
1000
0010
,
0110
0100
0101
0001
0011
0010
0110
0100
,
1100
1000
1010
0010
0110
0100
0101
0001
,
0011
0010
0110
0100
0110
0010
0011
0001
,
1001
1000
1010
0010
0110
0100
0110
0010
,
1010
0100
0010
0001
0010
0100
1000
0100
,
0010
0001
0010
0100
1100
0110
0010
0011
,
1001
1000
0001
1000
0001
1000
0001
1000
0001
1000
0001
1000
0001
1000
0001
1000
,
0001
0010
0000
0001
0100
0000
0010
1000
0000
0100
1000
0000
0001
0010
0000
0100
1000
0000
0010
0100
0000
0001
1000
0000
,
1001
0000
0000
0000
0000
0000
0000
0000
0000
0000
0000
0000
0000
0000
1000
0001
,
0000
0000
0000
0000
0000
0000
0000
0000
0000
0000
0000
1000
0001
0000
0000
0000
,
0000
0000
1000
0001
0000
0000
0000
0000
0001
0000
0101
0000
0000
0000
0110
0000
,
0000
1010
0000
1100
0000
0110
0000
0011
,
1001
0000
1000
0010
1000
0000
0010
0100
0010
0000
1000
0010
1000
0000
0010
0100
,
0001
0000
0010
0100
0010
0000
0001
0010
1100
0000
1000
0000
1010
0000
0010
0000
,
0101
0000
0010
0100
0001
0000
0100
0010
0100
0000
0001
0010
0100
0000
1000
0100
,
1000
0000
0010
0100
0001
0000
0100
0010
1010
0000
0010
0000
0110
0000
0100
0000
,
0011
0000
0100
1000
0100
0000
0010
0001
0010
0000
0100
1000
0010
0000
0100
0001
,
0010
0100
1000
0010
0100
0001
0101
0000
0010
0110
0100
0001
,
1001
0000
0100
0010
0100
0000
0010
0100
0010
0000
0100
0001
0010
0000
0100
1000
,
0010
0000
0000
0000
0000
0000
0100
0000
0000
0001
0000
0000
0010
0000
0000
0000
0000
0000
0100
0000
0000
1000
0000
0000
0001
0000
0000
0000
0010
0000
0000
0000
0001
0000
0000
0000
1000
0000
0000
0000
0001
0000
0000
0000
0010
0000
0000
0000
,
1001
0000
0010
1000
0010
0000
0100
0010
0100
0000
0001
0010
0001
0000
0010
0100
,
0010
0000
1000
0100
1000
0000
0001
0010
0011
0000
0100
0000
1010
0000
0001
0000
,
0110
0000
1000
0100
0010
0000
0100
0010
0001
0000
0010
0100
1000
0000
0001
0010
,
0100
0000
1000
0100
0010
0000
0100
0010
0011
0000
1000
0000
0110
0000
0001
0000
,
1010
0000
0100
0001
0010
0000
0100
0010
0001
0000
0100
0010
1000
0000
0001
0010
,
0100
1000
0010
0100
0001
0010
1100
0000
0010
0001
1000
0010
,
1001
0000
0010
0100
0010
0000
1000
0001
0010
0000
0100
0010
0100
0000
0010
0001
,
1000
0100
1000
0100
0010
0001
0010
0001
0100
0010
0100
0010
1000
0001
1000
0001
,
1001
0000
0100
0000
1000
0001
0000
0000
,
1001
0000
0000
1010
0000
0000
0000
0110
0000
0101
0000
0000
0011
0000
0000
0110
,
0000
1100
0000
0000
1010
0000
0000
0110
0000
0101
0000
0000
0011
0000
0000
0110
,
0000
1100
0000
0000
1010
0000
0000
0101
0000
0011
0000
0000
0110
0000
0000
1100
,
0000
0110
0000
0000
0011
0000
0000
0101
0000
0110
0000
0000
1010
0000
0000
1100
,
0000
1010
0000
0000
0101
0000
0000
0011
0000
0110
0000
0000
0011
0000
0000
0110
,
0000
1100
0000
0000
0110
0000
0000
1100
0000
0011
0000
0000
1010
0000
0000
0101
,
0000
1010
0000
0000
1100
0000
0000
0011
0000
0101
0000
0000
0110
0000
0000
0100
,
1010
0000
0100
0010
0100
0000
0010
0100
0010
0000
1000
0010
1000
0000
0001
0010
,
1001
0000
0000
0000
;

//---------------dance-single - Darkmage----------------
#NOTES:
     dance-single:
     Darkmage:
     Challenge:
     14:
     1.000,1.000,0.914,0.000,1.000,964.000,96.000,0.000,0.000,0.000:
0000
0000
0000
0000
,
1000
0100
1000
0100
0010
0000
0100
0000
0010
0001
1000
0000
0010
0000
0100
0000
,
0001
0000
0010
0100
1000
0000
0001
0000
0100
0010
1000
0000
0001
0000
0010
0000
,
0001
0010
0001
0010
0100
0000
1000
0000
0010
0100
0001
0000
0010
0000
0100
0000
,
1000
0000
0001
0100
0010
0000
0100
0000
0001
0010
0100
0000
1000
0000
0001
0000
,
1000
0010
1000
0010
0100
0000
0001
0000
0010
0100
1000
0000
0001
0000
0100
0000
,
0010
0000
1000
0010
0100
0000
0001
0000
1000
0100
0010
0000
0001
0000
0100
0000
,
0010
0000
0100
0001
0010
0000
0100
1000
0010
0000
0100
0001
0010
0000
0100
1000
,
0010
0000
0000
0000
0000
0000
0000
1000
0001
0000
0000
0000
0000
0100
0000
0000
1000
0000
0000
0001
1000
0000
0000
0000
0000
0000
0100
0000
1000
0000
0010
0000
,
0101
0001
0000
0101
0000
0110
0010
1000
,
1100
0100
0000
1100
0000
1010
0010
0100
,
0110
0001
0000
0011
0000
1100
0010
0001
,
0101
0100
0000
0110
0000
1010
0010
0100
,
1010
1000
0000
0011
0000
0101
0010
1000
,
1010
0100
0000
1010
0000
0101
0010
0001
,
0101
0110
1010
1100
0110
0011
1100
1010
,
1000
0000
0000
0000
0100
0000
1000
0000
0000
0000
0010
0000
0100
0000
0000
0000
0001
0000
0010
0000
0000
0000
0100
0000
1000
0000
0000
0000
0001
0000
0100
0000
0000
0000
0010
0000
1000
0000
0000
0000
0000
0000
0001
0000
0000
0100
0000
0000
,
1010
0100
0010
1000
0100
0010
1000
0100
,
0010
1000
0100
0010
1000
0100
0010
1000
,
0001
0010
1000
0001
0010
1000
0001
0010
,
1000
0001
0010
1000
0001
0010
1000
0001
,
0010
0100
1000
0010
0100
1000
0010
0100
,
1000
0010
0100
1000
0010
0100
1000
0010
,
0100
0001
0010
0100
0001
0010
0100
0001
,
1100
0000
0000
0110
0000
0000
0011
0000
0000
0101
0000
0000
0011
0000
1000
0100
,
1000
0000
1000
0000
0010
0000
0100
0001
0010
0000
0100
0000
1000
0010
0100
0000
,
0001
0000
0001
0000
0010
0000
0100
1000
0100
1000
0010
0000
0100
0000
0001
0010
,
0100
0000
0100
0000
1000
0000
0001
0000
0100
0010
1000
0000
0001
0000
0010
0100
,
1000
0000
0001
0000
0100
0000
0010
0000
1000
0010
0100
0000
0001
0000
0010
0100
,
1000
0000
1000
0000
0010
0000
0100
0001
0010
0000
0100
0000
1000
0100
0010
0000
,
0001
0000
0001
0000
0100
0000
0010
1000
0010
1000
0001
0000
0010
0000
0100
0010
,
0001
1000
0010
0100
0001
0010
0001
0100
0010
1000
0100
1000
0010
0100
0001
0010
,
0100
0010
0001
1000
0010
0100
0010
1000
0001
0010
0100
0010
0001
1000
0010
0100
,
0001
0100
0000
0010
1000
0000
1000
0001
1000
0100
0000
1000
0010
0000
1000
0001
,
1000
0100
0000
1000
0010
0000
1000
0001
1000
0010
0000
1000
0001
0000
1000
0010
,
0100
0001
0000
0100
0010
0000
0100
0001
0100
0010
0000
0100
0001
0000
0100
0010
,
0100
0001
0000
0100
0010
0000
0100
0001
0100
0010
0000
0100
0001
0000
0100
0010
,
1000
0001
0000
0010
0100
0000
0010
0100
0010
0100
0000
0001
0100
0000
0010
0100
,
0010
1000
0000
0001
0010
0000
0100
0010
0100
0001
0000
0100
1000
0000
0001
0100
,
1000
0100
0000
0010
1000
0000
0100
0010
0100
0001
0000
0100
1000
0000
0001
0100
,
0010
1000
0000
0010
0100
0000
0001
0010
0100
0010
0000
0001
1000
0000
0010
0100
,
0001
0010
0001
0010
0100
0000
0100
0000
1000
0010
0100
0000
0001
0000
0010
0000
,
1001
0000
1000
0100
0010
0000
0010
0000
0001
0010
0100
0000
1000
0000
0001
0000
,
0110
0010
0100
0010
1000
0000
0001
0000
0010
0100
1000
0000
0001
0000
0100
0000
,
1010
0000
0010
0100
0001
0000
0010
0000
0011
0010
0100
0000
1000
0000
0001
0100
,
0010
0000
1000
0000
0010
0000
1000
0000
0010
0000
1000
0000
0010
0000
1000
0100
,
0010
0000
0100
0010
0001
0000
1000
0100
0010
0000
0100
0010
0001
0000
1000
0100
,
1000
0000
0100
1000
0000
0001
0100
0000
0010
1000
0000
0100
0010
0000
0001
1000
0000
0010
0100
0000
0001
0010
0000
0100
,
1001
0000
0000
0000
0000
0000
0000
0000
0000
0000
0000
0000
0000
0000
0000
0000
0000
0000
0000
0000
0000
0000
0000
0000
0000
0000
0000
0000
0000
0000
0000
0000
0000
0000
0000
0000
0000
0000
0000
0000
0000
0000
0000
0000
0010
0000
0000
0000
0100
0000
0000
0000
0000
0000
0000
0000
0000
0000
0000
0000
0000
0000
0000
0000
0000
0000
0000
0000
0000
0000
0000
0000
0000
0000
0000
0000
0000
0000
0001
0000
0000
0000
0000
0000
0000
0000
0000
0000
0000
0000
0000
0000
0000
0000
0000
0000
1000
0000
0000
0000
0000
0000
0000
0000
0000
0000
0000
0000
0000
0000
0000
0000
0001
0000
0000
0000
0000
0000
0000
0000
0000
0000
0000
0000
0000
0000
0000
0000
0000
0000
0000
0000
0000
0000
0000
0000
0100
0000
0000
0000
0000
0000
0000
0000
0010
0000
0000
0000
0000
0000
0000
0000
0000
0000
0000
0000
0000
0000
0000
0000
1000
0000
0000
0000
0000
0000
0000
0000
0000
0000
0000
0000
0000
0000
0001
0000
0000
0000
0000
0000
0000
0000
0000
0000
0000
0000
0000
0000
0000
0000
0000
0000
,
1000
0010
0000
1000
0100
0000
1000
0010
0100
0010
0000
1000
0100
0000
0010
0001
,
0010
0100
0000
0010
0001
0000
1000
0100
0010
0100
0000
0010
0001
0000
1000
0010
,
0100
0001
0000
0010
0100
0000
1000
0100
1000
0010
0000
0100
0001
0000
0010
0001
,
1000
0100
0000
1000
0010
0000
0100
0010
1000
0001
0000
0010
0100
0000
0010
0001
,
1000
0010
0000
0100
0001
0000
0100
0010
1000
0010
0000
0100
0001
0000
0010
0100
,
1000
0100
0000
0010
0100
0000
0010
0001
0010
0001
0000
1000
0100
0000
0001
0100
,
0010
1000
0000
0001
0010
0000
0100
1000
0100
0001
0000
0100
1000
0000
0001
0100
,
1000
0100
0000
0010
1000
0000
0001
0010
0001
0100
0000
0010
1000
0000
0001
0010
,
1100
0100
0110
0010
0011
0001
0101
0100
,
0110
0010
1010
1000
1100
0100
0110
0010
,
0011
0010
0110
0100
1100
1000
1010
0010
,
0110
0100
0101
0001
0011
0010
0110
0100
,
1100
0100
0010
1000
0100
0010
1000
0100
,
0010
0100
0010
0001
0100
0010
0001
0100
,
1010
1000
0001
0100
0101
0001
1000
0100
,
1010
0000
0100
0010
0000
1000
0010
0000
0100
0001
0000
0010
0100
0000
1000
0010
0000
0100
1001
0000
0000
0010
0000
0000
,
1001
0000
0000
0000
0000
0000
0000
0000
0000
0000
0000
0000
0000
1000
0001
0000
,
0000
0000
0000
0000
0000
0000
0000
0000
0000
0000
0000
1000
0001
0000
0000
0000
,
0000
0000
1000
0001
0000
0000
0000
0000
0001
0000
0101
0000
0000
0000
1010
0000
,
0000
0000
1100
0100
1000
0000
0011
0100
0000
0000
1010
0100
0000
0000
1001
0010
,
1001
0000
0100
0010
1000
0000
0010
0100
0001
0000
0100
0010
1000
0000
0010
0100
,
0001
0000
0100
0010
1000
0000
0010
0100
0101
0000
0101
0000
1010
0000
1010
0000
,
1001
0000
0010
0100
0001
0000
0010
0100
1000
0000
0010
0100
0001
0000
0010
0100
,
1000
0000
0010
0100
0001
0000
0010
0100
1100
0000
0110
0000
0011
0000
1010
0100
,
1001
0000
1000
0100
0010
0000
0100
0010
0001
0000
1000
0100
0010
0000
0100
0010
,
0001
0010
0100
1000
0010
0100
0101
0000
0010
1000
0001
0100
,
1001
0000
0010
0100
0001
0000
1000
0100
1000
0000
0010
0100
0001
0000
0010
0100
,
0010
0000
0000
0000
0000
0000
0100
0000
0000
1000
0000
0000
0001
0000
0000
0000
0000
0000
0100
0000
0000
0010
0000
0000
1000
0000
0000
0000
0100
0000
0000
0000
1000
0000
0000
0000
0010
0000
0000
0000
0100
0000
0000
0000
0001
0000
0000
0000
,
1000
0100
1000
0000
0010
0000
0100
0010
1000
0000
0001
0010
0001
0010
0100
0000
,
1000
0001
0100
0000
0010
0000
1000
0100
0010
0000
0011
0000
0101
0000
0110
0000
,
1000
0100
0010
0000
0100
0000
1000
0010
0100
0000
0001
0100
0001
0100
0010
0000
,
1000
0100
0010
0000
0100
0000
1000
0010
0100
0001
0010
0100
1000
0000
0001
0100
,
0010
1000
0100
0000
1000
0000
0001
0100
0010
0000
1000
0010
1000
0010
0100
0000
,
0001
0100
0010
1000
0100
0010
1001
0000
0100
0010
1000
0001
,
0101
0010
1000
0000
0100
0000
1000
0010
0100
0000
0001
0010
0001
0010
0100
0000
,
1000
0010
0100
0000
1001
0000
0100
0010
1000
0100
0010
0100
0001
0100
1000
0010
,
0101
0000
0000
0000
0000
0000
0000
0000
0000
0000
0000
0000
0000
0000
0000
0000
0000
0000
0000
0000
0000
0000
0000
0000
0000
0000
0000
0000
0000
0000
0000
0000
0000
0000
0000
0000
0000
0000
0000
0000
0000
0000
0000
0000
0001
0000
0000
0000
1000
0000
0000
0000
0000
0000
0000
0000
0000
0000
0000
0000
0000
0000
0000
0000
0000
0000
0000
0000
0000
0000
0000
0000
0000
0000
0000
0000
0000
0000
0010
0000
0000
0000
0000
0000
0000
0000
0000
0000
0000
0000
0000
0000
0000
0000
0000
0000
0000
0000
0000
0000
0000
0000
0000
0000
0000
0000
0000
0000
0000
0000
0000
0000
0000
0000
1000
0000
0000
0000
0000
0000
0000
0000
0000
0000
0000
0000
0000
0000
0000
0000
0000
0000
0000
0000
0000
0000
0000
0000
0000
0000
0000
0000
0000
0000
0001
0000
0000
0000
0000
0000
0000
0000
0000
0000
0000
0000
0000
0000
0000
0000
0100
0000
0000
0000
0000
0000
0000
0000
0000
0000
0000
0000
0000
0000
0000
0000
0000
0000
0000
0000
0000
0000
0000
0000
0000
0000
0000
0000
0000
0000
0000
0000
,
1001
0100
0000
0001
0100
0000
0010
0100
0001
0010
0000
1000
0100
0000
0010
0001
,
1000
0100
0000
1000
0010
0000
0100
0010
1000
0001
0000
0100
0010
0000
1000
0100
,
1000
0001
0000
0010
0100
0000
1000
0010
0100
0010
0000
1000
0001
0000
0010
0100
,
0010
0001
0000
0100
0010
0000
1000
0100
0010
0100
0000
1000
0010
0000
0100
0001
,
0100
0010
0000
1000
0001
0000
1000
0100
1000
0100
0000
1000
0001
0000
0100
0001
,
0100
0010
0000
0100
0001
0000
0100
0010
0100
0010
0000
1000
0010
0000
0100
0001
,
0101
0110
1010
1100
0110
0011
0101
0110
,
1010
0000
0100
0010
0000
1000
0100
0000
1000
0010
0000
0100
0001
0000
0010
0100
0000
0001
0100
0000
1000
0010
0000
0100
,
1001
0000
0000
0000
;

//---------------dance-single - Darkmage----------------
#NOTES:
     dance-single:
     Darkmage:
     Medium:
     9:
     0.955,1.000,0.295,0.162,0.457,654.000,31.000,17.000,0.000,0.000:
0000
0000
0000
0000
,
1001
0100
0010
0001
0000
0001
0010
0100
,
0000
1000
0100
0010
0001
0010
0100
0001
,
1010
0100
0010
1000
0000
0001
0010
0100
,
0000
1000
0010
0100
0001
0010
0100
1000
,
0101
1010
1100
0011
,
0101
0000
0000
0000
0110
0000
0000
0000
1010
0000
0000
0000
1100
0000
0010
1000
,
0001
0000
0000
0010
0100
0000
0000
1000
0010
0000
0000
0100
0001
0000
0000
0100
,
0010
0000
1000
0000
0001
0010
0000
0100
,
1100
1000
0000
1100
0000
0100
0010
0001
,
0010
0100
0000
0011
0000
0001
0100
0010
,
1000
0010
0000
0110
0000
0100
0010
1000
,
0001
0010
0000
0011
0000
0010
0001
0100
,
0010
0100
0000
0101
0000
0001
0010
0100
,
1000
0010
0000
1010
0000
0100
0010
1000
,
0001
1000
0000
1001
0000
0100
0010
0100
,
0010
0001
0000
0011
0000
0010
0001
0100
,
0010
1000
0100
0010
0001
0100
0010
1000
,
0100
0010
0001
0100
0010
1000
0100
0010
,
0001
0010
0100
1000
0010
0100
0001
0010
,
0100
1000
0010
0100
0001
0010
0100
1000
,
0001
0100
0010
1000
0100
0010
0001
0100
,
0010
1000
0100
0010
0001
0100
0010
1000
,
0100
1000
0010
0100
0001
0010
0100
1000
,
0001
0000
0000
1000
0000
0000
0001
0000
0000
1000
0000
0000
0001
0000
1000
0100
,
1000
0000
1000
0000
0010
0000
0000
0100
0001
0000
1000
0000
0000
0100
1000
0000
,
0100
0000
0100
0000
0010
0000
0000
0001
0010
0000
0100
1000
0001
0000
0000
0100
,
0010
0000
0010
0000
1000
0000
0010
0000
0000
0100
0010
0000
1000
0000
0000
0001
,
0010
0000
0010
0000
0100
0000
0000
1000
0100
0000
0010
0000
0001
0000
0000
0000
,
1000
0000
1000
0000
0010
0000
0000
0100
0010
0000
0100
0000
0000
0001
0010
0000
,
0100
0000
0100
0000
1000
0000
0000
0001
0100
0000
0010
0000
1000
0000
0000
1000
,
0100
0000
0010
0000
0001
1000
0010
0000
,
1000
0000
1000
0000
0100
0000
0010
0000
0001
0000
1000
0000
0001
1000
0001
1000
,
0010
0100
0000
0000
0001
0000
0000
1000
0000
0010
0000
0000
0100
0000
0000
0001
,
0000
0010
0000
0000
0100
0000
0000
1000
0000
0010
0000
0000
0100
0000
0000
0001
,
0000
0010
0000
0000
0100
0000
0000
1000
0000
0100
0000
0000
0010
0000
0000
0001
,
0000
0010
0000
0000
0100
0000
0000
1000
0000
0010
0000
0000
0100
0000
0000
0001
,
0000
0100
0000
0000
0010
0000
0000
1000
0000
0100
0000
0000
0010
0000
0000
0001
,
0000
0010
0000
0000
0001
0000
0000
1000
0000
0010
0000
0000
1000
0000
0000
0100
,
0000
0010
0000
0000
0001
0000
0000
1000
0000
0010
0000
0000
1000
0000
0000
0001
,
0000
0100
0000
0000
0010
0000
0000
1000
0000
0001
0000
0000
0010
0000
0000
0100
,
1000
0000
0000
0000
0100
0000
0000
1000
0000
0100
0000
0000
1000
0000
0000
0100
,
0010
0000
0000
0000
0001
0000
0000
0010
0000
0001
0000
0000
0010
0000
0000
0001
,
0100
0000
0000
0000
0010
0000
0000
0100
0000
0001
0000
0000
0010
0000
0000
0100
,
1000
0000
0000
0000
0100
0000
0000
0010
0000
0001
0000
0000
0010
0000
0100
1000
,
0200
2300
3020
0230
0302
0023
0032
2003
,
3020
0230
0302
0023
0230
0320
0032
2003
,
3010
0010
0100
0100
0001
0001
1000
1000
,
1001
0000
0010
0000
1000
0001
0000
1000
,
1100
0100
1000
0010
0100
0010
1000
0001
,
1000
0100
0010
0100
0010
0001
1000
0010
,
0100
0001
0010
0001
0100
0010
1000
0100
,
0010
0100
0010
0001
0100
0010
0100
0001
,
1000
0100
1000
0001
0100
0010
1000
0010
,
0100
0001
0010
0100
0010
0001
0010
0100
,
1000
0100
0010
0100
0010
0001
1000
0010
,
0100
0010
1000
0001
0010
0100
0010
0001
,
0011
0100
0010
0000
1000
0010
0000
0100
,
0001
0000
0010
0100
0000
1000
0010
0100
,
0001
0010
0000
1000
0010
0000
0100
1000
,
0000
0100
0001
0000
0010
0100
1000
0100
,
0010
0001
0000
0010
0100
0000
1000
0100
,
0000
0010
0001
0000
1000
0010
0000
1000
,
0100
0010
0001
1000
0100
0010
0001
0010
,
0011
0100
1000
0100
1100
0010
0001
0010
,
1001
0000
0000
0000
0000
0000
0000
0000
0000
0000
0000
0000
0000
0000
1000
0001
,
0000
0000
0000
0000
0000
0000
0000
0000
0000
0000
0000
0000
1000
0001
0000
0000
,
0000
0000
1000
0001
0000
0000
0000
0000
1000
0000
0001
0000
0000
0000
1000
0000
,
0000
0010
0000
0100
0000
0001
0000
0010
,
1100
0010
0001
0010
0100
0010
0001
0010
,
0100
0010
0001
0010
0100
0100
1000
0001
,
0101
1000
0010
0100
0010
1000
0010
0100
,
0010
0100
0001
0010
0100
0100
1000
1000
,
0011
0100
1000
0100
0010
0100
1000
0100
,
0010
0000
0001
0100
0000
0010
1000
0000
0100
0010
0000
0001
,
0100
0010
1000
0010
0100
0001
0010
0001
,
0100
0001
0010
0100
0010
0010
1000
0001
,
0110
0100
1000
0001
0010
0001
0100
0001
,
1000
0100
0010
0100
0010
0010
0001
0001
,
1100
0010
0001
0100
0010
1000
0010
0100
,
0001
0100
0010
1000
0001
0001
1000
1000
,
0101
0000
0000
0010
0100
0000
0000
0010
1000
0000
0000
0001
0010
0000
0000
0100
,
1000
0000
0100
0010
0000
0001
0010
0000
0100
1000
0000
0001
,
0100
0000
0010
0000
0100
0010
0100
0000
0001
0000
0010
0000
0001
0010
0001
0000
,
1000
0000
0000
0000
0000
0000
0010
0000
0000
0000
0000
0000
1000
0000
0000
0010
0000
0000
1000
0000
0000
0000
0000
0000
0001
0000
0000
0000
0010
0000
0000
0000
0100
0000
0000
0000
1000
0000
0000
0000
0010
0000
0000
0000
0100
0000
0000
0000
,
0001
0000
0100
0000
0010
1000
0000
0000
,
0001
0010
0100
0000
1000
0010
0100
0000
,
0001
0100
0010
0000
1000
0001
0010
0100
,
1000
0100
0010
0000
0001
0100
1000
0000
,
0100
0010
1000
0000
0001
0010
0100
0001
,
0100
0010
0001
0000
1000
0100
0010
0000
,
0001
0010
0100
0000
1000
0100
0010
0100
,
0010
0001
0010
0001
0010
0001
0010
0001
,
1000
0100
1000
0100
1000
0100
0010
0001
0010
0001
0010
0001
,
2000
0000
0000
0000
,
3000
0000
0000
0000
;

//---------------dance-single - Darkmage----------------
#NOTES:
     dance-single:
     Darkmage:
     Easy:
     6:
     0.722,0.814,0.124,0.010,0.386,517.000,13.000,1.000,0.000,0.000:
0000
0000
0000
0000
,
1001
0000
0000
0000
,
0000
0000
0000
0000
0000
0000
0000
0100
,
0010
1000
0000
0000
,
0001
0000
0000
0000
0000
0000
0000
0010
,
0100
1000
0100
0010
,
0001
0000
1000
0000
0010
0000
0100
0001
,
0010
0100
1000
0001
,
1001
0000
0100
0000
0001
1000
0000
0010
,
1000
0010
0000
1000
0000
0010
1000
0010
,
1000
0010
0000
0100
0000
0001
0010
0001
,
0010
0001
0000
0010
0000
0001
0010
0001
,
0010
0001
0000
0100
0000
0010
1000
0010
,
1000
0010
0000
1000
0000
0010
0100
0010
,
0100
0010
0000
0100
0000
0001
0010
0001
,
0010
0001
0000
0010
0000
0100
0010
0100
,
0010
0100
0000
0010
0000
0100
1000
0100
,
1000
0100
1000
0000
0100
1000
0000
0100
,
1000
0000
0100
1000
0000
0100
1000
0000
,
0100
0010
0000
0100
0010
0000
0100
0010
,
0000
0100
0010
0000
0100
0010
0001
0000
,
0001
0010
0000
0001
0010
0000
0001
0010
,
0000
0001
0010
0000
0001
0010
0000
0001
,
0100
0000
0001
0100
0000
0001
0100
0000
,
0010
0000
0000
1000
0000
0000
0001
0000
0000
1000
0000
0000
0010
0000
0100
0000
,
0001
0010
0100
0000
1000
0100
0010
0000
,
0001
0000
1000
0000
0010
0100
0001
0100
,
0010
1000
0010
0000
0100
0001
0100
0000
,
0010
0000
1000
0000
0001
0010
0100
1000
,
0001
0010
0100
0000
0001
0010
0001
0000
,
1000
0000
0100
0000
0010
0100
1000
0001
,
1000
0010
1000
0010
1000
0010
1000
0010
,
0100
0001
0100
0001
0100
0001
0100
0001
,
1000
0100
0000
0000
1000
0000
0000
0010
0000
1000
0000
0000
0100
0000
0000
1000
,
0000
0010
0000
0000
0100
0000
0000
0010
0000
1000
0000
0000
0100
0000
0000
1000
,
0000
0010
0000
0000
0100
0000
0000
0001
0000
0010
0000
0000
0100
0000
0000
0010
,
0000
0001
0000
0000
0100
0000
0000
0001
0000
0010
0000
0000
0100
0000
0000
0010
,
0000
0001
0000
0000
0100
0000
0000
0010
0000
1000
0000
0000
0001
0000
0000
0010
,
0000
0100
0000
0000
1000
0000
0000
0010
0000
0100
0000
0000
0001
0000
0000
0010
,
0000
0100
0000
0000
1000
0000
0000
0100
0000
0010
0000
0000
0001
0000
0000
1000
,
0000
0010
0000
0000
0100
0000
0000
0001
0000
0010
0000
0000
0100
0000
0000
1000
,
0100
0000
0000
0000
1000
0000
0000
0100
0000
1000
0000
0000
0100
0000
0000
1000
,
0100
0000
0000
0000
0010
0000
0000
0100
0000
0010
0000
0000
0100
0000
0000
0010
,
0001
0000
0000
0000
0010
0000
0000
0001
0000
0010
0000
0000
0001
0000
0000
0010
,
0100
0000
0000
0000
1000
0000
0000
0001
0000
0100
0000
0000
0010
0000
0000
0100
,
0001
0011
0110
1100
,
1000
0000
1010
0000
0110
0000
0101
0001
,
1000
1000
0010
0010
0100
0100
0001
0001
,
1001
0000
0010
0000
1000
0001
0000
0000
,
1000
0000
0000
0000
0100
0000
0000
1000
0000
0010
0000
0000
0100
0000
0000
0010
,
0000
1000
0000
0000
0100
0000
0000
1000
0000
0010
0000
0000
0100
0000
0000
0001
,
0000
0010
0000
0000
0100
0000
0000
0010
0000
0001
0000
0000
0100
0000
0000
0010
,
0000
0100
0000
0000
0001
0000
0000
0010
0000
0100
0000
0000
1000
0000
0000
0001
,
0000
1000
0000
0000
0010
0000
0000
0100
0000
0010
0000
0000
1000
0000
0000
0100
,
0000
1000
0000
0000
0010
0000
0000
0100
0000
0001
0000
0000
0010
0000
0000
0001
,
0000
1000
0000
0000
0010
0000
0000
0100
0000
0001
0000
0000
0010
0000
0000
0100
,
0000
1000
0000
0000
0001
0000
0000
0100
0000
0010
0000
0000
1000
0000
0000
0010
,
1000
0100
1000
0000
0100
1000
0000
0100
,
1000
0000
0100
1000
0000
0100
1000
0100
,
0010
0001
0000
0010
0001
0000
0010
0001
,
0000
0010
0001
0000
0010
0001
0100
0010
,
1000
0010
0000
1000
0010
0000
1000
0010
,
0000
1000
0010
0000
1000
0010
0000
0100
,
0001
0010
0100
1000
0010
0100
0001
0010
,
0100
1000
0100
1000
0001
0010
0001
0010
,
0110
0000
0000
0000
0000
0000
0000
1001
,
0000
0000
0000
0110
,
0000
1001
0000
0000
1000
0001
0000
1000
,
0000
0010
0000
0100
0000
0001
0000
1000
,
0100
1000
0100
0000
1000
0100
1000
0000
,
0100
1000
0100
0000
1000
1000
0001
0001
,
0010
0100
0010
0000
0100
0010
0100
0000
,
0010
0100
0010
0000
0100
0100
0010
0010
,
0001
0010
0001
0000
0010
0001
0010
0000
,
0001
0010
0100
1000
,
0001
0100
0001
0000
0100
0010
0100
0000
,
0010
1000
0010
0000
1000
1000
0001
0001
,
1000
0000
0100
0000
1000
0010
1000
0000
,
0001
0000
0010
0000
0100
0010
0100
0010
,
0001
0000
1000
0000
0010
0100
0001
0000
,
0010
0000
0100
0000
1000
0010
1000
0010
,
0100
0000
0001
0000
1000
0100
0010
0000
,
0100
1000
0010
0100
,
0001
0000
0010
0000
0100
1000
0100
0000
,
0010
0000
0001
0000
1000
0010
0100
0001
,
1000
0000
0010
0000
0100
0001
0000
0000
,
1000
0100
1000
0000
0001
0010
0001
0000
,
1000
0010
1000
0000
0001
0000
1000
0000
,
0010
0100
0010
0000
0100
0001
0100
0000
,
0001
0010
0001
0000
0100
0000
0010
0000
,
1000
0100
1000
0000
0100
0010
0100
0000
,
0010
0001
0010
0000
0001
0000
1000
0000
,
0010
1000
0010
0100
0001
0100
0010
1000
,
0001
0000
0000
1000
0010
0000
0000
0100
0001
0000
0000
0010
0100
0000
0000
1000
,
0020
0000
0000
0000
,
0030
0000
0000
0000
;
