#TITLE:Highscore;
#SUBTITLE:;
#ARTIST:Teminite & Panda Eyes;
#TITLETRANSLIT:;
#SUBTITLETRANSLIT:;
#ARTISTTRANSLIT:;
#CREDIT:;
#BANNER:Highscore - bn.png;
#BACKGROUND:Highscore - bg.png;
#LYRICSPATH:;
#CDTITLE:gpopcdtitle.png;
#MUSIC:Highscore.ogg;
#OFFSET:0.012;
#SAMPLESTART:17.455;
#SAMPLELENGTH:17.453;
#SELECTABLE:YES;
#BPMS:0.000=110.000;
#STOPS:;
#BGCHANGES:;
// cache tags:
#FIRSTBEAT:16.000;
#LASTBEAT:243.750;
#SONGFILENAME:Songs/Index Tournament 1/Highscore/Highscore.sm;
#HASMUSIC:1;
#HASBANNER:1;
#MUSICLENGTH:133.997;
// end cache tags

//---------------dance-single - Gpop----------------
#NOTES:
     dance-single:
     Gpop:
     Challenge:
     11:
     0.787,0.796,0.351,0.746,0.843,591.000,47.000,100.000,141.000,0.000:
0000
0000
0000
0000
,
0000
0000
0000
0000
,
0000
0000
0000
0000
,
0000
0000
0000
0000
,
2001
0000
0000
0000
0000
3010
0100
0001
1000
0000
0000
0000
0200
0000
0000
0300
,
0021
0000
0000
0030
0000
0001
1000
0010
0200
0000
0000
0300
0002
0000
0000
0003
,
1200
0000
0000
0300
0000
0010
0100
1000
0002
0000
0000
0000
2003
0000
0000
3000
,
0102
0000
0000
0003
0000
1000
0100
1000
0020
0000
0000
0000
0130
0010
0100
0010
,
2001
0000
0000
0000
3100
0010
0001
1000
01M0
01M0
01M0
01M0
01M0
01M0
01M0
01M0
,
0002
0000
0000
0000
1003
0010
1000
0001
01M0
01M0
01M0
01M0
01M0
01M0
01M0
01M0
,
2000
0000
0000
0000
3010
0100
0001
1000
01M0
01M0
01M0
01M0
01M0
01M0
01M0
01M0
,
0020
0000
0000
0000
1030
0001
1000
0010
M100
M100
M100
M100
M100
M100
M100
M100
,
2000
0000
0000
0000
3100
0010
0001
1000
0M10
0M10
0M10
0M10
0M10
0M10
0M10
0M10
,
0002
0000
0000
0000
1003
0100
1000
0001
0M10
0M10
0M10
0M10
0M10
0M10
0M10
0M10
,
0200
0000
0000
0000
0310
1000
0100
1000
0M10
0M10
0M10
0M10
0M10
0M10
0M10
0M10
,
0002
0000
0000
0000
0103
0010
1000
0001
0100
0000
00M0
00M0
0M00
0M00
0M00
0M00
,
1M01
0000
1000
0001
1000
0000
0100
0001
0000
0100
1000
0000
0100
0001
0000
0100
,
0010
0000
0001
1000
0001
0000
0010
1000
0000
0010
0001
0000
0010
1000
0000
0010
,
0100
0000
1000
0010
1000
0000
0100
0001
0000
0100
0010
0000
0100
0001
0000
0100
,
2000
0000
0000
0000
3002
0000
0000
0000
0203
0000
0001
0000
0320
0000
1000
0030
,
1001
0000
1000
0001
0100
0000
0010
0001
0000
0010
1000
0000
0100
0010
0000
0100
,
1000
0000
0001
0100
0010
0000
0100
1000
0000
0100
0001
0000
0010
1000
0010
0001
,
1000
0000
0000
0000
1000
0000
0100
0001
0000
0100
1000
0000
0001
0100
0010
1000
,
0002
0000
0000
0000
0023
0000
0130
1000
0001
0000
0100
0000
0010
0000
1000
0000
,
0012
0000
0000
0003
2100
0000
0000
3000
2010
0000
3001
0000
0021
0000
0000
0030
,
2001
0000
3100
0000
0012
0000
1003
0000
0201
0000
0310
0000
2100
0000
0000
3000
,
0012
0000
0000
0003
0201
0000
0000
0300
2010
0000
3001
0000
0021
0000
0000
0030
,
1002
0000
0013
0000
2100
0000
3001
0000
1020
0000
0130
0000
1002
0000
0000
0003
,
1200
0000
0000
0300
0021
0000
0000
0030
2001
0000
3010
0000
0210
0000
0000
0300
,
0102
0000
0013
0000
2100
0000
3010
0000
1002
0000
0103
0000
2010
0000
0000
3000
,
0012
0000
0000
0003
2010
0000
0000
3000
0102
0000
1003
0000
2100
0000
0000
3000
,
0021
0000
0000
0000
0130
0000
0000
0000
2100
0000
0000
0000
3010
0000
0000
0000
0210
0000
0000
0000
0301
0000
0000
0000
1000
0100
0010
0001
1000
0100
0010
0001
,
1000
0010
0010
0001
0010
0010
1000
0100
0100
0001
0100
0100
2000
0000
3010
0100
,
0001
0000
0010
0000
0100
0000
1000
0000
0002
0000
0000
0000
0103
0000
0010
0000
2000
0000
0000
0000
3001
0000
0010
0000
0100
0000
1000
0000
0100
0010
0001
1000
,
0001
0100
0100
1000
0100
0100
0002
0000
1003
0010
0010
0001
0010
0010
2000
0000
,
3001
0000
0100
0000
0010
0000
1000
0000
0100
0000
0010
0000
0100
0000
1000
0000
0002
0000
0000
0000
1003
0010
1000
0010
0200
0000
0000
0000
0302
0000
0000
0000
,
1003
0000
0000
0000
0010
1000
0001
0010
0100
0000
0000
0000
2000
0000
0000
0000
,
3002
0000
0000
0000
1003
0100
0010
0001
0200
0000
0000
0000
0320
0000
0000
0000
,
2030
0000
0000
0000
3001
0010
0100
1000
0002
0000
0000
0000
0203
0000
0000
0000
,
0320
0000
0000
0030
0020
0000
0000
0030
0020
0000
0000
0030
0020
0000
0000
0030
,
0010
1000
0010
0100
0010
0100
0010
1000
0001
0010
0100
1000
0100
0010
0001
1000
,
0002
0000
0000
0000
0103
0010
1000
0001
01M0
01M0
01M0
01M0
01M0
01M0
01M0
01M0
,
2000
0000
0000
0000
3100
0010
0001
1000
01M0
01M0
01M0
01M0
01M0
01M0
01M0
01M0
,
0002
0000
0000
0000
1003
0100
1000
0010
M100
M100
M100
M100
M100
M100
M100
M100
,
0020
0000
0000
0000
0031
0100
0001
0010
M100
M100
M100
M100
M100
M100
M100
M100
,
0020
0000
0000
0000
1030
0001
1000
0100
001M
001M
001M
001M
001M
001M
001M
001M
,
2000
0000
0000
0000
3010
0100
0001
1000
0M10
0M10
0M10
0M10
0M10
0M10
0M10
0M10
,
0002
0000
0000
0000
1003
0010
1000
0100
001M
001M
001M
001M
001M
001M
001M
001M
,
0200
0000
0000
0000
0310
1000
0001
1000
0100
0000
00M0
00M0
000M
000M
000M
000M
,
1010
0000
2000
0000
3001
0000
0010
0100
0000
1000
0100
0010
1000
0010
0100
1000
,
0020
0000
1030
0001
1000
0001
0010
0100
1000
0001
0100
0010
2000
0000
3002
0000
,
0203
0000
0320
0000
1030
0000
0001
0010
0000
0001
0100
0010
0001
0010
0100
0001
,
2000
0000
3100
0010
0100
1000
0001
0100
0020
0000
1030
0001
0010
0100
2000
0000
,
3020
0000
023M
0000
0310
1000
001M
0100
0000
0010
100M
0100
0000
1000
001M
1000
,
0200
0000
130M
0010
1000
0010
100M
0100
0010
0100
100M
0010
2000
0000
302M
0000
,
0230
0000
M302
0000
0013
0100
M010
0001
0000
0100
M010
0100
0000
0001
M010
0100
,
0020
0000
M130
0010
0001
0100
M001
0010
0200
0000
M310
0001
0010
0100
M010
0001
,
1000
0010
1010
1000
0001
0010
0011
0001
,
1000
0100
1100
1000
0001
0100
0101
0001
,
1000
0010
1010
1000
0001
0100
0101
0001
,
0010
0000
0100
0000
0110
0000
0010
0000
0001
0000
1000
0000
1001
0000
0100
0010
;
