#TITLE:Crosswords;
#SUBTITLE:;
#ARTIST:Thomas E. Petersen (Laxity);
#TITLETRANSLIT:;
#SUBTITLETRANSLIT:;
#ARTISTTRANSLIT:;
#CREDIT:Jose_Varela;
#BANNER:../Banner.png;
#BACKGROUND:../BG.png;
#LYRICSPATH:;
#CDTITLE:../CDTitleJose.png;
#MUSIC:CrossWords.ogg;
#OFFSET:-0.061;
#SAMPLESTART:122.637;
#SAMPLELENGTH:18.833;
#SELECTABLE:YES;
#BPMS:0.000=187.965;
#STOPS:;
#BGCHANGES:;
// cache tags:
#FIRSTBEAT:0.000;
#LASTBEAT:544.000;
#SONGFILENAME:Songs/Index Fusion - Part 2/Crosswords - [Jose_Varela]/CrossWords.sm;
#HASMUSIC:1;
#HASBANNER:1;
#MUSICLENGTH:183.816;
// end cache tags

//---------------dance-single - Jose_Varela----------------
#NOTES:
     dance-single:
     Jose_Varela:
     Challenge:
     14:
     0.988,1.000,0.000,0.250,1.000,1225.000,0.000,46.000,0.000,0.000:
0010
0000
0002
0000
0000
0003
2000
0000
0000
3000
0001
0000
0100
0000
0002
0000
,
0000
0000
0000
0003
0010
0100
1000
0100
,
0010
0000
0001
0100
0000
0010
0000
2000
,
0000
0000
0000
0000
0000
0000
0000
0000
0000
3000
0001
0000
0100
0000
0001
0000
,
1000
0000
0000
0000
0100
0000
0010
0000
0000
0000
0002
0000
0000
0003
0200
0000
,
0000
0000
0000
0300
0010
1000
0100
0010
,
0001
0001
0000
0100
0000
0010
1000
0200
,
0000
0000
0000
0300
0010
0000
0001
0000
0100
0000
0001
0000
0010
0000
0001
0000
,
0200
0000
0000
0000
0000
0000
0000
0300
0001
0000
0010
0000
0100
0000
1000
0000
,
0001
0000
0000
0000
0100
0000
0010
0000
0000
0000
2000
0000
0000
0000
0000
3000
,
0001
0000
0200
0000
0000
0000
0000
0000
0000
0000
0000
0300
0000
0000
0010
0000
,
1000
0100
0010
0000
0000
0000
0000
0001
,
0100
0000
0000
0010
1000
0100
0010
0001
,
0100
0000
0000
0000
0002
0000
0000
0000
0000
0003
0000
0000
0010
0000
0100
0000
,
2000
0000
0000
0000
0000
3000
0001
0100
,
0000
0010
1000
0100
0010
0000
0001
0100
,
0001
0100
0010
1000
0000
0000
0000
0000
,
0000
0100
0010
0001
0100
0001
1000
0010
,
2000
0000
0000
3000
,
0000
0001
0100
0010
1000
0000
0000
0000
,
0001
0100
0000
0010
0000
1000
0000
0100
,
0000
0010
0001
0000
0100
0000
0001
1000
,
0020
0000
0000
0000
0000
0000
0000
0030
,
1000
0100
0010
0001
0000
0100
0000
0000
,
0000
0000
0001
0100
0010
1000
0200
0000
,
0000
0000
0000
0000
0000
0300
0010
0001
,
0000
0100
0001
1000
0010
1000
0100
0010
,
0002
0000
0000
0000
0000
0000
0000
0003
,
0100
0010
0000
1000
0000
0100
0000
0020
,
0000
0000
0000
0030
0001
0010
0100
1000
,
0001
0000
0000
0000
0100
0001
0000
2000
,
0000
0000
0000
3000
,
0001
0100
0010
0100
0010
1000
0001
1000
0100
0010
0100
0010
0001
1000
0010
1000
,
0010
0100
0001
0100
0001
1000
0010
1000
0001
0100
0001
0100
0010
1000
0010
1000
,
0100
0010
0100
0010
0001
1000
0001
1000
0010
0100
0010
0100
0001
0010
0100
1000
,
0100
1000
0010
0100
0010
0100
0001
1000
0100
1000
0010
0100
0010
0100
0001
1000
,
0010
1000
0010
0100
0001
0100
0001
1000
0010
1000
0100
0010
0100
0010
0001
1000
,
0001
1000
0100
0010
0100
1000
0001
1000
0001
0010
0100
0010
0100
1000
0001
1000
,
0001
0010
0100
0010
0100
1000
0010
1000
0100
0010
0001
0010
0001
1000
0100
1000
,
0100
0010
0001
0010
0001
1000
0100
0010
0100
0010
0001
1000
0001
1000
0100
0010
,
0100
0010
0001
1000
0001
1000
0010
0100
0010
0100
0001
1000
0100
1000
0100
0010
,
0001
0010
0001
1000
0010
1000
0001
0100
0010
0100
0010
1000
0100
1000
0100
0010
,
0001
0010
0001
0100
0010
0100
0010
1000
0001
1000
0001
0010
0100
0010
0100
1000
,
0001
1000
0001
0100
0010
1000
0010
1000
0001
0010
0001
0010
0100
1000
0001
1000
,
0010
0100
0010
0100
0001
0010
0001
1000
0010
1000
0010
0100
0001
1000
0100
0010
,
0001
0010
0001
1000
0010
0100
0010
1000
0001
0010
0001
0010
0100
1000
0100
0010
,
0001
0010
0001
1000
0010
0100
0001
1000
0100
1000
0100
0010
0001
1000
0010
1000
,
0010
0100
0001
0100
0001
1000
0100
0010
0100
0010
0001
0100
0001
0100
0010
1000
,
0100
0010
0001
2000
0000
0000
0000
0000
,
0000
3000
0010
0000
0100
0000
0001
0000
0010
0000
0100
0000
1000
0000
0010
0000
,
2000
0000
0000
0000
,
3000
0000
0100
0000
0010
0000
0001
0000
2000
0000
0000
0000
0000
0000
0000
3000
,
0010
1000
0000
1000
0000
0010
0000
1000
,
0000
0001
0100
0000
0001
0000
0010
0100
,
2000
0000
0000
3000
,
1000
0010
0100
0001
0000
1000
0000
0000
,
0000
0000
0001
0010
0100
1000
0020
0000
,
0000
0000
0000
0000
0000
0000
0000
0000
0000
0000
0000
0030
0100
0000
0001
0000
,
0000
0100
0001
0010
0100
0010
0100
1000
,
0020
0000
0000
0000
0000
0000
0000
0000
0000
0000
0000
0000
0000
0000
0000
0030
,
0100
0001
0000
0010
0000
0100
0000
2000
,
0000
0000
0000
0000
0000
0000
0000
3000
0001
0000
1000
0000
0010
0000
1000
0000
,
0002
0000
0000
0003
0100
0001
0000
2000
,
0000
0000
0000
3000
,
0001
1000
0001
0010
0100
0010
0100
1000
0010
1000
0010
0100
0001
1000
0100
1000
,
0100
0010
0001
0010
0001
1000
0010
1000
0100
0010
0100
0010
0001
1000
0001
0100
,
0010
0100
0010
1000
0100
1000
0100
0010
0001
0010
0001
1000
0010
1000
0010
0100
,
0001
0100
0001
1000
0010
1000
0010
0100
0001
0100
0010
1000
0001
1000
0001
0100
,
0010
0100
0010
1000
0100
0010
0100
0010
0001
1000
0001
1000
0010
0100
0010
0100
,
0001
1000
0001
1000
0010
0100
0001
0100
0001
1000
0010
1000
0010
0100
0001
0100
,
0010
1000
0010
0100
0001
0100
0001
0010
0100
1000
0100
1000
0001
0100
0001
0100
,
0010
1000
0001
1000
0001
0010
0100
0010
0001
0100
0001
0100
0010
1000
0001
1000
,
0010
0100
0010
0100
0001
1000
0001
1000
0100
0010
0100
0010
0001
1000
0001
1000
,
0100
0010
0100
0010
0001
1000
0001
1000
0100
0010
0100
0010
0001
1000
0001
1000
,
0010
0100
0010
0100
0001
1000
0100
1000
0001
0100
0001
0100
0010
1000
0010
1000
,
0100
0010
0100
0010
0001
0100
0001
1000
0100
0010
0100
0010
0001
0100
0001
0100
,
0010
1000
0010
1000
0100
0010
0001
0010
0001
0100
0010
1000
0010
1000
0001
0100
,
0010
0100
0010
1000
0001
0010
0100
1000
0100
1000
0001
0100
0001
0100
0010
1000
,
0010
1000
0100
0010
0100
0010
0001
0100
0001
0010
0100
0010
0100
1000
0001
1000
,
0001
0010
0100
0010
0100
1000
0001
1000
0001
0100
0010
0100
0010
1000
0001
0100
,
0001
0100
0010
1000
0010
1000
0001
0010
0001
1000
0100
1000
0100
0010
0001
0010
,
0100
1000
0100
1000
0001
0100
0001
1000
0100
0010
0100
0010
0001
0100
0001
0010
,
0100
1000
0010
1000
0010
0100
0001
0100
0010
1000
0001
1000
0100
0010
0100
0010
,
0001
1000
0100
0010
0001
0010
0001
1000
0010
0100
0010
1000
0100
1000
0001
0100
,
0010
0100
0010
1000
0100
1000
0100
0010
0001
1000
0001
1000
0010
0100
0010
1000
,
0100
0010
0100
1000
0001
1000
0001
0010
0100
1000
0100
0010
0001
1000
0100
0010
,
0100
0010
0001
0100
0001
1000
0010
1000
0010
0100
0001
1000
0001
1000
0010
0100
,
0010
0100
0001
0010
0100
1000
0010
1000
0010
0100
0001
0100
0010
1000
0010
1000
,
0001
0010
0001
0010
0100
1000
0100
1000
0001
0010
0001
0010
0100
1000
0100
1000
,
0010
0100
0010
1000
0001
0100
0010
0100
0001
1000
0001
1000
0100
0010
0100
0010
,
0001
1000
0001
0010
0100
0010
0100
1000
0001
0010
0001
0010
0100
1000
0001
1000
,
0001
0010
0100
0010
0100
1000
0001
0010
0001
0010
0100
1000
0100
1000
0001
0100
,
0001
0100
0010
1000
0001
1000
0001
0100
0010
0100
0010
1000
0001
0100
0001
0100
,
0010
1000
0010
1000
0001
0010
0100
0010
0100
1000
0001
1000
0001
0100
0010
0100
,
0010
1000
0100
0010
0100
0010
0001
1000
0001
0010
0100
0010
0001
1000
0001
1000
,
0100
0010
0100
1000
0001
1000
0001
0100
0010
0100
0010
1000
0001
0010
0001
0010
,
0100
0000
2000
0000
0000
3000
0002
0000
0000
0003
1000
0000
0010
0000
2000
0000
,
0000
0000
0000
3000
0100
0010
0001
0010
,
0100
0000
1000
0010
0000
0100
0000
0002
,
0000
0000
0000
0000
0000
0000
0000
0000
0000
0003
1000
0000
0010
0000
1000
0000
,
0001
0000
0000
0000
0010
0000
0100
0000
0000
0000
2000
0000
0000
3000
0020
0000
,
0000
0000
0000
0030
0100
0001
0010
0100
,
1000
1000
0000
0010
0000
0100
0001
0020
,
0000
0000
0000
0030
0100
0000
1000
0000
0010
0000
1000
0000
0100
0000
1000
0000
,
0020
0000
0000
0000
0000
0000
0000
0030
1000
0000
0100
0000
0010
0000
0001
0000
,
1000
0000
0000
0000
0010
0000
0100
0000
0000
0000
0002
0000
0000
0000
0000
0003
,
1000
0000
0020
0000
0000
0000
0000
0000
0000
0000
0000
0030
0000
0000
0100
0000
,
0001
0010
0200
0000
0000
0300
0000
1000
,
0010
0000
0000
0100
0001
0010
0100
1000
,
0010
0000
0000
0000
2000
0000
0000
0000
0000
3000
0000
0000
0100
0000
0010
0000
,
0002
0000
0000
0000
0000
0003
1000
0010
,
0000
0100
0001
0010
0100
0000
1000
0010
,
1000
0010
0100
0001
0000
0000
0000
0000
,
0000
0010
0100
1000
0010
1000
0001
0100
,
0002
0000
0000
0003
,
0000
1000
0010
0100
0001
0000
0000
0000
,
1000
0010
0000
0100
0000
0001
0000
0010
,
0000
0100
1000
0000
0010
0000
1000
0001
,
0200
0000
0000
0000
0000
0000
0000
0300
,
0001
0010
0100
1000
0000
0010
0000
0000
,
0000
0000
1000
0010
0100
0001
0020
0000
,
0000
0000
0000
0000
0000
0030
0100
1000
,
0000
0010
1000
0001
0100
0001
0010
0100
,
2000
0000
0000
0000
0000
0000
0000
3000
,
0010
0100
0000
0001
0000
0010
0000
0200
,
0000
0000
0000
0300
1000
0100
0010
0001
,
1000
0000
0000
0000
0010
1000
0000
0002
,
0000
0000
0000
0003
,
0010
1000
0010
1000
0001
0010
0001
0010
0100
1000
0100
1000
0010
0100
0010
0100
,
0001
1000
0001
1000
0100
0010
0100
0010
0001
1000
0001
1000
0100
0010
0100
0010
,
0001
1000
0100
1000
0100
0010
0001
0010
0100
1000
0010
1000
0100
0010
0001
0010
,
0001
1000
0100
1000
0100
0010
0001
1000
0001
1000
0010
0100
0010
0100
0001
0010
,
0100
1000
0100
0010
0001
1000
0100
1000
0001
0010
0100
0010
0100
1000
0001
1000
,
0001
0100
0010
1000
0100
1000
0100
0010
0001
0010
0100
1000
0100
1000
0001
0100
,
0010
0100
0001
1000
0001
1000
0100
0010
0001
0010
0100
1000
0001
0100
0010
1000
,
0010
1000
0001
0010
0001
0010
0100
1000
0100
0010
0001
0010
0001
0100
0010
1000
,
0100
0000
0000
0000
;
