#TITLE:Connect 1986;
#SUBTITLE:;
#ARTIST:Fantom;
#TITLETRANSLIT:;
#SUBTITLETRANSLIT:;
#ARTISTTRANSLIT:;
#CREDIT:Mad Matt;
#BANNER:../Tachyon Spectrum-bn.png;
#BACKGROUND:../Tachyon Spectrum-bg.png;
#LYRICSPATH:;
#CDTITLE:;
#MUSIC:Cconnect 1986.ogg;
#OFFSET:-0.057;
#SAMPLESTART:37.312;
#SAMPLELENGTH:12.000;
#SELECTABLE:YES;
#BPMS:0.000=168.000;
#STOPS:;
#BGCHANGES:;
// cache tags:
#FIRSTBEAT:8.000;
#LASTBEAT:313.000;
#SONGFILENAME:Songs/Tachyon Spectrum/Connect 1986 - [Mad Matt]/Connect 1986.sm;
#HASMUSIC:1;
#HASBANNER:1;
#MUSICLENGTH:112.211;
// end cache tags

//---------------dance-single - Tachyon Delta----------------
#NOTES:
     dance-single:
     Tachyon Delta:
     Easy:
     17:
     1.000,1.000,0.036,0.321,1.000,1063.000,4.000,36.000,69.000,0.000:

0000
0000
0000
0000
,
0000
0000
0000
0000
,
0001
0000
0010
0000
0200
0000
0300
0000
1000
0000
0010
0200
0300
0000
0000
0000
,
0001
0000
0010
0000
0200
0000
0300
0000
1000
0000
0010
0200
0300
0000
0000
0000
,
0001
0000
1000
0000
0200
0000
0300
0000
1000
0000
0001
0200
0300
0000
0000
0000
,
0001
0000
1000
0000
0020
0000
0030
0000
1000
0000
0001
0020
0030
0000
0000
0000
,
0001
0000
0100
0000
0020
0000
0030
0000
1000
0000
0100
0020
0030
0000
0000
0000
,
0001
0000
0100
0000
0020
0000
0030
0000
1000
0000
0100
0020
0030
0000
0000
0000
,
0001
0000
0010
0000
0200
0000
0300
0000
1000
0000
0100
0020
0030
0000
0000
0000
,
0001
0000
0000
0000
0000
0000
0100
0000
0000
0000
0000
0000
0010
0000
0000
0000
0000
0000
0000
0000
0000
0000
0000
0000
1000
0000
0000
0000
0000
0000
0010
0000
0000
0100
0000
0000
0001
0000
0100
0000
0001
0000
0100
0000
0001
0000
0100
0000
,
0002
0000
2003
3000
0400
0000
0000
0000
,
1300
0001
0010
0100
1000
0100
1000
0001
0010
0100
1000
0001
1000
0100
0010
0001
0010
0001
1000
0100
1000
0001
0010
0001
,
1000
0010
0100
0001
0100
0001
1000
0010
0100
0001
1000
0001
0100
0010
1000
0001
1000
0001
0100
0010
1000
0001
0100
0001
,
1000
0100
0010
0001
1000
0100
1000
0001
0010
0001
1000
0100
0010
0001
1000
0001
0010
0100
1000
0001
0010
0100
1000
0001
,
1000
0010
0100
0001
1000
0001
0100
0010
1000
0001
0100
0001
1000
0010
1000
0001
0100
0010
1000
0001
1000
0010
0100
0001
,
1000
0001
0010
0100
1000
0100
1000
0001
0010
0100
1000
0001
1000
0100
0010
0001
0010
0001
1000
0100
1000
0001
0010
0001
,
1000
0010
0100
0001
0100
0001
1000
0010
0100
0001
1000
0001
0100
0010
1000
0001
1000
0001
0100
0010
1000
0001
0100
0001
,
1000
0100
0010
0001
1000
0100
1000
0001
0010
0001
1000
0100
0010
0001
1000
0001
0010
0100
1000
0001
0010
0100
1000
0001
,
1000
0010
0100
0001
1000
0001
0100
0010
1000
0001
0100
0001
1000
0010
0100
0001
1000
0010
0100
0001
0100
0001
0100
0001
,
2000
0000
3100
0010
0001
1000
0100
0010
MM0M
0010
0100
0001
1000
0000
0010
0000
,
1000
0000
0010
0100
0001
1000
0010
0100
M0MM
0100
0010
0001
1000
0000
0100
0000
,
1000
0000
0100
0010
0001
1000
0100
0010
MM0M
0010
0100
0001
1000
0000
0010
0000
,
1000
0000
0010
0100
0001
1000
0010
0100
M0MM
0100
0010
0001
1000
0000
0100
0000
,
0010
0100
0010
0100
M0MM
0100
0001
1000
0100
0010
0001
1000
0001
0010
0100
1000
,
0010
0100
0010
0100
M0MM
0100
1000
0001
0100
0010
1000
0001
1000
0010
0100
0001
,
0010
0100
0010
0100
M0MM
0100
0001
1000
0100
0010
0001
1000
0001
0010
0100
1000
,
0010
0100
0010
0100
M0MM
0100
1000
0001
0100
0010
1000
0001
1000
0100
1000
0001
,
0100
0000
0000
0000
0000
0000
0010
0000
0000
1000
0000
0000
0100
0000
0000
0000
0000
0000
0010
0000
0000
0001
0000
0000
0100
0000
0000
0000
0000
0000
0010
0000
0000
1000
0000
0000
0001
0000
0100
0000
0001
0000
0100
0000
0001
0000
0100
0000
,
0001
0000
1000
0010
0100
0001
1000
0100
0010
0001
0100
0001
0010
0100
1000
0010
,
0100
0001
0100
0010
1000
0100
1000
0010
0100
0001
1000
0100
1000
0001
0010
0100
,
1000
0010
0100
0001
0100
0010
1000
0001
0010
0100
1000
0010
0100
0001
1000
0100
,
1000
0001
0100
0010
1000
0001
0010
0100
0010
0001
0100
0010
1000
0100
1000
0001
,
0200
0300
0010
0000
1000
0000
0001
0000
1000
0000
0100
0000
0010
0000
0001
0000
1000
0000
0001
0000
0100
0000
0010
0000
1000
0000
0010
0000
0100
0000
0001
0000
,
0010
0001
1000
0100
1000
0001
0010
0100
0010
0001
1000
0010
1000
0001
0100
0010
,
1000
0001
1000
0100
0010
0001
0100
0001
1000
0100
1000
0010
1000
0001
0100
0001
,
0010
0000
0000
0001
0000
0000
1000
0000
0000
0010
0000
0000
0100
0000
0000
0001
0000
0000
0100
0000
0000
0010
0000
0000
1000
0000
0000
0001
0000
0000
1000
0000
0000
0001
0000
0000
1000
0000
0001
0000
1000
0000
0001
0000
1000
0000
0001
0000
,
1000
0000
0010
0000
0200
0300
0000
0000
0001
0000
0010
0200
0300
0000
0000
0000
,
1000
0000
0100
0000
0020
0000
0030
0000
0001
0000
0100
0020
0030
0000
0000
0000
,
1000
0010
0100
0001
0010
0001
0100
0010
1000
0100
1000
0010
0100
0001
1000
0001
,
0010
0100
1000
0010
1000
0100
0010
0001
0100
0001
0010
0100
1000
0010
0100
0001
,
1000
0000
0100
0000
0020
0000
0030
0000
0001
0000
0100
0020
0030
0000
0000
0000
,
1000
0000
0010
0000
0200
0000
0300
0000
0001
0000
0100
0020
0030
0000
0000
0000
,
1000
0100
0010
0001
0010
0100
1000
0001
0010
0100
1000
0100
0010
0001
1000
0010
,
0100
0000
0000
0001
0000
0000
0100
0000
0000
0010
0000
0000
1000
0000
0000
0001
0000
0000
1000
0000
0000
0010
0000
0000
0100
0000
0000
0001
0000
0000
1000
0000
0000
0001
0000
0000
0100
0000
0001
0000
0100
0000
0001
0000
0100
0000
0001
0000
,
0100
0000
0010
0000
2000
0000
3000
0000
0100
0000
0010
0002
0003
0000
0000
0000
,
0100
0000
0010
0000
2000
0000
3000
0000
0100
0000
0010
0002
0003
0000
0000
0000
,
0040
0000
0430
0000
,
0340
0000
0034
0000
,
1003
0000
0010
0000
0200
0000
0300
0000
0001
0000
0010
0200
0300
0000
0000
0000
,
1000
0000
0100
0000
0020
0000
0030
0000
0001
0000
0100
0020
0030
0000
0000
0000
,
4000
0000
3040
0000
,
4030
0000
3400
0000
,
0310
0001
1000
0010
1000
0001
0010
0100
1000
0100
0010
0001
1000
0010
1000
0100
,
M0MM
0100
0001
0010
0100
0010
0001
1000
0010
0100
0001
1000
0100
1000
0010
0100
,
M0MM
0100
0010
0001
0010
0100
1000
0010
1000
0001
0100
0010
0100
0001
0010
0100
,
M0MM
0100
0010
1000
0001
1000
0010
0100
0001
0010
0100
0010
0001
1000
0100
1000
,
0010
0100
0001
0100
0010
1000
0001
1000
0100
0010
0000
0001
0400
0000
0000
0000
,
0301
1000
0010
0100
0001
0100
0001
1000
0010
0100
0001
1000
0001
0100
0010
1000
0001
1000
0001
0100
0010
1000
0001
0100
,
0010
1000
0001
0010
0100
1000
0100
1000
0001
0010
0100
1000
0001
1000
0100
0010
0001
0010
0001
1000
0100
1000
0001
0010
,
0001
1000
0010
0100
0001
1000
0001
0100
0010
1000
0001
0100
0001
1000
0010
1000
0001
0100
0010
1000
0001
1000
0010
0100
,
0001
1000
0100
0010
0001
1000
0100
1000
0001
0010
0001
1000
0100
0010
0001
1000
0001
0010
0100
1000
0001
0010
0100
1000
,
0001
1000
0010
0100
0001
0100
0001
1000
0010
0100
0001
1000
0001
0100
0010
1000
0001
1000
0001
0100
0010
1000
0001
0100
,
0010
1000
0001
0010
0100
1000
0100
1000
0001
0010
0100
1000
0001
1000
0100
0010
0001
0010
0001
1000
0100
1000
0001
0010
,
0001
1000
0010
0100
0001
1000
0001
0100
0010
1000
0001
0100
0001
1000
0010
1000
0001
0100
0010
1000
0001
1000
0010
0100
,
0001
1000
0100
0010
0001
1000
0100
1000
0001
0010
0001
1000
0100
0010
0001
1000
0001
0010
0100
1000
0100
1000
0100
1000
,
0002
0000
0013
0100
1000
0001
0010
0100
M0MM
0100
0010
1000
0001
0000
0100
0000
,
0001
0000
0100
0010
1000
0001
0100
0010
MM0M
0010
0100
1000
0001
0000
0010
0000
,
0001
0000
0010
0100
1000
0001
0010
0100
M0MM
0100
0010
1000
0001
0000
0100
0000
,
0001
0000
0100
0010
1000
0001
0100
0010
MM0M
0010
0100
1000
0001
0000
0010
0000
,
0100
0010
0100
0010
MM0M
0010
1000
0001
0010
0100
1000
0001
1000
0100
0010
0001
,
0100
0010
0100
0010
MM0M
0010
0001
1000
0010
0100
0001
1000
0001
0100
0010
1000
,
0100
0010
0100
0010
MM0M
0010
1000
0001
0010
0100
1000
0001
1000
0100
0010
0001
,
0100
0010
0100
0010
MM0M
0010
0001
1000
0010
0100
0001
1000
0001
0100
0010
1000
,
0100
0010
0100
0010
MM0M
0010
1000
0001
0010
0100
1000
0001
1000
0100
0010
0001
,
0100
0010
0100
0010
MM0M
0010
0001
1000
0010
0100
0001
1000
0001
0100
0010
1000
,
0100
0010
0100
0010
MM0M
0010
1000
0001
0010
0100
1000
0001
1000
0100
0010
0001
,
0100
0010
0100
0010
MM0M
0010
0001
1000
0010
0100
0001
1000
0001
0100
0001
1000
,
0100
0000
0000
0000
0000
0000
0010
0000
0000
0001
0000
0000
0100
0000
0000
0000
0000
0000
0010
0000
0000
1000
0000
0000
0100
0000
0000
0000
0000
0000
0010
0000
0000
0001
0000
0000
1000
0000
0100
0000
1000
0000
0100
0000
1000
0000
0100
0000
,
2000
3010
0000
0000
;

//---------------dance-single - Mad Matt----------------
#NOTES:
     dance-single:
     Mad Matt:
     Medium:
     17:
     1.000,1.000,0.036,0.321,1.000,1063.000,4.000,36.000,69.000,0.000:




0000
0000
0000
0000
,
0000
0000
0000
0000
,
0001
0000
0010
0000
0200
0000
0300
0000
1000
0000
0010
0200
0300
0000
0000
0000
,
0001
0000
0010
0000
0200
0000
0300
0000
1000
0000
0010
0200
0300
0000
0000
0000
,
0001
0000
1000
0000
0200
0000
0300
0000
1000
0000
0001
0200
0300
0000
0000
0000
,
0001
0000
1000
0000
0020
0000
0030
0000
1000
0000
0001
0020
0030
0000
0000
0000
,
0001
0000
0100
0000
0020
0000
0030
0000
1000
0000
0100
0020
0030
0000
0000
0000
,
0001
0000
0100
0000
0020
0000
0030
0000
1000
0000
0100
0020
0030
0000
0000
0000
,
0001
0000
0010
0000
0200
0000
0300
0000
1000
0000
0100
0020
0030
0000
0000
0000
,
0001
0000
0000
0000
0000
0000
0100
0000
0000
0000
0000
0000
0010
0000
0000
0000
0000
0000
0000
0000
0000
0000
0000
0000
1000
0000
0000
0000
0000
0000
0010
0000
0000
0100
0000
0000
0001
0000
0100
0000
0001
0000
0100
0000
0001
0000
0100
0000
,
0002
0000
2003
3000
0400
0000
0000
0000
,
1300
0001
0010
0100
1000
0010
1000
0001
1000
0001
0010
0100
1000
0010
1000
0001
1000
0001
0010
0100
1000
0001
0100
0001
,
1000
0001
0010
0100
1000
0001
1000
0001
0100
0001
0010
0100
1000
0001
1000
0001
0100
0001
0010
0100
1000
0001
0100
0001
,
1000
0100
1000
0010
1000
0001
0100
0010
0100
0001
1000
0010
1000
0100
1000
0001
0010
0100
0010
0001
1000
0100
1000
0010
,
1000
0001
0100
0010
0100
0001
1000
0010
1000
0100
1000
0001
0010
0100
0010
0001
1000
0100
1000
0010
1000
0001
0100
0001
,
1000
0001
0100
0010
1000
0100
1000
0001
1000
0001
0100
0010
1000
0100
1000
0001
1000
0001
0100
0010
1000
0001
0010
0001
,
1000
0001
0100
0010
1000
0001
1000
0001
0010
0001
0100
0010
1000
0001
1000
0001
0010
0001
0100
0010
1000
0001
0010
0001
,
1000
0010
1000
0100
1000
0001
0010
0100
0010
0001
1000
0100
1000
0010
1000
0001
0100
0010
0100
0001
1000
0010
1000
0100
,
1000
0001
0010
0100
0010
0001
1000
0100
1000
0010
1000
0001
0100
0010
0100
0001
1000
0010
0100
0001
0100
0001
0100
0001
,
2000
0000
3100
0010
0001
1000
0100
0010
MM0M
0010
0100
0001
1000
0000
0010
0000
,
1000
0000
0010
0100
0001
1000
0010
0100
M0MM
0100
0010
0001
1000
0000
0100
0000
,
1000
0000
0100
0010
0001
1000
0100
0010
MM0M
0010
0100
0001
1000
0000
0010
0000
,
1000
0000
0010
0100
0001
1000
0010
0100
M0MM
0100
0010
0001
1000
0000
0100
0000
,
0010
0100
0010
0100
M0MM
0100
0001
1000
0100
0010
0001
1000
0001
0010
0100
1000
,
0010
0100
0010
0100
M0MM
0100
1000
0001
0100
0010
1000
0001
1000
0010
0100
0001
,
0010
0100
0010
0100
M0MM
0100
0001
1000
0100
0010
0001
1000
0001
0010
0100
1000
,
0010
0100
0010
0100
M0MM
0100
1000
0001
0100
0010
1000
0001
1000
0100
1000
0001
,
0100
0000
0000
0000
0000
0000
0010
0000
0000
1000
0000
0000
0100
0000
0000
0000
0000
0000
0010
0000
0000
0001
0000
0000
0100
0000
0000
0000
0000
0000
0010
0000
0000
1000
0000
0000
0001
0000
0100
0000
0001
0000
0100
0000
0001
0000
0100
0000
,
0001
0000
1000
0010
0100
0010
0100
0001
0100
0001
0010
0001
0010
0100
1000
0010
,
0100
0001
0100
0001
1000
0001
1000
0100
1000
0100
0010
0100
0010
0001
0100
0010
,
1000
0100
0010
0100
0010
0001
1000
0001
1000
0010
1000
0010
0100
0010
0100
0001
,
0010
0100
0010
0100
1000
0100
1000
0010
1000
0010
0100
0010
0100
0001
0010
0001
,
0200
0300
0010
0000
1000
0000
0010
0000
1000
0000
0100
0000
1000
0000
0100
0000
0010
0000
0100
0000
0010
0000
0001
0000
0010
0000
0001
0000
0100
0000
0010
0000
,
1000
0001
1000
0001
0100
0001
0100
0010
0100
0010
1000
0010
1000
0100
1000
0010
,
0100
0001
0100
0001
0010
0001
0010
0100
0010
0100
1000
0100
1000
0010
0100
0001
,
0010
0000
0000
0100
0000
0000
1000
0000
0000
0100
0000
0000
1000
0000
0000
0010
0000
0000
1000
0000
0000
0010
0000
0000
0100
0000
0000
0010
0000
0000
0100
0000
0000
0001
0000
0000
1000
0000
0001
0000
1000
0000
0001
0000
1000
0000
0001
0000
,
1000
0000
0010
0000
0200
0300
0000
0000
0001
0000
0010
0200
0300
0000
0000
0000
,
1000
0000
0100
0000
0020
0000
0030
0000
0001
0000
0100
0020
0030
0000
0000
0000
,
1000
0100
1000
0100
0010
0100
0010
0001
0010
0001
0100
0001
0100
0010
0100
0001
,
0010
0100
1000
0100
1000
0001
1000
0001
0100
0001
0100
0010
0100
0010
1000
0100
,
0010
0000
0100
0000
0020
0000
0030
0000
0001
0000
0100
0020
0030
0000
0000
0000
,
1000
0000
0010
0000
0200
0000
0300
0000
0001
0000
0100
0020
0030
0000
0000
0000
,
1000
0010
1000
0010
0100
0010
0100
0001
0100
0001
0010
0001
0010
0100
1000
0010
,
0100
0000
0000
0001
0000
0000
0100
0000
0000
0001
0000
0000
1000
0000
0000
0001
0000
0000
1000
0000
0000
0100
0000
0000
1000
0000
0000
0100
0000
0000
0010
0000
0000
0001
0000
0000
0100
0000
0001
0000
0100
0000
0001
0000
0100
0000
0001
0000
,
0100
0000
0010
0000
2000
0000
3000
0000
0100
0000
0010
0002
0003
0000
0000
0000
,
0100
0000
0010
0000
2000
0000
3000
0000
0100
0000
0010
0002
0003
0000
0000
0000
,
0040
0000
0430
0000
,
0340
0000
0034
0000
,
1003
0000
0010
0000
0200
0000
0300
0000
0001
0000
0010
0200
0300
0000
0000
0000
,
1000
0000
0100
0000
0020
0000
0030
0000
0001
0000
0100
0020
0030
0000
0000
0000
,
4000
0000
3040
0000
,
4030
0000
3004
0000
,
1003
0001
1000
0010
1000
0001
0100
0010
1000
0001
0010
0001
1000
0100
0010
0100
,
M0MM
0100
0001
1000
0010
1000
0001
0010
0100
0010
0001
1000
0001
0100
0010
0100
,
M0MM
0100
0010
0001
1000
0001
0100
0010
0100
0001
1000
0010
1000
0001
1000
0100
,
M0MM
0100
0001
1000
0010
1000
0001
1000
0100
0010
0100
1000
0001
0100
0001
1000
,
0010
0100
0001
1000
0010
1000
0001
1000
0100
0010
0000
0001
0400
0000
0000
0000
,
0301
1000
0010
0100
0001
0010
0001
1000
0001
1000
0010
0100
0001
0010
0001
1000
0001
1000
0010
0100
0001
1000
0100
1000
,
0001
1000
0010
0100
0001
1000
0001
1000
0100
1000
0010
0100
0001
1000
0001
1000
0100
1000
0010
0100
0001
1000
0100
1000
,
0001
0100
0001
0010
0001
1000
0100
0010
0100
1000
0001
0010
0001
0100
0001
1000
0010
0100
0010
1000
0001
0100
0001
0010
,
0001
1000
0100
0010
0100
1000
0001
0010
0001
0100
0001
1000
0010
0100
0010
1000
0001
0100
0001
0010
0001
1000
0100
1000
,
0001
1000
0100
0010
0001
0100
0001
1000
0001
1000
0100
0010
0001
0100
0001
1000
0001
1000
0100
0010
0001
1000
0010
1000
,
0001
1000
0100
0010
0001
1000
0001
1000
0010
1000
0100
0010
0001
1000
0001
1000
0010
1000
0100
0010
0001
1000
0010
1000
,
0001
0010
0001
0100
0001
1000
0010
0100
0010
1000
0001
0100
0001
0010
0001
1000
0100
0010
0100
1000
0001
0010
0001
0100
,
0001
1000
0010
0100
0010
1000
0001
0100
0001
0010
0001
1000
0100
0010
0100
1000
0001
0010
0100
1000
0100
1000
0100
1000
,
0002
0000
0013
0100
1000
0001
0010
0100
M0MM
0100
0010
1000
0001
0000
0100
0000
,
0001
0000
0100
0010
1000
0001
0100
0010
MM0M
0010
0100
1000
0001
0000
0010
0000
,
0001
0000
0010
0100
1000
0001
0010
0100
M0MM
0100
0010
1000
0001
0000
0100
0000
,
0001
0000
0100
0010
1000
0001
0100
0010
MM0M
0010
0100
1000
0001
0000
0010
0000
,
0100
0010
0100
0010
MM0M
0010
1000
0001
0010
0100
1000
0001
1000
0100
0010
0001
,
0100
0010
0100
0010
MM0M
0010
0001
1000
0010
0100
0001
1000
0001
0100
0010
1000
,
0100
0010
0100
0010
MM0M
0010
1000
0001
0010
0100
1000
0001
1000
0100
0010
0001
,
0100
0010
0100
0010
MM0M
0010
0001
1000
0010
0100
0001
1000
0001
0100
0010
1000
,
0100
0010
0100
0010
MM0M
0010
1000
0001
0010
0100
1000
0001
1000
0100
0010
0001
,
0100
0010
0100
0010
MM0M
0010
0001
1000
0010
0100
0001
1000
0001
0100
0010
1000
,
0100
0010
0100
0010
MM0M
0010
1000
0001
0010
0100
1000
0001
1000
0100
0010
0001
,
0100
0010
0100
0010
MM0M
0010
0001
1000
0010
0100
0001
1000
0001
0100
0001
1000
,
0100
0000
0000
0000
0000
0000
0010
0000
0000
0001
0000
0000
0100
0000
0000
0000
0000
0000
0010
0000
0000
1000
0000
0000
0100
0000
0000
0000
0000
0000
0010
0000
0000
0001
0000
0000
1000
0000
0100
0000
1000
0000
0100
0000
1000
0000
0100
0000
,
2000
3010
0000
0000
;

//---------------dance-single - Mad Matt----------------
#NOTES:
     dance-single:
     Mad Matt:
     Hard:
     18:
     1.000,1.000,0.018,0.321,1.000,1159.000,2.000,36.000,69.000,0.000:

0000
0000
0000
0000
,
0000
0000
0000
0000
,
0001
0000
0010
0000
0200
0000
0300
0000
1000
0000
0010
0200
0300
0000
0000
0000
,
0001
0000
0010
0000
0200
0000
0300
0000
1000
0000
0010
0200
0300
0000
0000
0000
,
0001
0000
1000
0000
0200
0000
0300
0000
1000
0000
0001
0200
0300
0000
0000
0000
,
0001
0000
1000
0000
0020
0000
0030
0000
1000
0000
0001
0020
0030
0000
0000
0000
,
0001
0000
0100
0000
0020
0000
0030
0000
1000
0000
0100
0020
0030
0000
0000
0000
,
0001
0000
0100
0000
0020
0000
0030
0000
1000
0000
0100
0020
0030
0000
0000
0000
,
0001
0000
0010
0000
0200
0000
0300
0000
1000
0000
0100
0020
0030
0000
0000
0000
,
0001
0000
0000
0000
0000
0000
0100
0000
0000
0000
0000
0000
0010
0000
0000
0000
0000
0000
0000
0000
0000
0000
0000
0000
1000
0000
0000
0000
0000
0000
0010
0000
0000
0100
0000
0000
0001
0000
0100
0000
0001
0000
0100
0000
0001
0000
0100
0000
,
0002
0000
2003
3000
0400
0000
0000
0000
,
1300
0001
0010
0100
0010
0001
0100
0010
1000
0001
1000
0100
1000
0010
0100
0001
1000
0001
0010
0100
1000
0010
0100
0001
,
1000
0001
0010
0100
0010
0001
0100
0010
1000
0001
1000
0100
1000
0010
0100
0001
1000
0001
0010
0100
1000
0010
0100
0001
,
1000
0100
1000
0010
1000
0001
0010
0100
0010
0001
1000
0010
1000
0100
1000
0001
0100
0010
0100
0001
1000
0100
1000
0010
,
1000
0001
0010
0100
0010
0001
1000
0010
1000
0100
1000
0001
0100
0010
0100
0001
1000
0100
1000
0010
1000
0001
0100
0001
,
1000
0001
0100
0010
0100
0001
0010
0100
1000
0001
1000
0010
1000
0100
0010
0001
1000
0001
0100
0010
1000
0100
0010
0001
,
1000
0001
0100
0010
0100
0001
0010
0100
1000
0001
1000
0010
1000
0100
0010
0001
1000
0001
0100
0010
1000
0100
0010
0001
,
1000
0010
1000
0100
1000
0001
0100
0010
0100
0001
1000
0100
1000
0010
1000
0001
0010
0100
0010
0001
1000
0010
1000
0100
,
1000
0001
0100
0010
0100
0001
1000
0100
1000
0010
1000
0001
0010
0100
0010
0001
1000
0010
0100
0001
0100
0001
0100
0001
,
2000
0000
3100
0010
0001
1000
0100
0010
MM0M
0010
0100
0001
1000
0000
0010
0000
,
1000
0000
0010
0100
0001
1000
0010
0100
M0MM
0100
0010
0001
1000
0000
0100
0000
,
1000
0000
0100
0010
0001
1000
0100
0010
MM0M
0010
0100
0001
1000
0000
0010
0000
,
1000
0000
0010
0100
0001
1000
0010
0100
M0MM
0100
0010
0001
1000
0000
0100
0000
,
0010
0100
0010
0100
M0MM
0100
0001
1000
0100
0010
0001
1000
0001
0010
0100
1000
,
0010
0100
0010
0100
M0MM
0100
1000
0001
0100
0010
1000
0001
1000
0010
0100
0001
,
0010
0100
0010
0100
M0MM
0100
0001
1000
0100
0010
0001
1000
0001
0010
0100
1000
,
0010
0100
0010
0100
M0MM
0100
1000
0001
0100
0010
1000
0001
1000
0100
1000
0001
,
0100
0000
0000
0000
0000
0000
0010
0000
0000
1000
0000
0000
0100
0000
0000
0000
0000
0000
0010
0000
0000
0001
0000
0000
0100
0000
0000
0000
0000
0000
0010
0000
0000
1000
0000
0000
0001
0000
0100
0000
0001
0000
0100
0000
0001
0000
0100
0000
,
0001
0000
1000
0010
0100
0010
0100
0001
0100
0001
0010
0001
0010
0100
1000
0010
,
0100
0001
0100
0001
1000
0001
1000
0100
1000
0100
0010
0100
0010
0001
0100
0010
,
1000
0100
0010
0100
0010
0001
1000
0001
1000
0010
1000
0010
0100
0010
0100
0001
,
0010
0100
0010
0100
1000
0100
1000
0010
1000
0010
0100
0010
0100
0001
0010
0001
,
0200
0300
0010
0000
1000
0000
0010
0000
1000
0000
0100
0000
1000
0000
0100
0000
0010
0000
0100
0000
0010
0000
0001
0000
0010
0000
0001
0000
0100
0000
0010
0000
,
1000
0001
1000
0001
0100
0001
0100
0010
0100
0010
1000
0010
1000
0100
1000
0010
,
0100
0001
0100
0001
0010
0001
0010
0100
0010
0100
1000
0100
1000
0010
0100
0001
,
0010
0000
0000
0100
0000
0000
1000
0000
0000
0100
0000
0000
1000
0000
0000
0010
0000
0000
1000
0000
0000
0010
0000
0000
0100
0000
0000
0010
0000
0000
0100
0000
0000
0001
0000
0000
1000
0000
0001
0000
1000
0000
0001
0000
1000
0000
0001
0000
,
1000
0000
0010
0000
0200
0300
0000
0000
0001
0000
0010
0200
0300
0000
0000
0000
,
1000
0000
0100
0000
0020
0000
0030
0000
0001
0000
0100
0020
0030
0000
0000
0000
,
1000
0100
1000
0100
0010
0100
0010
0001
0010
0001
0100
0001
0100
0010
0100
0001
,
0010
0100
1000
0100
1000
0001
1000
0001
0100
0001
0100
0010
0100
0010
1000
0100
,
0010
0000
0100
0000
0020
0000
0030
0000
0001
0000
0100
0020
0030
0000
0000
0000
,
1000
0000
0010
0000
0200
0000
0300
0000
0001
0000
0100
0020
0030
0000
0000
0000
,
1000
0010
1000
0010
0100
0010
0100
0001
0100
0001
0010
0001
0010
0100
1000
0010
,
0100
0000
0000
0001
0000
0000
0100
0000
0000
0001
0000
0000
1000
0000
0000
0001
0000
0000
1000
0000
0000
0100
0000
0000
1000
0000
0000
0100
0000
0000
0010
0000
0000
0001
0000
0000
0100
0000
0001
0000
0100
0000
0001
0000
0100
0000
0001
0000
,
0100
0000
0010
0000
2000
0000
3000
0000
0100
0000
0010
0002
0003
0000
0000
0000
,
0100
0000
0010
0000
2000
0000
3000
0000
0100
0000
0010
0002
0003
0000
0000
0000
,
1000
0010
1000
0100
1000
0001
0010
0001
1000
0100
0010
0001
1000
0100
1000
0010
1000
0001
0100
0001
1000
0010
0100
0001
,
1000
0010
1000
0100
1000
0001
0010
0001
1000
0100
0010
0001
1000
0100
1000
0010
1000
0001
0100
0001
1000
0010
0100
0001
,
1000
0000
0010
0000
0200
0000
0300
0000
0001
0000
0010
0200
0300
0000
0000
0000
,
1000
0000
0100
0000
0020
0000
0030
0000
0001
0000
0100
0020
0030
0000
0000
0000
,
1000
0100
1000
0010
1000
0001
0100
0001
1000
0010
0100
0001
1000
0010
1000
0100
1000
0001
0010
0001
1000
0100
0010
0001
,
1000
0100
1000
0010
1000
0001
0100
0001
1000
0010
0100
0001
1000
0010
1000
0100
1000
0001
0010
0001
1000
0100
0010
0001
,
1000
0001
1000
0010
1000
0001
0100
0010
1000
0001
0010
0001
1000
0100
0010
0100
,
M0MM
0100
0001
1000
0010
1000
0001
0010
0100
0010
0001
1000
0001
0100
0010
0100
,
M0MM
0100
0010
0001
1000
0001
0100
0010
0100
0001
1000
0010
1000
0001
1000
0100
,
M0MM
0100
0001
1000
0010
1000
0001
1000
0100
0010
0100
1000
0001
0100
0001
1000
,
0010
0100
0001
1000
0010
1000
0001
1000
0100
0010
0000
0001
0400
0000
0000
0000
,
0301
1000
0010
0100
0010
1000
0100
0010
0001
1000
0001
0100
0001
0010
0100
1000
0001
1000
0010
0100
0001
0010
0100
1000
,
0001
1000
0010
0100
0010
1000
0100
0010
0001
1000
0001
0100
0001
0010
0100
1000
0001
1000
0010
0100
0001
0010
0100
1000
,
0001
0100
0001
0010
0001
1000
0010
0100
0010
1000
0001
0010
0001
0100
0001
1000
0100
0010
0100
1000
0001
0100
0001
0010
,
0001
1000
0010
0100
0010
1000
0001
0010
0001
0100
0001
1000
0100
0010
0100
1000
0001
0100
0001
0010
0001
1000
0100
1000
,
0001
1000
0100
0010
0100
1000
0010
0100
0001
1000
0001
0010
0001
0100
0010
1000
0001
1000
0100
0010
0001
0100
0010
1000
,
0001
1000
0100
0010
0100
1000
0010
0100
0001
1000
0001
0010
0001
0100
0010
1000
0001
1000
0100
0010
0001
0100
0010
1000
,
0001
0010
0001
0100
0001
1000
0100
0010
0100
1000
0001
0100
0001
0010
0001
1000
0010
0100
0010
1000
0001
0010
0001
0100
,
0001
1000
0100
0010
0100
1000
0001
0100
0001
0010
0001
1000
0010
0100
0010
1000
0001
0010
0100
1000
0100
1000
0100
1000
,
0002
0000
0013
0100
1000
0001
0010
0100
M0MM
0100
0010
1000
0001
0000
0100
0000
,
0001
0000
0100
0010
1000
0001
0100
0010
MM0M
0010
0100
1000
0001
0000
0010
0000
,
0001
0000
0010
0100
1000
0001
0010
0100
M0MM
0100
0010
1000
0001
0000
0100
0000
,
0001
0000
0100
0010
1000
0001
0100
0010
MM0M
0010
0100
1000
0001
0000
0010
0000
,
0100
0010
0100
0010
MM0M
0010
1000
0001
0010
0100
1000
0001
1000
0100
0010
0001
,
0100
0010
0100
0010
MM0M
0010
0001
1000
0010
0100
0001
1000
0001
0100
0010
1000
,
0100
0010
0100
0010
MM0M
0010
1000
0001
0010
0100
1000
0001
1000
0100
0010
0001
,
0100
0010
0100
0010
MM0M
0010
0001
1000
0010
0100
0001
1000
0001
0100
0010
1000
,
0100
0010
0100
0010
MM0M
0010
1000
0001
0010
0100
1000
0001
1000
0100
0010
0001
,
0100
0010
0100
0010
MM0M
0010
0001
1000
0010
0100
0001
1000
0001
0100
0010
1000
,
0100
0010
0100
0010
MM0M
0010
1000
0001
0010
0100
1000
0001
1000
0100
0010
0001
,
0100
0010
0100
0010
MM0M
0010
0001
1000
0010
0100
0001
1000
0001
0100
0001
1000
,
0100
0000
0000
0000
0000
0000
0010
0000
0000
0001
0000
0000
0100
0000
0000
0000
0000
0000
0010
0000
0000
1000
0000
0000
0100
0000
0000
0000
0000
0000
0010
0000
0000
0001
0000
0000
1000
0000
0100
0000
1000
0000
0100
0000
1000
0000
0100
0000
,
2000
3010
0000
0000
;

//---------------dance-single - Mad Matt----------------
#NOTES:
     dance-single:
     Mad Matt:
     Challenge:
     20:
     1.000,1.000,0.018,0.303,1.000,1380.000,2.000,34.000,9.000,0.000:

0000
0000
0000
0000
,
0000
0000
0000
0000
,
0001
0000
0010
0000
0200
0000
0300
0000
1000
0000
0010
0200
0300
0000
0000
0000
,
0001
0000
0010
0000
0200
0000
0300
0000
1000
0000
0010
0200
0300
0000
0000
0000
,
0001
0000
1000
0000
0200
0000
0300
0000
1000
0000
0001
0200
0300
0000
0000
0000
,
0001
0000
1000
0000
0020
0000
0030
0000
1000
0000
0001
0020
0030
0000
0000
0000
,
0001
0000
0100
0000
0020
0000
0030
0000
1000
0000
0100
0020
0030
0000
0000
0000
,
0001
0000
0100
0000
0020
0000
0030
0000
1000
0000
0100
0020
0030
0000
0000
0000
,
0001
0000
0010
0000
0200
0000
0300
0000
1000
0000
0100
0020
0030
0000
0000
0000
,
0001
0000
0000
0000
0000
0000
0100
0000
0000
0000
0000
0000
0010
0000
0000
0000
0000
0000
0000
0000
0000
0000
0000
0000
1000
0000
0000
0000
0000
0000
0010
0000
0000
0100
0000
0000
0001
0000
0100
0000
0001
0000
0100
0000
0001
0000
0100
0000
,
0002
0000
2003
3000
0400
0000
0000
0000
,
1300
0001
0010
0100
1000
0100
0010
0001
0100
0001
1000
0001
1000
0100
0010
0001
0010
0100
1000
0010
1000
0001
0100
0001
,
1000
0001
0010
0100
1000
0100
0010
0001
0100
0001
1000
0001
1000
0100
0010
0001
0010
0100
1000
0010
1000
0001
0100
0001
,
1000
0100
1000
0010
1000
0001
0010
0100
0010
0001
1000
0010
1000
0100
1000
0001
0100
0010
0100
0001
1000
0100
1000
0010
,
1000
0001
0010
0100
0010
0001
1000
0010
1000
0100
1000
0001
0100
0010
0100
0001
1000
0100
1000
0010
1000
0001
0100
0001
,
1000
0010
0100
0001
0100
0010
1000
0100
1000
0001
1000
0001
0100
0010
1000
0010
0100
0001
0010
0001
1000
0100
1000
0001
,
1000
0010
0100
0001
0100
0010
1000
0100
1000
0001
1000
0001
0100
0010
1000
0010
0100
0001
0010
0001
1000
0100
0010
0001
,
1000
0010
1000
0100
1000
0001
0100
0010
0100
0001
1000
0100
1000
0010
1000
0001
0010
0100
0010
0001
1000
0010
1000
0100
,
1000
0001
0100
0010
0100
0001
1000
0100
1000
0010
1000
0001
0010
0100
0010
0001
1000
0010
0100
0001
0100
0001
0100
0001
,
1000
0100
0010
0001
1000
0001
0100
0010
1000
0100
1000
0001
1000
0001
0100
0010
1000
0100
1000
0001
0100
0010
0100
0001
,
1000
0010
0100
0001
1000
0001
0010
0100
1000
0010
1000
0001
1000
0001
0010
0100
1000
0010
1000
0001
0010
0100
0010
0001
,
1000
0100
0010
0001
1000
0001
0100
0010
1000
0100
1000
0001
1000
0001
0100
0010
1000
0100
1000
0001
0100
0010
0100
0001
,
1000
0010
0100
0001
1000
0001
0010
0100
1000
0010
1000
0001
1000
0001
0010
0100
1000
0010
1000
0001
0010
0100
0010
0001
,
1000
0100
1000
0001
0100
0001
0100
0010
1000
0001
1000
0100
1000
0001
0100
0010
0100
0001
1000
0100
1000
0001
0100
0010
,
1000
0001
0010
0001
0010
0100
1000
0001
1000
0100
1000
0001
0100
0010
1000
0001
1000
0100
1000
0001
0100
0010
1000
0001
,
1000
0100
1000
0001
0100
0001
0100
0010
1000
0001
1000
0100
1000
0001
0100
0010
0100
0001
1000
0100
1000
0001
0100
0010
,
1000
0001
0010
0001
0010
0100
1000
0001
1000
0100
1000
0001
0100
0010
1000
0001
1000
0100
1000
0001
0100
0010
1000
0001
,
1000
0100
1000
0001
0010
0001
1000
0010
1000
0001
0100
0010
1000
0001
1000
0100
1000
0001
0100
0001
0100
0001
0100
0001
,
0100
0000
0001
0010
0100
0010
0100
1000
0100
1000
0010
1000
0010
0100
0001
0010
,
0100
1000
0100
1000
0001
1000
0001
0100
0001
0100
0010
0100
0010
1000
0100
0010
,
0001
0100
0010
0100
0010
1000
0001
1000
0001
0010
0001
0010
0100
0010
0100
1000
,
0010
0100
0010
0100
0001
0100
0001
0010
0001
0010
0100
0010
0100
1000
0010
1000
,
0200
0300
0010
0000
0001
0000
0010
0000
0001
0000
0100
0000
0001
0000
0100
0000
0010
0000
0100
0000
0010
0000
1000
0000
0010
0000
1000
0000
0100
0000
0010
0000
,
0001
1000
0001
1000
0100
1000
0100
0010
0100
0010
0001
0010
0001
0100
0001
0010
,
0100
1000
0100
1000
0010
1000
0010
0100
0010
0100
0001
0100
0001
0010
0100
1000
,
0010
0000
0000
0100
0000
0000
0001
0000
0000
0100
0000
0000
0001
0000
0000
0010
0000
0000
0001
0000
0000
0010
0000
0000
0100
0000
0000
0010
0000
0000
0100
0000
0000
1000
0000
0000
0001
0000
1000
0000
0001
0000
1000
0000
0001
0000
1000
0000
,
0001
0000
0010
0000
0200
0300
0000
0000
1000
0000
0010
0200
0300
0000
0000
0000
,
0001
0000
0100
0000
0020
0000
0030
0000
1000
0000
0100
0020
0030
0000
0000
0000
,
0001
0100
0001
0100
0010
0100
0010
1000
0010
1000
0100
1000
0100
0010
0100
1000
,
0010
0100
0001
0100
0001
1000
0001
1000
0100
1000
0100
0010
0100
0010
0001
0100
,
0010
0000
0100
0000
0020
0000
0030
0000
1000
0000
0100
0020
0030
0000
0000
0000
,
0001
0000
0010
0000
0200
0000
0300
0000
1000
0000
0100
0020
0030
0000
0000
0000
,
0001
0010
0001
0010
0100
0010
0100
1000
0100
1000
0010
1000
0010
0100
0001
0010
,
0100
0000
0000
1000
0000
0000
0100
0000
0000
1000
0000
0000
0001
0000
0000
1000
0000
0000
0001
0000
0000
0100
0000
0000
0001
0000
0000
0100
0000
0000
0010
0000
0000
1000
0000
0000
0100
0000
1000
0000
0100
0000
1000
0000
0100
0000
1000
0000
,
0100
0000
0010
0000
0002
0000
0003
0000
0100
0000
0010
2000
3000
0000
0000
0000
,
0100
0000
0010
0000
0002
0000
0003
0000
0100
0000
0010
2000
3000
0000
0000
0000
,
0001
0010
0001
0100
0001
1000
0010
1000
0001
0100
0010
1000
0001
0100
0001
0010
0001
1000
0100
1000
0001
0010
0100
1000
,
0001
0010
0001
0100
0001
1000
0010
1000
0001
0100
0010
1000
0001
0100
0001
0010
0001
1000
0100
1000
0001
0010
0100
1000
,
0001
0000
0010
0000
0200
0000
0300
0000
1000
0000
0010
0200
0300
0000
0000
0000
,
0001
0000
0100
0000
0020
0000
0030
0000
1000
0000
0100
0020
0030
0000
0000
0000
,
0001
0100
0001
0010
0001
1000
0100
1000
0001
0010
0100
1000
0001
0010
0001
0100
0001
1000
0010
1000
0001
0100
0010
1000
,
0001
0100
0001
0010
0001
1000
0100
1000
0001
0010
0100
1000
0001
0010
0001
0100
0001
1000
0010
1000
0001
0100
0010
1000
,
0001
0100
0001
0010
0001
1000
0100
0010
0001
1000
0010
1000
0001
0100
0010
0100
,
M0MM
0100
1000
0001
0010
0001
1000
0010
0100
0010
1000
0001
1000
0100
0010
0100
,
M0MM
0100
0010
1000
0001
1000
0100
0010
0100
1000
0001
0010
0001
1000
0001
0100
,
M0MM
0100
1000
0001
0010
0001
1000
0001
0100
0010
0100
0001
1000
0100
1000
0001
,
0010
0100
1000
0001
0010
0001
1000
0001
0100
0010
0000
0000
0400
0000
0000
0000
,
0301
1000
0010
0100
0001
0100
0010
1000
0100
1000
0001
1000
0001
0100
0010
1000
0010
0100
0001
0010
0001
1000
0100
1000
,
0001
1000
0010
0100
0001
0100
0010
1000
0100
1000
0001
1000
0001
0100
0010
1000
0010
0100
0001
0010
0001
1000
0100
1000
,
0001
0100
0001
0010
0001
1000
0010
0100
0010
1000
0001
0010
0001
0100
0001
1000
0100
0010
0100
1000
0001
0100
0001
0010
,
0001
1000
0010
0100
0010
1000
0001
0010
0001
0100
0001
1000
0100
0010
0100
1000
0001
0100
0001
0010
0001
1000
0100
1000
,
0001
0010
0100
1000
0100
0010
0001
0100
0001
1000
0001
1000
0100
0010
0001
0010
0100
1000
0010
1000
0001
0100
0001
1000
,
0001
0010
0100
1000
0100
0010
0001
0100
0001
1000
0001
1000
0100
0010
0001
0010
0100
1000
0010
1000
0001
0100
0010
1000
,
0001
0010
0001
0100
0001
1000
0100
0010
0100
1000
0001
0100
0001
0010
0001
1000
0010
0100
0010
1000
0001
0010
0001
0100
,
0001
1000
0100
0010
0100
1000
0001
0100
0001
0010
0001
1000
0010
0100
0010
1000
0001
0010
0100
1000
0100
1000
0100
1000
,
0001
0100
0010
1000
0001
1000
0100
0010
0001
0100
0001
1000
0001
1000
0100
0010
0001
0100
0001
1000
0100
0010
0100
1000
,
0001
0010
0100
1000
0001
1000
0010
0100
0001
0010
0001
1000
0001
1000
0010
0100
0001
0010
0001
1000
0010
0100
0010
1000
,
0001
0100
0010
1000
0001
1000
0100
0010
0001
0100
0001
1000
0001
1000
0100
0010
0001
0100
0001
1000
0100
0010
0100
1000
,
0001
0010
0100
1000
0001
1000
0010
0100
0001
0010
0001
1000
0001
1000
0010
0100
0001
0010
0001
1000
0010
0100
0010
1000
,
0001
0100
0001
1000
0100
1000
0100
0010
0001
1000
0001
0100
0001
1000
0100
0010
0100
1000
0001
0100
0001
1000
0100
0010
,
0001
1000
0010
1000
0010
0100
0001
1000
0001
0100
0001
1000
0100
0010
0001
1000
0001
0100
0001
1000
0100
0010
0001
1000
,
0001
0100
0001
1000
0100
1000
0100
0010
0001
1000
0001
0100
0001
1000
0100
0010
0100
1000
0001
0100
0001
1000
0100
0010
,
0001
1000
0010
1000
0010
0100
0001
1000
0001
0100
0001
1000
0100
0010
0001
1000
0001
0100
0001
1000
0100
0010
0001
1000
,
0001
0100
0001
1000
0100
1000
0100
0010
0001
1000
0001
0100
0001
1000
0100
0010
0100
1000
0001
0100
0001
1000
0100
0010
,
0001
1000
0010
1000
0010
0100
0001
1000
0001
0100
0001
1000
0100
0010
0001
1000
0001
0100
0001
1000
0100
0010
0001
1000
,
0001
0100
0001
1000
0100
1000
0100
0010
0001
1000
0001
0100
0001
1000
0100
0010
0100
1000
0001
0100
0001
1000
0100
0010
,
0001
1000
0010
1000
0010
0100
0001
1000
0001
0100
0001
1000
0100
0010
0001
1000
0001
0100
0001
1000
0100
0010
0001
1000
,
0001
0100
0001
1000
0010
1000
0001
0010
0001
1000
0100
0010
0001
1000
0001
0100
0001
1000
0100
1000
0100
1000
0100
1000
,
0200
0310
0000
0000
;
