#TITLE:R.O.D (TV Opening Remix);
#SUBTITLE:- Read Or Die TV;
#ARTIST:YKZ;
#TITLETRANSLIT:;
#SUBTITLETRANSLIT:;
#ARTISTTRANSLIT:;
#CREDIT:;
#BANNER:R.O.D banner.png;
#BACKGROUND:R.O.D- bg.png;
#LYRICSPATH:;
#CDTITLE:KOA_cdtitle.png;
#MUSIC:17 R.O.D.mp3;
#OFFSET:-0.360;
#SAMPLESTART:81.403;
#SAMPLELENGTH:23.500;
#SELECTABLE:YES;
#BPMS:0.000=130.030,37.750=65.015,38.750=130.030,44.750=65.015,45.750=130.030,248.000=65.015,250.000=130.030;
#STOPS:90.000=0.231
,90.500=0.231
,91.000=0.231
,91.500=0.231
,318.125=0.115
,318.375=0.115
,318.583=0.038
,318.833=0.077
,319.083=0.038
,319.333=0.077
,319.583=0.038
,477.000=1.384
;
#BGCHANGES:;
// cache tags:
#FIRSTBEAT:16.000;
#LASTBEAT:573.000;
#SONGFILENAME:Songs/Otaku's Dream 1st Anime Mix/koa5001 - R.O.D/R.O.D.sm;
#HASMUSIC:1;
#HASBANNER:1;
#MUSICLENGTH:271.272;
// end cache tags

//---------------dance-single - ----------------
#NOTES:
     dance-single:
     :
     Hard:
     8:
     0.496,0.791,0.107,0.446,0.431,792.000,29.000,121.000,0.000,0.000:
0000
0000
0000
0000
,
0000
0000
0000
0000
,
0000
0000
0000
0000
,
0000
0000
0000
0000
,
0200
0000
0000
0020
0000
0000
0000
0330
,
0001
0000
0000
0100
0000
0000
0010
0000
1000
0000
0000
0100
0000
0000
0010
0000
,
0002
0000
0000
2000
0000
0000
0000
0000
,
0000
0000
0000
0000
0000
0000
0000
3003
,
0010
0000
0010
0000
1000
0000
0000
0001
0000
0100
0000
0010
1000
0000
0001
0000
,
1000
0000
1000
0000
0001
0000
0000
1000
0000
0000
0000
0000
0100
0000
0100
0000
,
0010
0000
0000
0001
0000
0100
0000
0010
1000
0000
0001
0000
0100
0000
0100
0000
,
0001
0000
0000
1000
0000
0000
0000
0000
0010
0000
0010
0000
0100
0000
0000
0010
,
0000
1000
0000
0100
0010
0000
0001
0000
1000
0000
1000
0000
0100
0000
0000
1000
,
0000
0010
0000
0100
0001
0000
0010
0000
0100
0000
0100
0000
1000
0000
0000
0001
,
0000
0100
0000
0010
1000
0000
0001
0000
2000
0000
0000
0000
0000
0000
0000
0000
,
0000
0000
0000
0000
0000
0000
3000
0000
0001
0000
0100
0010
0100
0000
0010
0000
,
1000
0000
0001
0100
0001
0000
0010
0000
0100
0000
1000
0010
1000
0000
0001
0000
,
0100
0000
0001
0010
0001
0000
0000
0000
0100
0000
0001
1000
0001
0000
0010
0000
,
0100
0000
1000
0010
1000
0000
0001
0000
1000
0000
0100
0010
0100
0000
0010
0000
,
0001
1000
0000
0001
0000
0001
0000
0000
0010
0000
0100
1000
0100
0000
1000
0000
,
0010
0000
0100
0001
0100
0000
0010
0000
1000
0000
0001
0010
0001
0000
0100
0000
,
0010
0000
1000
0100
1000
0000
0000
0000
0001
0000
0001
0000
1000
0000
0000
0100
,
0000
0010
0000
0001
0100
0000
0010
0000
2002
0000
0000
0000
0000
0000
3003
0000
,
0100
0010
0000
0200
0000
0000
0000
2000
0000
0000
0000
0000
0000
0000
3300
0000
,
0001
0010
0000
0100
0000
1000
0000
0010
0000
0100
0000
0001
0000
1000
0000
0000
,
0010
0100
0000
0020
0000
0000
0000
0200
0000
0000
0000
0000
0000
0000
0330
0000
,
0000
2002
0000
0000
0000
0000
0000
0000
0000
0000
0000
0000
0000
0000
3003
0000
,
0100
0010
0000
0002
0000
0000
0000
0100
0000
0020
0000
0000
0000
0000
0033
0000
,
1000
0100
0000
0010
0000
0001
0000
0100
0000
0010
0000
1000
0000
0001
0000
0000
,
0100
0010
0000
2000
0000
0000
0000
0100
0000
0020
0000
0000
0000
0000
3030
0000
,
0000
2002
0000
0000
0000
0000
0000
0000
0000
0000
0000
0000
0000
0000
3003
0000
,
0020
0000
0000
0200
0000
0000
0000
0330
,
0001
0000
0000
0100
0000
0000
1000
0000
0100
0000
0000
0001
0000
0000
1000
0000
,
0200
0000
0000
0020
0000
0000
0000
0330
,
0001
0000
1000
0000
0001
0100
0000
0010
0000
1000
0000
0100
0010
0001
0000
0000
,
0200
0000
0000
0020
0000
0000
0000
0330
,
1000
0000
0000
0100
0000
0000
0001
0000
0100
0000
0000
1000
0000
0000
0001
0000
,
0020
0000
0000
0200
0000
0000
0000
0330
,
1000
0000
0001
0000
1000
0100
0000
0010
0000
0001
0000
0100
0010
1000
0000
0000
,
0001
0000
0010
0000
0100
0000
1000
0000
0000
0001
0000
0100
0010
0000
0000
0000
,
1000
0000
0100
0000
0010
0000
0001
0000
0000
0100
0000
0010
1000
0000
0000
0000
,
0100
0000
0010
0000
0100
0000
1000
0000
0000
0001
0000
1000
0001
0000
0000
0000
,
1000
0000
0010
0000
1000
0000
0001
0000
0000
0100
0000
0010
0100
0000
0000
0000
,
0001
0000
0001
0000
1000
0000
0001
0000
0000
1000
0000
0001
1000
0000
0000
0000
,
0100
0000
0100
0000
0010
0000
0100
0000
0000
0010
0000
0100
0010
0000
0000
0000
,
0001
0000
0100
0000
0010
0000
1000
0000
0000
0100
0000
0010
0001
0000
0000
0000
,
0100
0000
0010
0000
1000
0001
0000
0000
0001
1000
0000
0000
1000
0001
0000
0000
,
0020
0000
0000
0200
0000
0000
0000
0330
,
1000
0000
0000
0010
0000
0000
0001
0000
0010
0000
0000
1000
0000
0000
0100
0000
,
0020
0000
0000
0002
0000
0000
0000
0033
,
0100
0000
0100
0000
0010
1000
0000
0001
0000
1000
0000
0001
1000
0010
0000
0000
,
2000
0000
0000
0002
0000
0000
0000
3003
,
0100
0000
0000
0010
0000
0000
1000
0000
0001
0000
0000
1000
0000
0000
0010
0000
,
0200
0000
0000
0002
0000
0000
0000
0303
,
1000
0000
1000
0000
0001
0100
0000
0010
0000
0100
0000
0010
1000
0001
0000
0000
,
0100
0000
0100
0000
0001
1000
0000
0001
0000
1000
0000
0100
0010
0000
0001
0000
,
1000
0000
1000
0000
0010
0100
0000
0001
0000
0010
0000
0001
1000
0010
0000
0000
,
1000
0000
1000
0000
0001
0100
0000
0010
0000
1000
0000
0001
1000
0000
0100
0000
,
0010
0000
0010
0000
0001
1000
0000
0000
0010
0100
0000
0000
0001
1000
0000
0000
,
0001
0000
0001
0000
1000
0100
0000
0001
0000
0100
0000
1000
0001
0000
0100
0000
,
0010
0000
0010
0000
1000
0001
0000
0100
0000
1000
0000
0100
0001
1000
0000
0000
,
0100
0000
0100
0000
0010
0100
0000
1000
0000
0001
0000
0100
0010
0000
0100
0000
,
2002
0000
0000
3003
0100
0010
1000
0010
,
0100
0010
1000
0100
0010
0001
0100
0010
,
0100
0001
0100
0010
1000
0001
1000
0100
,
1000
0001
1000
0100
0010
0001
0100
0001
,
1000
0001
0100
0001
1000
0100
0001
0100
,
1000
0001
0100
1000
0100
0001
0010
0100
,
1000
0010
0100
0001
1000
0010
0001
0010
,
1000
0100
0010
0001
0100
0010
1000
0001
,
0100
0000
0000
0000
0010
0000
0000
0000
2000
0000
0000
0000
0010
0000
0000
0100
,
0000
0000
0000
0000
3010
0000
0000
0000
0002
0000
0000
0000
0100
0000
0000
0010
,
0000
0103
2002
0000
,
0000
0000
0000
0000
3003
0000
0000
0000
0010
0000
0100
0000
0001
1000
0000
0100
,
0000
0001
0000
0100
1000
0001
0000
0000
0200
0000
0000
0000
0001
0000
0000
1000
,
0000
0000
0000
0000
0301
0000
0000
0000
0020
0000
0000
0000
0001
0000
0000
1000
,
0000
0031
2002
0000
,
0000
0000
0000
0000
3003
0000
0000
0000
0010
0000
0100
0000
1000
0001
0000
0100
,
0000
1000
0000
0001
1000
0001
0000
0000
0220
0000
0000
0000
0000
0000
0000
0000
,
0000
0000
0000
0000
0000
0000
0000
0000
0000
0000
0000
0000
0330
0000
0000
0000
0000
0000
0000
0000
0000
0000
0000
0000
1000
0000
0000
0001
0000
0000
0010
0000
0100
0000
0000
0000
0001
0000
1000
0000
0000
0000
1000
0000
0001
0000
0000
0000
,
0000
0000
0000
0000
1000
0010
0000
0000
1000
0000
0001
0000
0000
0000
1000
0000
,
0000
0000
0100
0000
0010
0001
0000
0000
0100
0000
0010
0000
2000
0000
3000
0000
,
0002
0000
0003
0000
0010
0100
0000
0000
1000
0000
0001
0000
0000
0000
1000
0000
,
0000
0000
0001
0000
0100
0010
0000
0000
1000
0000
0001
0000
0020
0000
0030
0000
,
0200
0000
0300
0000
1000
0100
0000
0000
0001
0000
0100
0000
0000
0000
1000
0000
,
0000
0000
0001
0000
0100
1000
0000
0000
0100
0000
0001
0000
2000
0000
3000
0000
,
0020
0000
0030
0000
1000
0001
0000
0000
1000
0000
0100
0000
0000
0000
0010
0000
,
0000
0000
0100
0000
0010
0001
0000
0000
0100
0000
0010
0000
2000
0000
3000
0000
,
0002
0000
0003
0000
0100
0010
0100
0000
0001
0000
1000
0000
0000
0000
0100
0000
,
0000
0000
0010
0000
0100
1000
0100
0000
1000
0000
0001
0000
0200
0000
0000
0000
,
0020
0000
0330
0000
1000
0001
1000
0000
0001
0000
0100
0000
0000
0000
0010
0000
,
0000
0000
1000
0000
0001
1000
0001
0000
0010
0000
0100
0000
2000
0000
0000
0000
,
0002
0000
3003
0000
1000
0010
1000
0000
0001
0000
1000
0000
0000
0000
0010
0000
,
0000
0000
0100
0000
0001
0010
0001
0000
1000
0000
0100
0000
0020
0000
0000
0000
,
0002
0000
0033
0000
1000
0100
1000
0000
0001
0000
0100
0000
0010
0000
0100
0000
,
0001
0000
1000
0000
0001
0100
0001
0000
1000
0000
0100
0000
0010
0000
0010
0000
,
0010
0000
0000
0000
0001
0000
0100
0010
0000
0000
1000
0000
0010
0000
1000
0100
,
0000
0000
0010
0000
0001
0000
1000
0001
0000
0000
1000
0000
0101
0000
0000
0000
,
1010
0000
0000
0000
0001
0000
1000
0010
0000
0000
1000
0000
0010
0000
0100
0001
,
0000
0000
1000
0000
0001
0000
0010
0100
0000
0000
1000
0000
0011
0000
0000
0000
,
1100
0000
0000
0000
0001
0000
0100
0010
0000
0100
0010
0000
1000
0000
0100
0010
,
0000
0100
0010
0000
0100
0000
1000
0001
0000
1000
0001
0000
0110
0000
0000
0000
,
1001
0000
0000
0000
0010
0000
1000
0100
0000
1000
0100
0000
0010
0000
0001
0100
,
0000
0001
0100
0000
0010
0000
1000
0001
0000
1000
0001
0000
0100
0000
0100
0010
,
0000
0010
0000
0000
2010
0000
0010
0000
0010
0000
0020
0000
0000
0000
0000
0000
,
3030
0000
0000
0000
0100
0000
0001
1000
0000
0001
1000
0000
0000
0000
0100
0000
,
0010
0000
1200
1000
1000
2000
0000
0000
,
3300
0000
0000
0000
0010
0000
0001
0100
0000
0010
1000
0000
0000
0000
0001
0000
,
1000
0000
0021
0001
0001
0002
0000
0000
,
0033
0000
0000
0000
1000
0000
0100
0010
0000
0100
0010
0000
0000
0000
0001
0000
,
1000
0000
0201
0001
0001
0002
0000
0303
,
0000
0010
0000
0100
0000
0010
0000
1000
,
0001
0000
0200
0000
0000
0020
0000
0000
,
0330
0000
0000
0000
1000
0000
0000
0100
0000
0000
0001
0000
0100
0000
0000
1000
,
0000
0001
2000
0000
0000
0002
0000
0000
,
3003
0220
0000
0000
,
0330
0000
0002
0000
0000
2000
0000
0000
,
3003
0000
0000
0000
0001
0000
0000
0010
0000
0000
1000
0000
0010
0000
0000
0001
,
0000
1000
0020
0000
0000
0200
0000
0000
,
0330
0000
0000
0000
0002
0000
0000
0020
,
0000
0000
0000
0000
0033
0000
0000
0000
0100
0000
0000
0010
0000
0000
1000
0000
,
0001
0000
0000
0010
0000
0000
0100
0000
2000
0000
0000
0000
0000
0000
0020
0000
,
0000
3030
0202
0000
,
0000
0000
0303
0000
2000
0000
0000
0200
,
0000
0000
0000
0000
3300
0000
0000
0000
1000
0000
0000
0010
0000
0000
0100
0000
,
0001
0000
0000
1000
0000
0000
0001
0000
0200
0000
0000
0000
0000
0000
0020
0000
,
0000
0330
2002
0000
,
0000
0000
3003
0000
0200
0000
0000
0020
,
0000
0000
0000
0000
0330
0000
0000
0000
1000
0000
0000
0100
0000
0000
0010
0000
,
0001
0000
0000
0100
0000
0000
0010
0000
1000
0000
0000
0001
1000
0001
0000
0010
,
0000
0001
1000
0001
0100
0001
1000
0001
0100
0001
1000
0000
0100
0010
0000
0001
,
0000
0100
0010
1000
0001
1000
0010
0000
2000
0000
0000
0000
0000
0000
0002
0000
,
0000
0000
0000
0000
3003
0000
0000
0000
2200
0000
3300
0220
0000
0330
0022
0033
,
0202
0000
0303
0220
0000
0330
2020
3030
2002
0000
0000
0000
3003
0000
0220
0000
,
0000
0000
0000
0000
0000
0330
0000
0000
2002
0000
0000
0000
0000
0000
0000
0000
,
0000
0000
3003
0000
0200
0000
0000
0020
,
0000
0000
0000
0000
0330
0000
0000
0000
1000
0000
0000
0010
0000
0000
1000
0000
,
0001
0000
0000
0010
0000
0000
0001
0000
2000
0000
0000
0000
0000
0000
0000
0200
,
0000
0000
0000
0000
3300
0000
0000
0000
0010
0000
0001
0000
1000
0010
0000
0000
,
0100
0001
0000
0000
1000
0100
1000
0000
0002
0000
0000
0000
0000
0000
2000
0000
,
0000
0000
0000
0000
3003
0000
0000
0000
0100
0000
0000
0010
0000
0000
1000
0000
,
0100
0000
0000
0000
0000
0000
0000
0000
0000
0001
0000
0000
0000
0000
0000
0000
0000
0000
0100
0000
0000
0000
0000
0000
2000
0000
0000
0000
0000
0000
0000
0000
0000
0000
0000
0000
0000
0000
0000
0000
0000
0000
0000
0000
0002
0000
0000
0000
,
0000
0000
0000
0000
,
3003
0000
0000
0000
;

//---------------dance-single - ----------------
#NOTES:
     dance-single:
     :
     Challenge:
     9:
     0.560,0.634,0.092,0.240,0.688,974.000,25.000,65.000,0.000,15.000:
0000
0000
0000
0000
,
0000
0000
0000
0000
,
0000
0000
0000
0000
,
0000
0000
0000
0000
,
2000
0000
0000
0002
0000
0000
0000
3003
,
0100
0000
0000
0010
0000
0000
1000
0000
0100
0000
0000
0001
0000
0000
0100
0000
,
2000
0000
0000
0002
0000
0000
0000
0000
,
0000
0000
0000
0000
0000
0000
0000
3003
,
0010
1000
0010
1000
0010
0000
0000
1000
0000
0001
0000
1000
0100
0000
0010
0001
,
0010
0001
0010
0001
1000
0000
0000
0001
0000
0000
0000
0000
1000
0100
1000
0100
,
1000
0000
0000
0001
0000
1000
0000
0100
0010
0000
0001
0100
0001
0100
0001
0100
,
0001
0000
0000
1000
0000
0000
0000
0000
0010
1000
0001
1000
0100
0000
0000
0001
,
0000
0100
0000
1000
0001
0000
1000
0010
1000
0100
1000
0010
1000
0000
0000
0001
,
0000
0100
0000
1000
0100
0000
0001
0010
0001
0100
0001
0010
0001
0000
0000
1000
,
0000
0001
0000
0100
0010
0000
1000
0000
0002
0000
0000
0000
0000
0000
0000
0000
,
0000
0000
0000
0000
0000
0000
0003
0000
1000
0000
1000
0000
0001
1000
0000
0010
,
0000
1000
0000
0100
0010
0000
0001
0000
0100
0000
0100
0000
0010
0100
0000
0001
,
0000
1000
0000
0001
1000
0010
0000
0000
0100
0000
0100
0000
0001
1000
0000
0010
,
0000
0100
0000
0001
1000
0000
0100
0000
0010
0000
0010
0000
0001
0100
0000
0010
,
0000
1000
0000
0001
1000
0100
0000
0000
1000
0000
1000
0000
0010
0100
0000
0001
,
0000
1000
0000
0001
0010
0000
0100
0000
0010
0000
0010
0000
0100
1000
0000
0001
,
0000
1000
0000
0001
0100
0010
0000
0000
0100
0000
0100
0000
0001
0000
0000
1000
,
0000
0001
0000
1000
0100
0000
0010
0000
0220
0000
0000
0000
0000
0000
0330
0000
,
0001
0000
0001
0000
0100
0000
0010
0000
0000
1000
0000
0001
1000
0000
0000
0000
,
0010
0000
0010
0000
0100
0001
0000
1000
0000
0001
0000
0100
0010
1000
0000
0000
,
0100
0000
0100
0000
1000
0000
0010
0000
0000
0100
0000
0001
1000
0000
0000
0000
,
0001
0000
0001
0000
1000
0010
0000
1000
0000
0001
0000
0100
0010
1000
0000
0000
,
0001
0000
0001
0000
1000
0000
0100
0000
0000
0010
0000
0001
0010
0000
0000
0000
,
0100
0000
0100
0000
1000
0001
0000
0010
0000
0100
0000
1000
0001
1000
0000
0000
,
0010
0000
0010
0000
0100
0000
0001
0000
0000
1000
0000
0001
1000
0000
0000
0000
,
0000
0010
0000
1000
0100
0010
0000
0001
0000
0100
0000
0000
0001
1000
0000
0000
,
0001
0100
0000
0100
0010
0000
0000
0000
1000
0010
0000
0010
0100
0000
0000
0000
,
0010
1000
0000
1000
0001
0000
1000
0000
0100
0010
0000
0010
0001
0000
0000
0000
,
1000
0010
0000
0010
1000
0000
0000
0000
0001
0100
0000
0100
0001
0000
0000
0000
,
0100
0000
0100
0000
0010
1000
0000
0001
0000
1000
0000
0100
0010
0001
0000
0000
,
1000
0010
0000
0010
0100
0000
0000
0000
0001
0010
0000
0010
0100
0000
0000
0000
,
1000
0001
0000
0001
1000
0000
0001
0000
0100
0010
0000
0010
0100
0000
0000
0000
,
0001
1000
0000
1000
0100
0000
0000
0000
1000
0001
0000
0001
0100
0000
0000
0000
,
0010
0000
0010
0000
0100
0001
0000
1000
0000
0001
0000
1000
0100
1000
0000
0000
,
0001
0100
0001
0100
0001
0000
0000
1000
0000
0001
0100
0001
0100
0000
0000
0000
,
0010
1000
0010
1000
0010
0000
0000
0100
0000
0010
1000
0010
1000
0000
0000
0000
,
0001
0010
0001
0010
0001
0000
0000
1000
0000
0001
0010
0001
0010
0000
0000
0000
,
0100
0000
0100
0000
1000
0001
0000
0100
0000
0010
0000
1000
0001
1000
0000
0000
,
0010
0100
0010
0100
0010
0000
0000
1000
0000
0010
0100
0010
0100
0000
0000
0000
,
0001
1000
0001
1000
0001
0000
0000
0010
0000
0001
1000
0001
1000
0000
0000
0000
,
0100
0010
0100
0010
0100
0000
0000
1000
0000
0100
0010
0100
0010
0000
0000
0000
,
0001
1000
0001
0100
0001
1000
0001
0100
0001
1000
0100
1000
0001
1000
0000
0000
,
0010
0000
0100
0001
0100
0000
0010
0000
0000
0000
0100
0001
0100
0000
0010
0000
,
0000
0000
0100
0001
0100
0000
0010
0000
0000
0000
0100
0001
0100
0000
0010
0000
,
0000
0000
1000
0100
1000
0000
0010
0000
0000
0000
1000
0100
1000
0000
0010
0000
,
0100
0000
0100
0000
0001
1000
0000
0100
0000
0010
0000
0001
0100
0001
0000
0000
,
0100
0000
0010
1000
0010
0000
0100
0000
0000
0000
0010
1000
0010
0000
0100
0000
,
0000
0000
0010
1000
0010
0000
0100
0000
0000
0000
0010
1000
0010
0000
0100
0000
,
0000
0000
0001
0010
0001
0000
0100
0000
0000
0000
0001
0010
0001
0000
0100
0000
,
0010
0000
0010
0000
1000
0001
0000
0010
0000
0100
0000
1000
0010
1000
0000
0000
,
0001
0010
0001
0010
0001
0000
0000
0100
0000
0010
0000
0000
0110
0000
0000
0000
,
1000
0100
1000
0100
1000
0000
0000
0001
0000
0100
0000
0000
0101
0000
0000
0000
,
0010
1000
0010
1000
0010
0000
0000
1000
0000
0001
0000
0000
1001
0000
0000
0000
,
0100
0001
0100
0001
0100
0000
0000
0010
0000
1000
0000
0001
0000
1000
0000
0000
,
0100
0010
0100
0010
0100
0000
0000
0010
0000
0001
0000
0000
0011
0000
0000
0000
,
0100
0010
0100
0010
0100
0000
0000
0010
0000
1000
0000
0000
1010
0000
0000
0000
,
0100
0001
0100
0001
0100
0000
0000
0001
0000
1000
0000
0000
0100
0000
0010
0000
,
0220
0000
0000
0330
1000
0010
1000
0100
,
1000
0010
1000
0100
0010
0001
0100
0001
,
0010
0001
0100
0001
1000
0100
1000
0001
,
1000
0100
1000
0001
0100
0010
0100
0010
,
1000
0100
0010
0001
0100
0010
1000
0100
,
0001
0100
1000
0001
1000
0010
0001
0010
,
1000
0001
0100
0010
0100
0001
0010
0100
,
1000
0001
0100
0001
1000
0100
0010
0001
,
0100
0010
2000
0000
,
0000
0200
0020
0000
,
0000
0000
0002
0000
,
0000
0000
0000
0000
3333
0000
0000
0000
0100
0000
0100
0000
1000
0001
0000
1000
,
0000
0010
0000
0100
0001
0100
0000
0000
0002
0000
0000
0000
0000
0000
0000
0000
,
0000
0200
0020
0000
,
0000
0000
2000
0000
,
0000
0000
0000
0000
3333
0000
0000
0000
0001
0000
0001
0000
0100
0010
0000
0000
,
0010
1000
0000
0000
1000
0001
0000
0000
0220
0000
0000
0000
0000
0000
0000
0000
,
0000
0000
0000
0000
0000
0000
0000
0000
0000
0000
0000
0000
0330
0000
0000
0000
0000
0000
0000
0000
0000
0000
0000
0000
1000
0000
0000
0001
0000
0000
1000
0000
0010
0000
0000
0000
1000
0000
0100
0000
0000
0000
0010
0000
0001
0000
0000
0000
,
0000
0000
0000
0000
0100
0010
0000
1000
0001
0000
1000
0000
0000
0000
0010
0000
,
0000
0000
0100
0000
0001
0100
0000
1000
0100
0000
0001
0000
1000
0000
0000
0000
,
0100
0000
0000
0000
0010
0001
0000
1000
0010
0000
1000
0000
0000
0000
0001
0000
,
0000
0000
0100
0000
0010
1000
0000
0100
0001
0000
0100
0000
1000
0000
0000
0000
,
0001
0000
0000
0000
0100
0010
0000
0100
0001
0000
1000
0000
0000
0000
0001
0000
,
0000
0000
1000
0000
0100
0010
0000
0001
0100
0000
0010
0000
1000
0000
0000
0000
,
0001
0000
0000
0000
1000
0010
0000
0100
0001
0000
0100
0000
0000
0000
0010
0000
,
0000
0000
0100
0000
0001
1000
0000
0010
0001
0000
0010
0000
1000
0000
0000
0000
,
0100
0000
0000
0000
0010
0001
0020
0000
0000
0000
0000
0000
0100
0000
0130
0000
,
0000
0000
1000
0000
0001
0100
0001
0000
0000
0000
0100
0000
0010
0000
0000
0000
,
0100
0000
0000
0000
0001
1000
0002
0000
0000
0000
0000
0000
0100
0000
0103
0000
,
0000
0000
0010
0000
1000
0010
1000
0000
0000
0000
0001
0000
0100
0000
0000
0000
,
0010
0000
0000
0000
1000
0100
2000
0000
0000
0000
0000
0000
0100
0000
3100
0000
,
0000
0000
0010
0000
0001
0010
0001
0000
0000
0000
1000
0000
0001
0000
0000
0000
,
0100
0000
0010
1000
0100
0010
0100
1000
,
0001
0000
0100
0000
0010
1000
0010
0000
1000
0000
0001
0000
0100
0000
0100
0000
,
0100
0000
0000
0000
0010
0000
0000
1010
0000
0000
1000
0000
0100
0000
0000
1100
,
0000
0000
0010
0000
0001
0000
0000
0011
0000
0000
0100
0000
0020
0000
0000
0000
,
0200
0000
0330
0000
0001
0000
0000
1001
0000
0000
0100
0000
0010
0000
0000
0110
,
0000
0000
1000
0000
0010
0000
0000
1010
0000
0000
0100
0000
0002
0000
0000
0000
,
2000
0000
3003
0000
0100
0000
0010
0001
0000
0000
0010
0000
0000
0000
0100
1000
,
0000
0000
0100
0000
0000
0000
1000
0001
0000
0000
1000
0000
0002
0000
0000
0000
,
0200
0000
0303
0000
0010
0000
1000
0010
0000
0000
1000
0000
0000
0000
0001
0100
,
0000
0000
0001
0000
0000
0000
1000
0100
0000
0000
1000
0000
0010
0000
0010
0100
,
0000
0100
0000
0000
2200
0000
0000
0000
0000
0000
0002
0000
0000
0000
0000
0000
,
3303
0000
0000
0000
0010
0000
0001
1000
0000
0001
1000
0000
0000
0000
0101
0000
,
1100
0000
0202
0000
0000
2000
0000
0000
,
3303
0000
0000
0000
0010
0000
1000
0100
0000
1000
0100
0000
0000
0000
0011
0000
,
1100
0000
0022
0000
0000
2000
0000
0000
,
3033
0000
0000
0000
0100
0000
0010
1000
0000
0010
1000
0000
0000
0000
0101
0000
,
1100
0000
0202
0000
0000
2000
0000
0000
,
3000
0010
0000
1000
0000
0010
0000
1000
,
0313
0000
2000
0000
0000
0002
0000
0000
,
3003
0000
0000
0000
0100
0000
0000
0010
0000
0000
1000
0000
0100
0000
0000
0001
,
0000
0100
2000
0000
0000
0002
0000
0000
,
0000
0020
0000
0000
,
3033
0000
0200
0000
0000
0020
0000
0000
,
0330
0000
0000
0000
1000
0000
0000
0010
0000
0000
0100
0000
0001
0000
0000
0010
,
0000
0100
2000
0000
0000
0002
0000
0000
,
3003
0000
0000
0000
0000
0000
0000
0000
1000
0100
1000
0100
1000
0000
0000
0010
,
0000
0100
0001
0100
0001
0000
0000
0000
1000
0010
1000
0010
1000
0000
0000
0100
,
0000
0010
0001
0010
0001
0000
0000
0000
0100
0010
0100
0010
0100
0000
0000
0010
,
0000
1000
0001
1000
0001
0000
0000
0000
1000
0001
1000
0010
1000
0001
1000
0010
,
1000
0001
0100
0010
1000
0100
0000
0000
0010
0001
0010
0001
0010
0000
0000
0100
,
0000
1000
0010
1000
0010
0000
0000
0000
0100
0001
0100
0001
0100
0000
0000
0010
,
0000
1000
0100
1000
0100
0000
0000
0000
1000
0001
1000
0001
1000
0000
0000
0001
,
0000
0010
0100
0010
0100
0000
0000
0000
1000
0010
1000
0100
1000
0010
1000
0100
,
0010
0001
0100
0001
0010
0001
0000
0000
0100
0010
0100
0010
0100
0000
0000
0001
,
0000
1000
0001
1000
0001
0000
0000
0000
1000
0100
1000
0100
1000
0000
0000
0010
,
0000
0100
0001
0100
0001
0000
0000
0000
1000
0000
0000
0010
0100
0001
0000
1000
,
0000
0001
0100
0001
0010
0001
0100
0001
0010
0100
1000
0000
0001
1000
0000
0010
,
0000
1000
0100
0001
0100
1000
0001
0000
0200
0000
0000
0000
0000
0000
0020
0000
,
0000
0000
0000
0000
0330
0000
0000
0000
0200
0000
0300
0002
0000
0003
0020
0030
,
0200
0000
0300
2000
0000
3000
0002
0003
0200
0000
0000
0000
0000
0000
0002
0000
,
0000
0000
2020
0000
,
0000
0000
0000
0000
3333
0000
0000
0000
0100
0000
0000
0010
0100
0000
0000
0001
,
0000
0001
0000
1000
0001
0000
1000
0000
0010
0000
0000
1000
0010
0000
0000
1000
,
0000
1000
0000
0001
1000
0000
0001
0000
0010
0000
0000
0100
0010
0000
0000
0100
,
0000
0100
0000
1000
0001
0000
1000
0000
0010
0000
0000
0100
0010
0000
0000
1000
,
0000
1000
0000
0001
1000
0001
0000
1000
0002
0000
0000
0000
0000
0000
2000
0000
,
0000
0000
0000
0000
3003
0000
0000
0000
0001
0000
0000
0100
0000
0000
0010
0000
,
1000
0000
0000
0000
0000
0000
0000
0000
0000
0100
0000
0000
0000
0000
0000
0000
0000
0000
0001
0000
0000
0000
0000
0000
0200
0000
0000
0000
0000
0000
0000
0000
0000
0000
0000
0000
0000
0000
0000
0000
0000
0000
0000
0000
2000
0000
0000
0000
,
0000
0000
0000
0000
,
0000
3300
0000
0000
;
