#TITLE:Game Over;
#SUBTITLE:;
#ARTIST:DJ Mad Dog and Amnesys;
#TITLETRANSLIT:;
#SUBTITLETRANSLIT:;
#ARTISTTRANSLIT:;
#CREDIT:Rynker;
#BANNER:../speedcore rejects ban.png;
#BACKGROUND:../speedcore rejects bg.png;
#LYRICSPATH:;
#CDTITLE:;
#MUSIC:DJ Mad Dog and Amnesys - Game Over.ogg;
#OFFSET:0.008;
#SAMPLESTART:68.474;
#SAMPLELENGTH:12.000;
#SELECTABLE:YES;
#BPMS:0.000=170.000;
#STOPS:;
#BGCHANGES:;
// cache tags:
#FIRSTBEAT:15.000;
#LASTBEAT:424.000;
#SONGFILENAME:Songs/Speedcore Rejects/Game Over - [Rynker]/game over.sm;
#HASMUSIC:1;
#HASBANNER:1;
#MUSICLENGTH:150.706;
// end cache tags

//---------------dance-single - Rynker----------------
#NOTES:
     dance-single:
     Rynker:
     Challenge:
     16:
     0.940,1.000,0.133,0.717,0.989,863.000,20.000,108.000,17.000,0.000:

0000
0000
0000
0000
,
0000
0000
0000
0000
,
0000
0000
0000
0000
,
0000
0000
0000
0000
0000
0000
0000
0000
0000
0000
0000
0000
1000
0001
1000
0001
,
1000
0000
0100
0000
0010
0000
0100
1000
0001
0000
0100
0000
0010
0000
0100
0000
,
0001
0001
1000
0100
0010
0001
0011
0010
,
0100
0000
1000
0000
0001
0000
0100
0010
1000
0000
0001
0000
0010
0000
0100
0000
,
1000
0001
0001
0000
0004
0000
0000
0000
,
1003
0000
0010
0000
0100
0000
0001
0010
0100
0000
0010
0000
0001
0000
0100
0000
,
0010
1000
0010
0100
0002
1003
0100
0010
,
0001
0000
1000
0000
0001
0000
0100
0010
1000
0000
0001
0000
0010
0000
0100
0000
,
1000
0100
1000
1000
0002
0000
0103
0000
,
1001
0001
1000
0010
,
0100
0001
1000
0000
0200
0000
0310
0000
,
0001
1000
0010
0100
0010
1000
0010
0100
,
0001
0000
1000
0000
0100
0000
0010
0000
0001
1000
0001
1000
0010
0000
0000
0000
,
1001
0000
0000
0000
,
0000
0000
0000
0000
,
2002
0003
0020
0030
3100
2000
3001
0200
,
0301
0020
0130
2000
3001
0100
0010
0100
,
1020
0000
2000
3000
0130
0002
1003
0200
,
0310
0002
0013
0200
1300
0000
1000
1000
,
0201
0000
0020
0030
0301
2000
3100
0020
,
0130
2000
3001
0200
0310
1000
0010
1000
,
0012
0000
0200
0300
1003
0200
0310
0002
,
0003
2000
3000
0020
0230
0300
0002
2003
,
3200
0320
0032
0003
1000
0200
0310
0200
,
1300
0020
1030
0002
0013
0100
0010
0100
,
0210
0000
2000
3000
1300
0002
0103
0020
,
1030
0000
0200
0000
0310
0000
0002
0000
1003
0000
0000
0000
2020
3030
0000
0000
,
0021
0000
0200
0300
0031
2000
3010
0200
,
0310
2000
3001
0020
0230
0000
2300
0000
,
0000
0000
0000
3001
0000
0000
0010
0000
0100
1000
0000
0001
,
0100
0000
0010
1000
0000
0001
0010
0000
0100
1000
0000
0001
,
0100
0000
0001
0010
0000
0010
0100
0000
1000
0001
0000
0100
,
0010
0000
1000
0010
0000
0100
0001
0000
1000
0100
0000
0010
,
0001
0000
1000
0000
0001
0100
0001
0000
0000
0000
0000
0000
1000
0000
0200
0000
,
0310
0002
0013
0200
1300
0002
0103
0020
,
1030
0000
0001
0000
1000
0000
0001
0000
1000
0000
0000
0000
0000
0M00
0000
000M
,
MMM0
0000
0000
0M00
0000
0000
00MM
0000
M00M
M000
00M0
0000
0M00
0000
0000
00MM
0000
0000
0000
0000
0000
0000
0000
0000
0101
0000
0000
0000
0000
0000
0000
0000
0000
0000
0000
0000
000M
0000
0000
00M0
0000
0000
0000
0000
0000
0000
0000
0000
,
0000
0000
0000
0000
0000
0000
0000
0000
1000
0000
0000
0000
0000
0000
0000
0000
0000
0000
0000
0000
0000
0000
0000
0000
0001
0000
0000
0100
0000
0000
0001
0000
0000
0100
0000
0000
0010
0000
0000
0000
0000
0000
0000
0000
0000
0000
0000
0000
,
1000
0001
1000
0001
0010
0000
0000
0000
0100
0010
0100
0010
0001
0000
0000
0000
,
1000
0001
1000
0001
0100
0000
0000
0000
0010
1000
0010
1000
0010
0000
0000
0000
,
1000
0001
1000
0001
0100
0000
0000
0000
0001
1000
0001
1000
0100
0000
0000
0000
,
0010
0001
0010
0001
1000
0000
0000
0000
0001
0100
0010
0100
0001
0000
0000
0000
,
1000
0100
0010
0100
1000
0000
0000
0000
0001
0010
0100
0010
0001
0000
0000
0000
,
1000
0010
0100
0001
1000
0000
0000
0000
0004
0400
0000
0000
0000
0000
0000
0000
,
0000
0303
0000
0002
,
2003
0000
0000
0000
0000
0000
3000
0000
0000
0000
0000
0000
1000
0000
0000
0000
0000
0000
0001
1000
0001
1000
0001
1000
,
0001
0000
0000
0000
0000
0000
1000
0010
1000
0000
0000
0000
0001
0100
0001
0000
0000
0000
1000
0100
1000
0000
0000
0000
,
0001
0010
0001
0000
0000
0000
1000
0100
1000
0100
1000
0100
1000
0000
0000
0000
0000
0000
0001
0100
0001
0100
0001
0100
,
0010
0000
0000
0000
0000
0000
1000
0001
1000
0000
0000
0000
0100
0010
0100
0000
0000
0000
0010
0001
0010
0000
0000
0000
,
0100
1000
0100
0000
0000
0000
1000
0001
1000
0001
0100
0001
0100
0000
0000
0000
0000
0000
0010
1000
0010
1000
0010
1000
,
0001
0000
0000
0000
0000
0000
0010
0001
0010
0000
0000
0000
0001
1000
0001
0000
0000
0000
1000
0010
1000
0000
0000
0000
,
0010
0100
0010
0000
0000
0000
0100
0010
0100
0010
1000
0001
1000
0000
0000
0000
0000
0000
0001
0010
0001
0010
0100
1000
,
0100
0000
0000
0000
0000
0000
1000
0001
1000
0000
0000
0000
0001
0100
0001
0000
0000
0000
1000
0100
1000
0000
0000
0000
,
0001
0010
0001
0000
0000
0000
1000
0010
1000
0010
0100
0001
0100
0000
0000
0000
0000
0000
0001
1000
0001
1000
0010
0100
,
0010
0000
0000
0000
0000
0000
1000
0010
1000
0000
0000
0000
0001
0100
0001
0000
0000
0000
1000
0100
1000
0000
0000
0000
,
0001
0010
0001
0000
0000
0000
1000
0100
1000
0100
1000
0100
0010
0000
0000
0000
0000
0000
0001
0100
0001
1000
0010
1000
,
0010
0000
0000
0000
0000
0000
1000
0001
1000
0000
0000
0000
0100
0010
0100
0000
0000
0000
0010
0001
0010
0000
0000
0000
,
0100
1000
0100
0000
0000
0000
1000
0001
1000
0001
0100
0001
0100
0000
0000
0000
0000
0000
0010
1000
0010
1000
0001
1000
,
0001
0100
0010
0100
0001
1000
0001
1000
0010
0100
0010
1000
0001
0000
0000
0000
0000
0000
1000
0100
1000
0100
0010
0100
,
0010
0001
1000
0001
1000
0100
0010
0001
0010
0001
0010
0001
1000
0000
0000
0000
0000
0000
0001
0100
0001
0100
0010
1000
,
0010
0100
0001
1000
0001
1000
0010
0100
0010
1000
0001
1000
0001
0000
0000
0000
0000
0000
1000
0100
1000
0100
0010
0001
,
1000
0001
1000
0010
0100
0010
1000
0001
1000
0001
0100
0010
0100
0000
0000
0000
0000
0000
0001
1000
0001
1000
0100
0010
,
0100
1000
0001
1000
0001
0010
0100
1000
0100
1000
0100
0010
0001
0000
0000
0000
0000
0000
1000
0010
1000
0001
0100
0001
,
0100
0010
1000
0010
1000
0001
1000
0001
1000
0001
1000
0100
0010
0000
0000
0000
0000
0000
0001
0010
0001
1000
0001
0010
,
0001
1000
0100
1000
0001
1000
0100
0010
0001
0010
0001
1000
0001
0000
0000
0000
0000
0000
0100
0001
0100
0001
0100
0010
,
1000
0001
0100
0001
0100
0001
1000
0010
1000
0010
1000
0001
1000
0000
0000
0000
0000
0000
0010
1000
0010
1000
0001
1000
,
0001
0100
0010
0100
0010
1000
0001
0100
0010
0100
0010
1000
0001
0000
0000
0000
0000
0000
1000
0100
1000
0100
0010
0100
,
0010
0001
1000
0001
1000
0100
0010
0001
0010
0001
0010
0001
1000
0000
0000
0000
0000
0000
0001
0100
0001
0100
0010
1000
,
0010
0100
0001
1000
0001
1000
0010
0100
0010
1000
0001
1000
0001
0000
0000
0000
0000
0000
1000
0100
1000
0100
0010
0001
,
1000
0001
1000
0010
0100
0010
1000
0001
1000
0001
1000
0001
0100
0000
0000
0000
0000
0000
0001
0000
0000
0010
0000
0000
,
0100
1000
0100
0010
0001
0000
1000
0100
,
0010
0001
0010
0100
1000
0000
0001
0100
,
0000
0000
0010
1000
0000
0000
0000
0000
,
0002
0003
1000
1000
,
1000
0010
0100
0001
0100
0010
0100
0000
,
0001
1000
0100
0010
,
0001
0010
0001
0100
0001
1000
0100
0000
,
1000
0000
0000
0000
0001
0100
0001
0100
,
0001
0100
0010
1000
0010
0100
0001
1000
,
0100
1000
0100
1000
0200
0000
0000
0000
0310
0000
0000
0000
0000
0000
0000
0000
,
1001
0000
0000
0000
,
0000
0000
0000
0000
2002
3000
0200
0300
,
0013
0002
1003
0020
1030
0200
0310
0002
,
1003
0010
0100
0010
0201
0000
0002
0003
,
0310
2000
3001
0020
0130
2000
3100
0020
,
0031
1000
0001
1000
1020
0000
0200
0300
,
1030
0002
0013
0200
0310
0002
1003
0020
,
0130
0001
2000
3002
0023
0230
2300
3000
,
0001
0020
0130
0020
0031
0200
0301
2000
,
3100
0010
0100
0010
0120
0000
0002
0003
,
0031
2000
3010
0200
0301
0020
0130
2000
,
3001
0000
0000
0000
0202
0303
0000
0000
1200
0000
0000
0000
0020
0000
0030
0000
,
1300
0002
0103
0020
0130
0002
1003
0200
,
0320
0032
0000
1003
,
0100
1000
0000
0001
,
0000
0000
0100
0000
0010
1000
0010
1000
,
0001
0010
0001
0010
0100
1000
0100
1000
,
0001
0100
0001
0100
0010
1000
0010
1000
,
0100
0010
0100
0010
0000
0001
1000
0001
,
0000
1000
0010
1000
0000
0001
0010
0000
,
0100
1000
0000
0100
,
0010
0002
0000
0000
,
0000
0000
0000
0000
,
0003
0000
0000
0000
;
