#TITLE:The Son and the Star;
#SUBTITLE:;
#ARTIST:The Flashbulb;
#TITLETRANSLIT:;
#SUBTITLETRANSLIT:;
#ARTISTTRANSLIT:;
#CREDIT:;
#BANNER:banner.bmp;
#BACKGROUND:background.bmp;
#LYRICSPATH:;
#CDTITLE:title.bmp;
#MUSIC:The Son and the Star.mp3;
#OFFSET:-0.120;
#SAMPLESTART:34.783;
#SAMPLELENGTH:12.000;
#SELECTABLE:YES;
#BPMS:0.000=172.000,405.000=165.000,406.000=135.000,407.000=75.000,407.250=100.000,407.500=135.000,407.750=172.000,408.000=230.000,408.250=544.000;
#STOPS:;
#BGCHANGES:;
// cache tags:
#FIRSTBEAT:0.000;
#LASTBEAT:419.000;
#SONGFILENAME:Songs/toune/The Son and the Star/The Son and the Star.sm;
#HASMUSIC:1;
#HASBANNER:1;
#MUSICLENGTH:145.763;
// end cache tags

//---------------dance-single - Blank----------------
#NOTES:
     dance-single:
     Blank:
     Hard:
     10:
     1.000,1.000,0.137,1.000,1.000,938.000,20.000,182.000,0.000,9.000:

0002
0000
0000
0000
,
0023
0000
0000
0000
,
2030
0000
0000
0000
,
3220
0000
0000
0000
,
0332
0000
0000
0000
,
2003
0000
0000
0000
,
3200
0000
0000
0000
,
0322
0000
0000
0000
,
1033
0000
1000
0100
0010
0000
1000
0000
0000
0000
0010
0001
0010
0001
0100
0010
,
1000
0000
0010
0100
0001
0000
0010
0000
0000
0000
0100
1000
0001
1000
0100
0010
,
0001
0000
0100
0010
1000
0000
0100
0000
0000
0000
0100
0010
0100
0000
0001
0010
,
0001
0000
0001
0010
0100
0000
0010
0000
0000
0000
0010
0100
0010
0001
1000
0100
,
0010
0000
0100
1000
0001
0000
1000
0000
0000
0000
0010
0100
0010
0001
0010
0100
,
1000
0000
0100
0010
1000
0000
2000
0000
3200
0000
0000
0300
0100
0001
0010
0100
,
1000
0000
0001
0010
0100
0000
0200
0000
0000
0000
1300
0100
0010
0000
0001
0010
,
0100
0000
1000
0010
0001
0000
0020
0000
0000
0000
0130
0000
1000
0000
0001
0000
,
0100
0000
0010
1000
0010
0000
0200
0000
0000
0000
0310
0001
1000
0000
1000
0001
,
0010
0000
0100
1000
0001
0000
0200
0000
0320
0000
0032
0000
2003
0100
3020
0000
,
0031
0000
0100
1000
0001
0000
2000
0000
0000
0000
3100
0010
0002
0000
0010
0100
,
1003
0000
0100
0010
1000
0000
0200
0000
0320
0000
0032
0000
2003
0000
3002
0000
,
2003
0000
3100
0010
0100
0000
0002
0000
0003
0000
0010
0100
2000
0000
3100
0001
,
0020
0000
0130
1000
0001
0000
2000
0000
3200
0000
0310
0001
0010
0001
1000
0000
,
0200
0000
0310
0001
0010
0000
0200
0000
0300
0000
1000
0010
0002
0000
0013
1000
,
0200
0000
0310
0001
1000
0000
0200
0000
0320
0000
2030
0000
3020
0000
0032
0000
,
0203
0000
1300
0100
1000
0100
0020
0000
0030
0000
0001
0010
0200
0000
0310
0001
,
0020
0000
0130
1000
0100
1000
0002
0000
0003
0000
0010
0100
0002
0000
0013
0100
,
0002
0000
1003
0010
0100
1000
0020
0000
0000
0000
0032
0000
0000
0000
1003
0000
,
0000
0000
0100
0010
1000
0000
1000
0010
0100
0000
1000
0000
0100
0000
0001
0000
,
0200
0000
1300
0010
1000
0010
0200
0000
0300
0000
0010
0001
0200
0000
0310
0001
,
2000
0000
3100
0010
0100
0010
0002
0000
0003
0000
1000
0100
0020
0000
0130
0010
,
0002
0000
0013
0100
0010
0100
2000
0000
0001
0000
3200
0000
1000
0000
0320
0000
,
0031
0100
0001
0100
0010
0001
0010
0100
1000
0010
0100
0001
0010
0100
1000
0100
,
0020
0000
0031
0100
0001
0000
2000
0000
3000
0000
1000
0100
0020
0000
0031
0100
,
2000
0000
3100
0010
0001
0010
0200
0000
0300
0000
1000
0100
0020
0000
0031
0010
,
0200
0000
1300
0010
1000
0010
0200
0000
0320
0000
0032
0000
2003
0000
3200
0000
,
0310
1000
0001
0100
0001
0100
0010
1000
0100
0010
0001
0010
0100
1000
0001
0100
,
0020
0000
0031
0100
1000
0000
0020
0000
0030
0000
0100
1000
0020
0000
0130
1000
,
0002
0000
0013
0100
0001
0000
2000
0000
0000
0000
3100
0010
0200
0000
0310
0001
,
2000
0000
3100
0010
0100
0000
0002
0000
0023
0000
0230
0000
0320
0000
2030
0000
,
3020
0000
0130
0001
0200
0000
0320
0000
2030
0000
3220
0000
2332
0000
3223
0000
,
2330
0000
3001
0100
0010
0000
0200
0000
0300
0000
1000
0010
0002
0000
0013
0100
,
0020
0000
0031
0100
0010
0000
2000
0000
3000
0000
0100
0010
0200
0000
0301
0010
,
2000
0000
3100
0001
1000
0000
0200
0000
0000
0000
0310
0001
0020
0000
0130
1000
,
0100
0010
1000
0100
0010
0001
0010
0100
1000
0001
1000
0100
0010
1000
0010
0100
,
1000
0000
1000
0100
1000
0000
0020
0000
0030
0000
0001
0100
0001
0000
1000
0010
,
1000
0000
0100
0010
0001
0000
0200
0000
2300
0000
3020
0000
0032
0000
0203
0000
,
0310
0000
0010
0100
1000
0000
2000
0000
3000
0000
1000
0100
0020
0000
0130
0010
,
0002
0000
0013
0100
1000
0000
0020
0000
0030
0000
0002
0000
0203
0000
0320
0000
,
1030
0000
1000
0100
0010
0000
0020
0000
0030
0000
0010
0001
0100
0000
0100
0010
,
2000
0000
3100
0001
0100
0000
0020
0000
0032
0000
0103
0000
0001
0100
0001
1000
,
0100
0000
0010
0100
1000
0000
0020
0000
0000
0000
0031
0100
0020
0000
0230
0000
,
1300
0100
2000
0000
0000
0000
3200
0000
0000
0000
0320
0000
0032
0000
0023
0000
,
2030
0000
3100
0010
0001
0000
2000
0000
0000
0000
3100
0010
0001
0000
0100
0010
,
0002
0000
0013
0100
0010
0000
2000
0000
3200
0000
2300
0000
3010
0100
0001
0000
,
0001
0010
0100
1000
0010
0100
0010
0100
0001
0100
0010
1000
0010
0100
0001
0100
,
0010
0100
0010
1000
0100
0010
0100
0001
0100
0010
0200
0000
0000
0000
0310
0000
,
0001
0000
0001
0010
0100
0000
0100
0000
0000
0000
0100
0010
0001
0000
0001
0100
,
1000
0000
1000
0100
0001
0010
0200
0000
0000
0000
1300
0100
0020
0000
0130
0001
,
2000
0000
3100
0010
0001
0010
0200
0000
2300
0000
3200
0000
0320
0000
0032
0000
,
1003
0000
0100
0010
0100
0000
1000
0010
1000
0000
0001
0010
0100
0000
0010
0100
,
0001
0000
0001
0010
0100
1000
0010
0000
0000
0000
0010
1000
0100
0000
0010
0001
,
1000
0000
0100
0010
0001
0010
0100
0000
0000
0000
0001
0010
0100
0000
0010
0100
,
1000
0000
1000
0100
1000
0100
2000
0000
3002
0000
0203
0000
0302
0000
0023
0000
,
0000
0000
0031
0100
0010
0100
0001
0010
0100
1000
0100
0010
0001
0100
0010
0100
,
1000
0000
1000
0100
0010
0001
0010
0000
0000
0000
0010
0001
0100
0000
0010
0000
,
1000
0000
1000
0010
0100
0001
1000
0000
0000
0000
1000
0001
0100
0000
0010
0100
,
1000
0000
0010
0100
1000
0100
0020
0000
0032
0000
0203
0000
0320
0000
2030
0000
,
3200
0000
0310
0001
0010
0000
1000
0100
1000
0100
0010
0001
0100
0010
1000
0010
,
0100
0000
0100
0010
0100
0010
0100
0000
0000
0000
0100
0010
0001
0000
1000
0000
,
0010
0000
0010
0100
0001
0100
0010
0000
0000
0000
0010
0001
0100
0000
0010
0000
,
2000
0000
3100
0010
0100
0010
2000
0000
3200
0000
0320
0000
0230
0000
0302
0000
,
0203
0000
0310
0100
1000
0100
0010
1000
0001
1000
0001
0100
0010
0001
0010
0100
,
0010
0000
0001
0100
0010
0000
0010
0000
0000
0000
0010
0001
0100
0010
1000
0100
,
0010
0000
0010
0100
1000
0000
1000
0000
0000
0000
0010
0001
0010
0100
0010
0001
,
1000
0000
0100
0010
1000
0000
0100
0000
0000
0000
0100
0010
0001
0100
1000
0010
,
0001
0000
0100
1000
0100
0000
1000
0000
0000
0000
1000
0100
0010
0001
0010
0100
,
1000
0000
0001
0100
0010
0000
0010
0000
0000
0000
0100
0001
1000
0001
0100
0010
,
1000
0000
1000
0100
1000
0000
0010
0000
0000
0000
0010
0100
0001
1000
0001
0100
,
0010
0000
0001
0010
0100
0000
0010
0000
0000
0000
1000
0010
0100
0001
0100
0010
,
1000
0000
0100
0010
0100
0000
1000
0000
0010
0000
0100
0000
0001
0000
0010
0000
,
0100
0000
0001
0010
1000
0000
0010
0000
0000
0000
0100
0001
0010
1000
0100
0010
,
0001
0000
0001
0010
0100
0000
0200
0000
0320
0000
0130
1000
0001
0010
0100
1000
,
0001
0000
0100
0010
1000
0000
2000
0000
3000
0000
0010
0100
0001
1000
0010
0100
,
0001
0000
0010
0100
1000
0000
0020
0000
0032
0000
2003
0000
3020
0000
2030
0000
,
3010
0001
0100
0010
1000
0100
0010
0100
0001
0100
0010
1000
0100
1000
0010
0100
,
0001
0010
0001
1000
0001
0100
0001
0010
0001
0100
0001
1000
0100
0010
0100
0001
,
0010
0100
1000
0100
1000
0010
0100
0001
0010
0100
0010
0001
1000
0100
0010
0100
,
1000
0001
0100
0010
1000
0010
0100
0001
0100
0010
0001
0010
2000
0000
3200
0300
,
0200
0000
0000
0000
,
0000
0000
0000
0000
,
0300
0000
0000
0000
,
0000
0000
0000
0000
,
2002
0000
0000
0000
0000
0000
0000
3003
,
0202
0000
0000
0000
0000
0000
0000
0000
0000
0000
0000
0000
0000
0000
0000
0303
,
2020
0000
0000
0000
0000
0000
0000
0000
0000
0000
0000
0000
0000
0000
0000
3030
,
0220
0000
0000
0000
,
0331
0000
0010
0000
1100
0000
0010
0100
0010
0100
0001
0000
1100
0000
0010
0000
,
0001
0000
0100
0000
1010
0000
0001
0100
0001
0100
0001
0000
1010
0000
0001
0000
,
1000
0000
0100
0000
0011
0000
1000
0100
1000
0100
1000
0000
0011
0000
0100
0000
,
0010
0000
0100
0000
1001
0000
0100
0010
0001
1000
0100
0000
1001
0000
0010
0000
,
0100
0000
1000
0000
0011
0000
1000
0010
0100
0001
1000
0000
0011
0000
0100
0000
,
0010
1000
0011
0200
0000
0000
0000
0000
,
0000
0000
0000
0000
,
0000
0000
0000
0000
,
0000
0000
0000
0300
;
