#TITLE:Power Of The Dragonflame;
#SUBTITLE:;
#ARTIST:Rhapsody;
#TITLETRANSLIT:;
#SUBTITLETRANSLIT:;
#ARTISTTRANSLIT:;
#CREDIT:;
#BANNER:Banner.JPG;
#BACKGROUND:Background.jpg;
#LYRICSPATH:;
#CDTITLE:ASPEX.png;
#MUSIC:Rhapsody - Power Of The Dragonflame.mp3;
#OFFSET:0.700;
#SAMPLESTART:47.300;
#SAMPLELENGTH:20.000;
#SELECTABLE:YES;
#BPMS:0.000=190.000;
#STOPS:;
#BGCHANGES:;
// cache tags:
#FIRSTBEAT:3.000;
#LASTBEAT:826.000;
#SONGFILENAME:Songs/juju step2/Rhapsody - Power Of The Dragonflame/Rhapsody - Power Of The Dragonflame.sm;
#HASMUSIC:0;
#HASBANNER:1;
#MUSICLENGTH:100.000;
// end cache tags

//---------------dance-single - ----------------
#NOTES:
     dance-single:
     :
     Hard:
     13:
     1.000,1.000,1.000,1.000,1.000,2479.000,251.000,154.000,0.000,0.000:
0000
0000
0000
0000
0000
0000
0000
0000
0000
0000
0000
0000
0001
0010
0100
1000
,
0101
0000
0100
1000
0100
0010
1001
0000
0100
1000
0100
0010
0101
0000
0010
0100
,
1000
0100
0011
0000
1000
0001
1000
0001
0110
0000
0001
0010
1001
0000
0100
0010
,
0101
0000
0010
0100
0010
0100
1010
0000
1000
0100
0010
0001
1010
0000
0001
0010
,
0100
1000
0011
0000
0001
0010
0100
0010
0101
1000
0100
0010
0001
0010
0100
1000
,
0110
0000
0001
0010
0100
1000
0101
0000
0010
0100
0010
1000
0101
0000
1000
0100
,
1000
0100
0011
0000
0001
0010
0001
0010
1100
0000
0010
0100
1001
0000
0100
0010
,
0202
0000
0303
2020
3030
0001
0020
0030
,
2002
0000
3003
2200
3300
0010
1000
0100
,
0101
0000
0010
0100
1000
0100
1010
0000
0100
0010
0001
0010
1100
0000
1000
0100
,
0010
0001
0110
0000
0010
0100
0010
0100
1001
0000
0010
0100
1001
0000
0001
0010
,
1100
0000
0001
0010
0100
1000
0110
0000
0001
0100
0001
0100
0011
0000
1000
0010
,
1000
0010
1100
0000
0001
0010
0001
0010
0101
1000
0100
1000
0100
0010
0100
0010
,
1001
0000
0010
0100
0010
0100
1001
0000
0001
0010
0001
0010
1100
0000
0010
0001
,
0100
0010
1001
0000
0010
0100
1000
0100
0011
0000
0010
0100
1001
0000
0010
0100
,
2002
0000
3003
0202
0303
0010
2000
3000
,
0220
0000
0330
0022
0033
1000
0001
1000
,
0220
0000
0000
0000
0000
0000
0000
0330
,
0101
0000
0000
0000
0011
0000
0000
0000
0110
0000
0001
0010
0100
0010
0001
1000
,
0010
0100
0010
0001
0010
0100
1000
0010
0100
0010
0001
0010
0100
1000
0001
0010
,
0001
0100
0001
0010
1000
0010
0001
0010
0100
1000
0100
0010
0100
1000
0100
0010
,
0001
0010
0001
0010
0100
0010
0100
0001
0010
0100
1000
0100
0010
1000
0010
0100
,
0001
0010
0100
0010
0001
0010
0100
1000
0010
0100
0001
0010
0100
1000
0010
0100
,
0010
0001
0100
0010
1000
0010
0001
0100
1000
0100
0010
0100
0001
0010
0001
0100
,
0001
0100
0010
0001
0010
0100
0010
0001
1000
0100
1000
0010
1000
0001
1000
0010
,
2200
0000
3300
0202
0303
0010
2000
3000
,
0022
0000
0033
2002
3003
0100
0010
0100
,
0010
0100
0010
0001
0010
0100
0010
0001
0010
0100
0010
0100
0010
0001
0010
0100
,
1000
0001
1000
0010
0100
0010
0001
0100
1000
0100
0010
0001
0100
1000
0010
0001
,
0010
0100
1000
0001
0010
0100
0010
0001
0100
0001
1000
0010
0100
0010
0100
0010
,
1000
0100
1000
0100
1000
0010
1000
0001
1000
0010
0100
0010
0001
0010
0100
1000
,
0100
0010
0001
0010
0100
1000
0001
1000
0001
0100
0010
0100
0001
1000
0010
0100
,
0001
1000
0010
0100
0001
0010
0100
1000
0100
0010
0100
1000
0001
0100
0010
0100
,
2002
0000
3003
0220
0000
0000
0000
0330
,
2200
0000
3300
0202
0000
0000
0000
0303
,
2002
0000
0000
0000
0000
0000
0000
3003
,
0220
0000
0000
0000
,
0000
0000
0000
0000
0000
0000
0330
0000
0001
0010
0100
0001
1000
0100
0010
0001
,
0100
0010
0100
0010
1000
0100
1000
0100
0010
1000
0010
1000
0010
0001
0010
0001
,
0100
1000
0100
1000
0001
0100
0001
0100
0010
1000
0010
1000
0001
1000
0001
1000
,
0010
0100
0010
0100
1000
0100
1000
0100
0010
0001
0010
0001
0100
0010
0100
0010
,
0202
0000
0303
0011
2020
0000
0000
3030
,
0001
0100
0001
0100
0010
1000
0010
1000
0001
0010
0001
0010
0100
0010
0100
0010
,
0001
0010
0001
0010
1000
0100
1000
0100
0001
0100
0001
0100
0010
1000
0010
1000
,
0220
0000
0330
0101
2020
3030
2200
3300
,
1001
0000
0000
0000
0010
1000
0100
0010
0001
0010
0100
1000
0010
0100
0010
0001
,
1100
0000
0000
0000
0110
0000
0000
0000
1000
0010
1000
0010
1000
0001
1000
0001
,
0010
0100
0010
0100
0001
0100
0001
0100
0001
0010
0001
0010
1000
0100
1000
0100
,
0010
0100
0010
0100
0001
1000
0001
1000
0001
0100
0010
0100
0010
0001
0100
0001
,
0100
0010
0100
0010
1000
0001
1000
0001
2200
0000
0000
0000
3300
0000
0101
0000
,
0220
0000
0000
0000
0000
0000
0330
0000
0010
1000
0010
1000
0001
0100
0001
0100
,
0010
0100
0010
0100
0001
0010
0001
0010
1000
0100
1000
0100
0001
1000
0001
1000
,
0010
0100
0010
0100
0010
1000
0010
1000
0022
0000
0000
0000
0033
0000
0110
0000
,
2200
0000
3300
0000
2020
0000
3030
0000
2002
0000
3003
0000
1000
0100
0010
0001
,
0010
0100
1000
0010
0100
1000
0100
0010
0202
0000
0303
0000
0220
0000
0330
0000
,
0010
0010
1100
0100
0010
0010
0101
0001
,
1000
1000
1001
0100
1000
1000
0110
0001
,
0010
0010
1010
0100
0010
0010
0101
0100
,
0010
0000
0010
0000
1010
0000
0100
0000
0010
0001
0100
1000
0100
0010
0100
1000
,
0100
0000
0011
0000
1000
0100
0011
0000
0100
0000
1001
0000
0010
0100
1010
0000
,
0001
0000
1100
0000
0001
0010
1100
0000
0010
0000
0011
0000
1000
0100
1001
0000
,
0100
0000
0011
0000
0001
0010
1100
0000
0010
0000
0110
0000
0010
0100
1001
0000
,
0100
0000
0011
0000
1000
0100
1001
0000
0100
0000
0011
0000
0100
1000
0011
0000
,
1000
0100
0010
0001
0100
0010
0001
0010
0001
1000
0100
0010
0100
0010
0001
0010
,
0100
1000
0010
0100
0010
0001
0010
0100
0010
0001
0100
0001
0010
0100
1000
0100
,
0010
0001
0100
0001
0010
0100
0010
0001
0010
0100
0010
0100
0010
0001
0100
1000
,
0100
0010
0001
0010
0100
0010
0001
0100
0010
0001
1000
0010
0100
0010
0001
0010
,
2200
0000
0000
3300
0022
0000
0000
0033
,
1000
0100
1000
0010
0100
0001
0010
0100
0010
0001
0100
1000
0010
0100
0010
0001
,
0100
0010
0100
0010
1000
0001
0100
0010
1000
0001
0100
0010
0100
1000
0100
0010
,
2002
0000
3003
1010
2200
3300
0202
0303
,
0220
0000
0330
0000
0100
0010
0001
1000
0010
0100
0010
0001
0100
0010
0100
0010
,
2002
0000
3003
0000
0022
0000
0033
0000
1000
0100
0010
0001
1000
0010
0100
0001
,
0010
0100
1000
0010
0100
0010
0001
0100
0010
0100
0001
0100
0010
0100
0001
1000
,
0010
0100
0010
1000
0001
0010
0001
0100
0001
0100
0010
0100
0010
0001
0010
0100
,
1000
0100
1000
0010
1000
0010
0100
1000
0022
0000
0000
0000
0033
0000
1100
0000
,
0220
0000
0000
0000
0000
0000
0330
0000
0100
0010
0001
1000
0010
0100
0001
0010
,
0100
0010
0001
1000
0010
0100
0001
0010
0100
1000
0001
0100
0010
0001
0100
0010
,
1000
0001
0100
0010
0001
0100
1000
0100
2002
0000
0000
0000
3003
0000
1010
0000
,
0202
0000
0303
0000
0220
0000
0330
0000
0202
0000
0303
0000
1000
0100
0010
0001
,
1000
0010
0100
0010
0001
0100
0010
0100
2002
0000
3003
0000
0220
0000
0330
0000
,
1001
1000
0110
0010
0001
0001
1010
0001
,
0010
0010
1100
0010
0100
0100
0101
0010
,
0100
0100
0101
0100
0010
0010
1010
0100
,
0010
0010
1001
0100
0100
0100
0110
0001
,
0100
0000
0011
0000
0100
0001
1100
0000
0010
0000
1100
0000
0010
0100
0011
0000
,
0100
0000
0011
0000
1000
0100
0011
0000
1000
0000
1010
0000
0001
0010
0101
0000
,
0010
0000
1100
0000
1000
0100
0011
0000
0100
0000
0101
0000
0001
0010
1100
0000
,
0010
0000
1010
0000
0001
0100
1001
0000
0010
0000
1100
0000
0010
0001
1100
0000
,
0010
0000
0110
0000
0100
0010
0101
0000
0010
0000
0010
0001
0010
0100
1000
0010
,
0100
0001
0010
0100
0010
0001
0010
0100
0010
0001
1000
0001
0100
0010
0100
0001
,
0010
0100
0010
0001
0010
0001
0010
0100
1000
0100
0010
0100
0010
0001
0100
0001
,
0010
0100
1000
0100
0010
0001
0100
0010
0001
0010
0100
1000
0100
0010
0001
0100
,
0001
0100
0010
0100
1000
0010
0100
0010
0001
0100
0001
0100
0010
1000
0010
0100
,
0001
1000
0100
0010
0001
0010
0100
1000
0100
0010
0001
0100
0001
0100
0010
0100
,
0010
1000
0010
0100
0010
0001
0010
0001
1000
0001
1000
0100
0010
0100
0010
0001
,
0010
0100
1000
0100
0010
0001
0010
0100
0010
0001
0100
0010
0100
1000
0100
0010
,
0001
0010
0100
1000
0010
0100
0001
1000
0010
0100
0010
0100
0001
0010
0100
0010
,
0001
0010
0100
0010
0100
0001
0010
1000
0100
0010
0001
0010
0100
0010
0001
0010
,
0001
0010
0100
1000
0100
0010
0001
1000
0010
0100
0001
1000
0001
1000
0010
0100
,
0010
0001
0010
0100
1000
0100
0010
0001
0100
0010
0100
0001
0010
0100
0010
1000
,
0010
0100
0010
0001
0010
0100
1000
0100
0010
0001
0010
0100
1000
0100
0010
0100
,
1000
0001
0100
0010
1000
0001
0100
0010
0001
0100
1000
0100
0010
0001
0100
1000
,
0010
0100
1000
0100
0010
0001
0100
0010
1000
0010
0100
0001
0010
0100
1000
0100
,
0010
0100
1000
0100
0001
1000
0010
0100
0001
0010
0100
1000
0001
0100
0010
1000
,
0001
0100
0010
1000
0010
0100
0010
1000
0001
0100
0010
0100
1000
0100
0010
0001
,
1100
0000
0010
0001
0010
0100
1010
0000
0100
0010
0100
0010
1100
0000
0010
0100
,
0010
0100
0011
0000
1000
0001
1000
0001
0110
0000
0001
0010
0101
0000
1000
0100
,
0011
0000
1000
0100
1000
0100
0011
0000
0001
0010
0100
1000
0011
0000
0100
0010
,
0100
0010
1100
0000
0001
0010
0100
0010
2002
0000
3003
0000
2200
0000
3300
0000
,
0110
0000
1000
0100
0010
0001
0110
0000
0001
0010
0100
1000
0110
0000
0001
0010
,
0001
0010
0101
0000
1000
0100
1000
0100
0011
0000
0100
0010
0101
0000
1000
0100
,
0022
0033
0001
2200
3300
0010
1000
0010
,
0202
0303
0010
0022
0033
0100
0010
0100
,
0011
0000
1000
0100
0010
0100
0011
0000
1000
0100
0010
0001
1100
0000
0010
0100
,
0010
0100
1010
0000
0001
1000
0001
1000
0110
0000
0010
0100
1001
0000
1000
0100
,
1010
0000
0010
0100
1000
0001
1010
0000
0001
0010
0100
0010
1001
0000
0001
0010
,
0100
1000
0101
0000
1000
0100
1000
0100
0022
0000
0033
0000
0220
0000
0330
0000
,
1100
0000
0001
0010
0100
1000
0110
0000
0010
0100
0010
0100
1010
0000
0100
0001
,
0100
0001
0110
0000
0010
0100
0010
0001
1100
0000
0010
0100
0011
0000
1000
0100
,
0022
0033
0100
2002
3003
0100
0010
0100
,
2020
0000
3030
0000
0010
0000
2200
0000
3300
0000
0010
0100
0010
0100
1000
0100
,
0022
0000
0000
0000
,
0000
0000
0000
0000
0000
0033
0200
0300
,
0012
0000
0000
0000
1000
0000
0100
0003
,
0120
0000
0000
0100
0001
0000
1000
0030
,
2001
0000
0000
0000
0001
0000
0100
3000
,
0120
0000
0000
0000
0000
0030
1000
0000
,
2010
0000
0010
0001
0010
0000
0100
3000
,
1002
0000
0000
0100
1000
0000
0100
0013
,
2100
0000
0100
0000
0010
0000
0100
3010
,
0220
0000
0000
0000
0000
0000
0330
0000
1000
0100
0010
0001
0010
0100
1000
0100
,
0010
0100
1000
0001
0100
0010
0001
1000
0010
0100
0001
1000
0010
0100
0010
0100
,
0001
1000
0010
0100
0001
1000
0010
0100
0001
1000
0010
0100
1000
0001
0100
0001
,
1000
0010
0100
0010
1000
0010
0100
0010
0001
0010
0100
1000
0100
0010
0001
0010
,
1000
0001
0100
0010
1000
0001
0100
0010
1000
0100
0010
0001
0100
0010
1000
0001
,
1000
0100
1000
0001
1000
0100
1000
0001
0100
0010
0001
0010
0100
1000
0010
0001
,
0100
0010
0001
0100
1000
0010
0001
0100
0010
0001
0010
0100
1000
0100
0010
0001
,
0100
0001
0100
0010
1000
0010
0100
0010
0001
0100
0010
0100
1000
0010
0100
0001
,
0100
0010
0100
1000
0001
0010
0100
0001
1000
0010
0100
0010
0001
1000
0100
0010
,
0001
0010
0100
0001
1000
0010
0100
0001
0010
0100
1000
0010
,
0101
0000
0000
0000
0001
0010
0100
1000
0100
0000
0000
0000
1000
0100
0010
0001
,
0110
0000
0000
0000
0010
0001
0010
0001
0100
0000
0000
0000
0010
0100
0001
1000
,
0110
0000
0000
0000
0010
1000
0100
0010
0001
0000
0000
0000
1010
0000
0100
0000
,
1000
0000
0000
0100
0000
0000
0010
0000
0000
0001
0000
0000
0010
0000
0000
0000
0100
0000
0000
0000
0001
0000
0000
0000
0010
0000
0000
0000
0100
0000
0000
0000
0010
0000
0000
0000
1000
0000
0000
0000
0100
0000
0000
0000
1000
0000
0000
0000
,
0010
0001
0010
0100
1000
0000
0001
0000
0200
0000
0000
0000
0000
0000
0300
0000
,
0010
0100
0001
0010
1100
0000
0000
0000
0001
0010
0001
1000
0100
0000
0000
0000
,
1000
0010
0100
0010
0001
0000
0000
0000
1000
0100
0010
0001
0010
0000
0000
0000
,
0001
0010
0100
1000
0100
0000
0000
0000
0010
0100
0010
0001
0100
0000
0100
0000
,
1001
0000
0000
0000
0000
0000
0100
0000
0000
0000
0000
0000
0010
0000
0000
1000
0000
0000
0100
0000
0000
1000
0000
0000
0010
0000
0000
0000
0100
0000
0000
0000
0010
0000
0000
0000
0001
0000
0000
0000
1000
0000
0000
0000
0010
0000
0000
0000
,
0100
0000
0000
0000
0010
0000
0000
0000
0100
0000
0000
0000
0010
0000
0000
0100
0000
0000
0010
0000
0000
0001
0000
0000
0010
0000
0000
0000
0000
0000
0100
0000
0000
0000
0000
0000
0010
0000
0000
0000
0000
0000
1000
0000
0000
0100
0000
0000
,
1000
0100
0010
0001
0010
0100
1000
0100
0010
0001
0010
0100
0010
0001
0010
0100
,
1000
0001
1000
0001
0100
0010
0001
1000
0010
0100
0001
1000
0010
0100
0001
0010
,
0100
1000
0100
0010
0001
0100
0010
1000
0010
0100
0001
0100
0001
1000
0010
0100
,
2002
0000
0000
3003
2002
3003
0022
0033
,
0220
0000
0000
0330
2200
0000
0000
3300
,
1000
0100
1000
0100
0010
0100
0010
0100
0010
0001
0010
0100
0001
0010
0100
1000
,
0010
0100
0001
0010
0100
1000
0010
0100
0001
1000
0010
0100
0010
0001
0010
0100
,
2020
0000
3030
0000
0202
0303
0220
0330
,
2002
0000
0000
0000
0000
0000
0000
3003
,
1000
0100
1000
0001
0010
0001
0010
0100
0010
0100
1000
0100
1000
0100
0010
0100
,
0011
0000
0000
0000
1010
0000
0000
0000
0110
0000
1100
0000
0001
0010
1100
0000
,
0100
0000
0110
0000
1000
0100
1010
0000
0010
0000
0101
0000
0010
0100
1001
0000
,
0100
0000
0110
0000
0010
0100
0011
0000
1000
0000
0110
0000
0100
0010
1100
0000
,
0100
0000
0011
0000
1000
0100
0011
0000
0100
0000
1001
0000
0010
0100
1010
0000
,
0001
0000
1100
0000
0001
0010
1100
0000
0010
0000
0101
0000
0100
1000
0110
0000
,
0010
0000
1001
0000
0001
0010
1100
0000
0100
0000
0101
0000
1000
0100
0011
0000
,
0100
0000
1001
0000
0010
0100
1010
0000
0100
0000
1010
0000
0010
1000
0110
0000
,
0001
0000
1100
0000
0010
0001
1100
0000
0010
0000
1001
0000
0010
0100
0011
0000
,
1000
0000
1100
0000
0100
0010
1001
0000
0001
0000
0011
0000
0100
1000
0101
0000
,
1000
0100
0010
0001
0010
0100
1000
0100
0010
0001
0010
0100
1000
0100
0001
0010
,
1000
0010
1000
0100
0010
0001
1000
0001
0100
0010
0001
1000
0100
0010
0001
1000
,
0001
0010
0100
0010
0001
0010
0100
1000
0001
0100
0010
1000
0001
0100
0010
1000
,
0001
0100
0010
0100
0010
0100
0001
0100
0001
0010
0001
1000
0001
0100
0010
1000
,
0100
0010
0001
0010
0001
0010
0100
0010
0001
0100
1000
0100
0010
0001
0100
0010
,
0001
0100
0010
0100
0001
1000
0100
0010
0001
0010
0100
1000
0100
0010
0001
0010
,
0100
1000
0100
0010
0100
1000
0001
0100
0010
0100
0010
0001
0100
0010
1000
0001
,
0100
0010
0001
1000
0100
0010
0100
1000
0001
0100
0010
0001
0010
0100
1000
0100
,
0001
0100
1000
0100
0010
0100
1000
0100
0010
0001
0100
0010
1000
0001
0100
0010
,
1000
0001
0100
0010
0001
1000
0100
0010
0001
1000
0010
0100
0001
1000
0010
0100
,
0010
0001
0100
0001
1000
0001
1000
0001
1000
0001
0100
0010
0001
1000
0010
0100
,
0001
1000
0100
0010
0001
0100
0010
0001
1000
0100
0010
0001
0100
1000
0100
1000
,
0100
0010
0001
0100
0010
0001
0010
0001
0010
0100
1000
0010
0100
1000
0001
0100
,
1000
0100
0010
0001
0100
0010
1000
0100
0010
0001
1000
0010
0100
0001
1000
0010
,
0100
0001
1000
0010
0100
0010
0001
0010
0100
1000
0100
0010
0001
0100
0010
1000
,
0100
0010
0001
0010
0100
0001
1000
0010
0100
0010
1000
0100
1000
0010
1000
0010
,
1000
0100
0010
1000
0100
0010
0100
1000
0100
0010
0100
0010
0001
0010
0100
1000
,
0001
0100
0010
1000
0001
0100
0010
1000
0001
0010
0001
0100
0001
0100
0010
0001
,
1000
0100
0010
1000
0100
1000
0100
0010
0100
0010
0001
1000
0100
0010
1000
0100
,
0010
0001
0010
0100
1000
0001
1000
0001
0100
0010
1000
0001
0100
0010
0001
0100
,
1000
0100
0010
0001
0010
0100
1000
0100
0010
0100
1000
0100
0010
0001
0010
0100
,
1000
0100
0010
1000
0001
0100
0010
0001
0010
0100
0010
0001
1000
0001
0100
0010
,
0100
0001
1000
0100
0010
1000
0100
1000
0001
0010
0100
1000
0100
1000
0001
0010
,
0100
1000
0100
1000
0100
0010
0100
1000
0001
0100
0001
0100
0010
0100
0010
0001
,
0010
0100
0010
0001
1000
0100
0010
0001
0100
1000
0001
0100
1000
0100
0010
0001
,
0010
0100
0010
0001
0010
0100
0010
1000
0100
0010
0001
0010
0100
0010
0100
0010
,
0100
0001
0100
1000
0100
0010
0001
0100
1000
0100
0010
0001
0100
0010
0100
0001
,
0100
0001
0100
0010
1000
0100
0010
0001
0100
1000
0100
0010
0001
0100
0010
1000
,
0001
0100
0010
0001
1000
0100
0010
0001
0100
0010
0100
0010
0100
0010
0001
0010
,
0100
1000
0001
0010
0100
1000
0001
0010
0100
1000
0100
0010
1000
0001
0100
0010
,
1000
0001
0100
0010
1000
0001
0100
0010
1000
0001
0100
0010
0100
0001
1000
0010
,
0100
0010
0001
0010
0100
1000
0001
0100
0010
1000
0001
0100
0010
0001
1000
0100
,
0010
0001
0010
0100
0001
0100
0001
0100
0010
1000
0001
0100
0010
0001
0010
0100
,
0010
0001
0100
0010
0100
0001
1000
0100
0010
0001
0100
0010
0001
1000
0010
0100
,
0001
0010
0100
1000
0100
0010
0001
0010
0100
1000
0100
0010
0001
0010
0100
1000
,
0100
0010
0100
0010
0100
1000
0100
1000
0100
0001
0100
0001
0100
0010
1000
0010
,
0100
0010
0100
0010
0001
1000
0100
0010
1001
0000
0000
0000
0000
0000
0000
0000
;
