#TITLE:Speed Over Beethoven;
#SUBTITLE:;
#ARTIST:Rose;
#TITLETRANSLIT:;
#SUBTITLETRANSLIT:;
#ARTISTTRANSLIT:;
#CREDIT:;
#BANNER:../Banner.png;
#BACKGROUND:../BG.png;
#LYRICSPATH:;
#CDTITLE:../CDTitleBRAEDEN.png;
#MUSIC:Speed Over Beethoven (Full Version) - ROSE.ogg;
#OFFSET:0.069;
#SAMPLESTART:100.069;
#SAMPLELENGTH:12.000;
#SELECTABLE:YES;
#BPMS:0.000=169.000;
#STOPS:;
#BGCHANGES:;
// cache tags:
#FIRSTBEAT:14.000;
#LASTBEAT:978.000;
#SONGFILENAME:Songs/Index Tesseract/Speed  - [Braeden]/Speed Over Beethoven.sm;
#HASMUSIC:1;
#HASBANNER:1;
#MUSICLENGTH:349.901;
// end cache tags

//---------------dance-single - ----------------
#NOTES:
     dance-single:
     :
     Challenge:
     17:
     1.000,1.000,0.329,0.446,1.000,2826.000,115.000,156.000,33.000,2.000:

0000
0000
0000
0000
,
0000
0000
0000
0000
,
0000
0000
0000
0000
,
0000
0000
0000
0000
1000
0100
0010
0001
,
0010
0000
0100
0000
1000
0000
0001
0000
0100
0010
1000
0001
0010
0100
1000
0001
,
0100
0010
0100
0001
1000
0100
0010
0100
1000
0001
0010
0100
1000
0001
0100
0010
,
0100
0001
1000
0100
0010
0100
1000
0001
0010
0100
1000
0001
0100
0010
0100
0001
,
1000
0100
0010
0100
1000
0001
0010
0100
1000
0001
0100
0010
0100
0001
0010
0100
,
1000
0001
0100
0010
0100
0001
1000
0100
0010
0100
1000
0001
0010
0100
1000
0001
,
0100
0010
0100
0001
1000
0100
0010
0100
1000
0001
0010
0100
1000
0001
0100
0010
,
0100
0001
0100
0010
0100
0001
0100
0001
1000
0100
0010
0100
1000
0001
0010
0100
,
1000
0001
0100
0010
0100
0001
1000
0010
0100
0001
1000
0100
0010
0100
1000
0001
,
0010
0100
1000
0001
0100
0010
0100
0001
1000
0100
0010
0100
1000
0001
0100
0010
,
0100
0001
1000
0100
0010
0100
1000
0001
0010
0100
1000
0001
0100
0010
0100
0001
,
1000
0100
0010
0100
1000
0001
0010
0100
1000
0001
0100
0010
0100
0001
1000
0100
,
0010
0100
1000
0001
0010
0100
1000
0001
0100
0010
0100
0001
1000
0100
0010
0100
,
1000
0001
0010
0100
1000
0001
0100
0010
0100
0001
1000
0010
0100
0010
1000
0001
,
0010
0100
1000
0010
0100
0010
0100
0001
1000
0100
0010
0100
1000
0001
0100
0010
,
0100
0001
1000
0100
0010
0100
1000
0001
0100
0010
0100
0001
1000
0100
0010
0100
,
1000
0001
0010
0100
1000
0001
0100
0010
1001
0000
0100
0000
1001
0000
0010
0000
,
1001
0000
0100
0000
1001
0000
0100
0000
0001
0010
0100
1000
0001
0100
0010
0100
,
0001
0000
0000
1000
0000
0000
0100
0000
0000
0010
0000
0000
0001
0000
0000
0010
0000
0000
0100
0000
0000
1000
0000
0000
0001
0000
0100
0000
0010
0000
1000
0000
0001
0000
0010
0000
0100
0000
1000
0000
0001
0000
0100
0000
0010
0000
0100
0000
,
0001
0000
1000
0000
0100
0000
0010
0000
0100
0000
1000
0000
0001
0000
0100
0000
0010
0000
1000
0000
0001
0000
0100
0000
0010
0000
0000
1000
0000
0000
0010
0000
0000
1000
0000
0000
0001
0000
0000
0100
0000
0000
0001
0000
0000
0100
0000
0000
,
0010
1000
0100
0010
0100
1000
0001
0100
0010
0100
0001
1000
0010
0100
0001
0100
,
0010
1000
0001
0010
0100
1000
0001
0100
0010
0100
0001
1000
0100
0010
0100
1000
,
0001
0010
0100
1000
0001
0100
0010
0100
0001
1000
0100
0010
0100
1000
0001
0010
,
0100
1000
0001
0100
0010
0100
0001
1000
0100
0010
0100
1000
0001
0100
0010
0100
,
0001
1000
0100
0010
0100
1000
0001
0010
0100
1000
0001
0100
0010
0100
0001
1000
,
0010
1000
0001
0100
0001
1000
0001
1000
0100
1000
0001
0010
0001
1000
0100
1000
,
0001
0100
0010
1000
0100
0010
0100
1000
0001
0010
0100
1000
0001
0100
0010
0100
,
0001
1000
0100
0010
0100
1000
0001
0010
0100
1000
0001
0100
0010
0100
0001
1000
,
0100
0010
0100
1000
0001
0010
0100
1000
0001
0100
0010
0100
0001
1000
0100
0010
,
0100
1000
0001
0010
0100
1000
0001
0100
0010
0100
0001
1000
0100
0010
0100
1000
,
0001
0100
0010
0100
0001
1000
0100
0010
0100
1000
0001
0100
0010
1000
0100
0010
,
0100
1000
0001
0100
0010
0100
0001
1000
0100
0010
0100
1000
0001
0010
0100
1000
,
0001
0100
0010
0100
0001
1000
0100
0010
0100
1000
0001
0010
0100
1000
0001
0010
,
0001
1000
0010
0100
0001
1000
0100
0010
0100
1000
0001
0010
0100
1000
0001
0100
,
0010
0100
0001
1000
0100
0010
0100
1000
0001
0010
0100
1000
0001
0100
0010
0100
,
0001
1000
0100
0010
0100
1000
0001
0100
1001
0000
0000
0000
0022
0000
0000
0000
,
0003
003M
00M0
0000
1001
0000
1010
0000
,
1000
0001
0100
0000
0101
0000
2020
0000
,
3000
0000
M030
0000
00M0
0000
0000
0000
0100
0001
0100
0000
0010
1000
0010
0000
,
0100
0000
0001
0100
0010
0000
1000
0000
0002
0000
0000
0000
0200
0000
0000
0000
,
0020
2000
0003
030M
,
3M30
M0M0
0101
1010
,
1001
0110
0022
0000
,
0033
00MM
1000
0000
1010
0000
2020
0000
,
0030
30M0
M000
0000
0101
0000
1010
0000
,
1000
0001
0100
0000
1010
0000
2020
3030
,
1000
1010
0000
0100
0101
0000
1001
0000
,
1000
0000
0001
0100
0010
1000
0100
0000
0020
0000
0000
0000
0230
0000
0000
0000
,
2300
3002
0203
0320
,
1030
0100
0010
0100
1000
0001
0100
0010
0100
0001
1000
0100
0010
0100
1000
0001
,
0100
0010
0100
0001
0010
0100
1000
0001
0010
0000
0200
0000
2300
0000
3002
0000
,
0203
0000
0300
0000
0010
0010
1000
1000
,
0001
0000
0001
0000
0100
0000
0100
0000
1000
0010
1000
0001
0100
0010
1000
0100
,
0010
0100
1000
0001
0010
0100
1000
0001
0100
0010
0100
0001
0010
0100
1000
0001
,
0100
0010
0100
0001
1000
0100
0010
0100
1000
0001
1000
0100
1000
0001
0010
0100
,
1000
0001
0100
0010
0100
0001
1000
0100
0010
0100
1000
0001
0010
0100
1000
0001
,
0100
0010
0100
0001
1000
0100
0010
0100
1000
0001
0010
0100
1000
0001
0100
0010
,
0100
0001
1000
0100
0010
0100
1000
0001
0100
0010
0100
0001
0010
0001
1000
0100
,
1000
0001
0100
0010
1000
0001
0100
0010
1000
0001
0010
0001
1000
0100
0010
0100
,
1000
0001
0010
0100
1000
0001
0010
0100
0010
0000
0100
0000
1010
0000
0100
0000
,
0001
0000
0100
0000
1010
0000
0100
0000
1000
0100
0010
0100
1000
0001
0100
0010
,
0100
0001
0010
0100
1000
0001
0100
0010
0100
0001
1000
0100
0010
0100
1000
0001
,
0100
0001
1000
0100
0010
0100
1000
0001
0100
0010
0100
0001
1000
0100
0010
0100
,
1000
0001
0010
0100
1000
0001
0100
0010
0100
0001
1000
0100
0010
0100
1000
0001
,
0010
0100
1000
0001
0100
0010
0100
0001
1000
0100
0010
0100
1000
0001
0010
0100
,
1000
0001
0100
0010
0100
0001
1000
0100
0010
0100
1000
0001
0010
0100
1000
0001
,
0100
0010
0100
0001
1000
0100
0010
0100
1000
0001
0010
0100
1000
0001
0100
0010
,
0100
0001
0010
0001
1000
0100
0010
0100
1000
0001
0010
0100
1000
0001
0100
0010
,
0100
0001
1000
0100
0010
0100
1000
0100
2000
0000
0000
0000
3200
0000
0320
0000
,
0031
0020
0032
2003
3020
0130
0002
0023
,
0031
2000
3200
2300
3200
0310
0002
0023
,
0031
2000
3002
0203
0320
1030
0200
0320
,
1030
0000
0200
0000
2300
0000
3002
0000
1003
0100
0010
0100
1000
0001
0100
0010
,
1000
0100
0010
0100
1000
0001
0010
0100
1000
0001
0100
0010
0100
0001
1000
0100
,
0010
0100
1000
0001
0100
0010
0100
0001
0010
0100
1000
0001
0100
0010
0100
0001
,
1000
0100
0010
0100
1000
0001
0100
0010
1000
0100
0010
0100
1000
0001
0100
0010
,
1000
0010
0100
0001
1000
0100
0010
0100
1000
0001
0100
0010
0100
0001
0010
0100
,
1000
0001
0100
0010
0100
0001
1000
0100
0010
0100
1000
0001
0100
0010
0100
0001
,
1000
0100
0010
0100
1000
0001
0010
0100
1000
0001
0100
0010
0100
0001
0010
0100
,
1000
0001
0100
0010
0100
0001
1000
0100
0010
0100
1000
0001
0010
0100
1000
0001
,
0100
0010
0100
0001
1000
0100
0010
0001
1000
0010
1000
0010
0100
0001
0100
0001
,
1000
0100
0010
0100
1000
0001
0010
0100
1000
0001
0100
0010
0100
0001
1000
0100
,
0010
0100
1000
0001
0010
0100
1000
0001
0100
0010
0100
0001
1000
0100
0010
0100
,
1000
0001
0010
0100
1000
0000
0010
0100
0110
0000
0001
0000
1000
0000
0001
0000
,
0100
0010
1000
0010
1000
0000
11MM
0000
,
1100
0000
1100
0000
0010
0000
0100
0000
0001
1000
0100
0000
0010
0001
1000
0000
,
0001
0010
0001
0010
0011
0000
0011
0000
,
1100
1100
0001
0100
0101
0000
0101
0000
,
0001
0000
0100
0010
1000
0000
0010
0000
2002
0000
3003
0000
0020
0000
0030
0000
,
0200
0300
0002
0003
2002
3003
2020
3030
,
2002
3003
0010
0000
0100
0000
0001
0000
2200
0000
3300
0000
0200
0000
0000
0000
,
0320
0032
2003
0000
,
3010
0100
0001
1000
0010
0000
1010
0000
,
1001
1010
0100
0001
0200
0300
0110
0000
,
1000
0010
0100
0001
1MM1
0000
1010
0000
,
0101
1010
1000
0001
0100
0000
0010
0000
,
1000
0000
0001
0100
0010
0000
1000
0000
0202
0000
0303
0000
0202
0000
0303
0000
,
0010
1000
0000
1000
1001
0000
0110
0000
,
1000
0100
0010
0001
1001
0000
0100
0010
,
0100
0000
0010
0000
0100
0000
0001
0000
1000
0100
0010
0000
0001
0010
0100
0000
,
1000
0001
0100
0000
0001
0000
0010
0000
0102
0000
0000
0000
1000
0000
0000
0000
,
0100
0103
0010
1000
2010
0000
0001
0000
,
0010
3010
0100
0001
M11M
0000
1010
0000
,
0101
0000
0101
0000
0001
0000
0100
0000
0010
1000
0001
0000
0100
0010
1000
0000
,
1000
0000
0001
0100
0010
0000
1000
0000
2200
0000
3300
0000
0020
0000
0000
0000
,
0031
0100
0010
1000
2020
3030
2002
3003
,
0010
0010
0100
0100
2002
3003
0020
0000
,
0230
1300
0200
0310
0002
0000
0000
0000
,
1003
0000
0010
0100
0020
0000
2030
0000
3020
0000
4030
0000
3004
0000
0403
0000
,
0304
0203
0320
2030
3200
0340
0034
0403
,
0340
2030
3200
2300
3002
0403
0340
4030
,
3400
0320
0032
0203
0320
4030
3400
0340
,
0130
0000
1000
0001
0100
0000
0010
0000
1010
0000
0000
0000
2002
0000
3003
0000
,
0100
0000
0100
0000
1000
0000
0010
0000
0110
0000
0000
0000
1000
0001
0100
0010
,
1000
0100
0010
0100
1000
0001
0100
0010
1000
0100
0010
0100
1000
0001
0010
0100
,
1000
0001
0100
0010
0100
0001
1000
0100
1000
0000
0010
0000
0100
0000
0001
0000
,
0100
0000
0000
0010
1000
0000
0010
0000
0100
0000
0100
0000
0010
0000
0010
0000
,
1000
0000
1000
0000
0001
0000
0001
0000
1010
0000
0010
0000
0100
0000
0010
1000
,
0100
1000
0001
0010
0100
1000
0001
0100
0010
0100
0001
1000
0100
0010
0100
1000
,
0001
0100
0010
1000
0100
0010
0100
1000
0001
0010
0100
1000
0001
0100
0010
0100
,
0001
1000
0100
0010
0100
1000
0001
0010
0100
1000
0001
0100
0010
0100
0001
1000
,
0100
0010
0100
1000
0001
0010
0100
1000
0001
0100
0010
0100
0001
0010
0100
1000
,
0001
0100
0010
0100
0001
1000
0100
0010
0100
1000
0001
0010
0100
1000
0001
0100
,
0010
0100
0001
1000
0100
0010
0100
1000
0001
0010
0100
1000
0001
0100
0010
0100
,
0001
1000
0100
0010
0100
1000
0001
0010
0001
1000
0010
0100
0001
1000
0100
0010
,
0100
1000
0001
0010
0100
1000
0001
0100
0010
0100
0001
1000
0100
0010
0100
1000
,
0001
0010
0100
1000
0001
0100
0010
0100
0001
1000
0010
0100
0001
1000
0100
0010
,
0100
1000
0001
0010
0100
1000
0001
0100
0010
0100
0001
1000
0100
0010
0100
1000
,
0001
0010
0100
1000
0001
0100
0010
0100
0001
0100
0010
1000
0100
0010
0100
1000
,
0001
0010
0100
1000
0001
0100
0010
0100
0001
1000
0010
0100
0010
0100
0001
0100
,
0010
0100
0001
1000
0100
0010
0100
1000
0001
0010
0100
1000
0001
0100
0010
0100
,
0001
0100
0010
0100
0001
0100
0001
1000
0100
0010
0100
1000
0010
0100
0010
0100
,
0001
0100
0010
1000
0100
0010
0100
1000
0100
0000
0010
0000
1001
0000
0100
0000
,
1001
0000
0010
0000
1001
0000
0100
0000
0010
1000
0100
1000
0001
1000
0100
1000
,
0001
0000
0000
1000
0000
0000
0100
0000
0000
1000
0000
0000
0010
0000
0000
1000
0000
0000
0100
0000
0000
1000
0000
0000
0001
0000
0010
0000
0100
0000
1000
0000
0001
0000
0100
0000
0010
0000
0100
0000
0001
0000
1000
0000
0100
0000
0010
0000
,
0100
0000
1000
0000
0001
0000
0010
0000
0100
0000
1000
0000
0001
0000
0100
0000
0010
0000
1000
0000
0001
0000
0100
0000
0010
0000
0000
1000
0000
0000
0100
0000
0000
0010
0000
0000
0100
0000
0000
1000
0000
0000
0001
0000
0000
0100
0000
0000
,
0010
0100
0001
1000
0100
0010
0100
1000
0001
0010
0100
1000
0001
0100
0010
0100
,
0001
1000
0100
0010
0100
1000
0001
0010
0100
1000
0001
0100
0010
0100
0001
1000
,
0100
0010
0100
1000
0001
0010
0100
1000
0001
0100
0010
0100
0001
1000
0100
0010
,
0100
1000
0001
0010
0100
1000
0001
0100
0010
0100
0001
0010
0001
1000
0100
0010
,
0100
1000
0001
0100
0010
0100
0001
0010
0001
1000
0100
0010
0100
1000
0001
0010
,
0100
1000
0001
0100
0010
0100
0001
1000
0100
0010
0001
0010
0100
1000
0001
0100
,
0010
0100
0010
0100
0001
0010
0001
0010
0100
1000
0100
1000
0001
0100
0001
0100
,
0010
1000
0010
0100
0001
1000
0100
0010
0001
1000
0100
0010
0100
1000
0001
0100
,
0010
0100
0002
0013
0100
1000
0001
0100
0010
0100
0001
1000
0100
0010
0100
1000
,
0001
0100
0010
1000
0010
0100
0010
1000
1010
0000
0100
0000
0100
0000
0001
0000
,
0001
0100
0010
1000
1010
0010
0110
0100
,
0101
0000
0001
1000
0001
0000
1000
0000
1001
0000
0010
0000
0100
0000
0001
0000
,
1000
0100
0010
0100
1001
0100
0010
0100
,
0001
0000
1000
0000
0100
0000
0010
0000
0100
1000
0100
1000
0001
0100
0010
1000
,
0100
0010
0100
1000
0001
0100
0010
1000
0001
0100
0010
1000
0001
0010
0100
1000
,
0001
0100
0010
0100
0001
1000
0100
0010
0002
0000
0000
0000
0103
0000
0010
0000
,
1000
0000
0000
0000
0100
0000
0000
0000
0020
0000
0000
0000
0031
0000
0000
0000
0020
0000
0000
0000
0031
1000
0001
1000
0001
0000
0000
0000
0100
0000
0000
0000
,
0010
0000
0000
0000
1000
0000
0001
0000
0100
0000
0000
0000
0010
0000
0000
0000
1000
0000
0000
0000
0001
1000
0001
1000
0001
0000
0000
0000
0100
0000
0000
0000
,
0010
0000
0000
0000
1000
0000
0000
0000
0100
0000
0000
0000
1000
0000
0000
0000
0001
0000
0000
0000
1000
0001
1000
0001
1000
0000
0000
0000
0010
0000
0000
0000
,
0100
0000
0000
0000
0001
0000
0100
0000
0010
0000
0000
0000
1000
0000
0000
0000
0100
0000
0000
0000
0010
0001
0010
0001
0010
0000
0000
0000
0100
0000
0000
0000
,
1000
0000
0000
0000
0001
0000
0100
0000
0010
0000
0000
0000
1000
0000
0000
0000
0100
0000
0000
0000
0010
0100
0010
0100
0010
0000
0000
0000
0100
0000
0000
0000
,
1000
0000
0000
0000
0010
0000
0100
0000
0010
0000
0000
0000
1000
0000
0000
0000
0100
0000
0000
0000
0010
0100
0010
0100
0010
0000
0000
0000
0100
0000
0000
0000
,
1000
0000
0010
0100
0010
0000
1000
0000
0100
0000
0010
0100
1000
0000
0001
0000
,
0100
0010
1000
0010
1010
0000
0010
1000
,
0000
0010
1000
0010
1000
0000
0010
1000
,
0000
0010
1000
0010
1000
0000
0010
1000
,
0000
0000
0010
0000
1000
0000
0010
0000
1000
0001
0100
0010
1000
0100
0010
0100
,
1000
0001
0100
0010
0100
0001
0010
0100
1000
0000
0100
0000
0010
0000
0100
0000
,
1000
0001
0100
0010
0100
0001
1000
0100
,
0010
0100
1000
0001
0100
0010
0100
0001
,
0100
0010
0100
0010
0100
0100
0010
0010
,
0400
0000
0000
0000
0301
0000
0000
0000
1000
0100
1000
0001
1000
0010
0100
0001
,
1000
0100
0010
0100
1000
0001
0010
0100
1000
0001
0100
0010
0100
0001
1000
0100
,
0010
0100
1000
0001
0100
0010
0100
0001
0010
0100
1000
0001
0100
0010
0100
0001
,
1000
0100
0010
0100
1000
0001
0010
0100
1000
0001
0100
0010
0100
0001
0100
0010
,
1000
0100
0010
0100
1000
0001
0100
0010
0100
0001
0100
0010
0100
0010
1000
0100
,
0010
0100
0010
0100
1000
0001
0100
0010
0100
0010
0100
0001
1000
0100
1000
0001
,
0010
0100
1000
0001
0100
0010
0100
0001
0100
0010
1000
0100
0010
0100
1000
0001
,
0010
0100
1000
0001
0100
0010
0100
0001
1000
0100
0010
0100
1000
0001
0010
0100
,
1000
0001
0100
0010
0100
0001
1000
0100
1000
0001
0100
0010
0100
0010
1000
0010
,
0100
0001
0100
0010
1000
0100
0010
0100
1000
0001
0010
0100
1000
0001
0100
0010
,
0100
0001
0100
0001
0100
0010
0100
0001
1000
0100
1000
0001
1000
0100
1000
0100
,
1000
0001
0100
0010
0100
0010
0100
0001
0100
0010
0100
0001
1000
0100
1000
0100
,
1000
0001
1000
0100
1000
0001
0100
0010
0100
0001
0010
0100
1000
0001
0010
0001
,
1000
0010
0100
0001
1000
0100
0010
0100
1000
0001
0010
0100
1000
0001
0100
0010
,
0100
0001
0010
0100
1000
0001
0100
0010
0100
0001
1000
0100
0010
0001
1000
0001
,
0100
0010
1000
0001
0010
0100
1000
0001
0100
0010
0100
0001
0100
0010
0100
0001
,
1000
0100
0010
0100
1000
0001
0010
0100
1000
0001
0100
0010
0100
0001
0010
0100
,
1000
0001
0100
0010
0100
0001
1000
0100
0010
0100
1000
0001
0010
0001
1000
0010
,
0100
0010
1000
0010
0100
0001
0100
0010
1000
0100
0010
0100
1000
0001
0010
0100
,
1000
0001
0100
0010
0100
0001
1000
0100
0010
0100
0010
0001
0100
0010
1000
0001
,
0100
0010
0100
0001
0100
0010
1000
0001
0100
0010
0100
0001
0100
0010
1000
0100
,
1000
0001
0010
0100
1000
0001
0100
0010
0100
0001
1000
0100
0010
0100
1000
0001
,
0010
0100
1000
0001
0100
0010
0100
0001
1000
0100
0010
0100
1000
0001
0010
0100
,
1000
0001
0100
0010
0100
0001
1000
0100
0010
0100
1000
0001
0100
0010
1000
0100
,
0010
0001
0010
0100
1000
0001
0100
0010
0100
0001
1000
0010
0100
0000
0000
0000
0000
0000
000M
0000
0000
0000
0000
0000
,
MMM0
MMM0
0000
0000
000M
0000
00M0
0000
,
MMM0
M0MM
0000
0000
0110
0000
0010
0000
,
0100
0110
0000
0000
1001
0000
0101
0000
,
0110
0110
1000
0000
0001
0000
0100
0000
,
0000
0010
0000
0010
1010
0000
1000
0000
,
0010
0000
2010
3002
,
0203
0320
2030
0000
,
3001
0000
0100
0010
0100
0000
0010
0000
1010
0000
0000
0000
0100
0000
0000
0000
,
0010
0000
1000
0000
0000
0000
0010
0000
0100
0000
0000
0000
1000
0001
0100
0010
,
1000
0010
0100
0001
1000
0000
1010
0000
,
0100
0010
0000
0100
0000
0010
0100
0000
,
0001
0000
0100
0000
0010
0000
1000
0000
1000
0010
0100
0001
1000
0100
0010
0100
,
1000
0001
0100
0010
0100
0001
0010
0100
1000
0000
0000
0000
1010
0000
0000
0000
,
0000
0010
0000
1000
1001
0000
0110
0000
,
0101
1001
0000
1000
0010
0100
0001
1000
,
0100
1000
0001
0100
0002
0403
0340
4030
,
3400
0320
0032
0203
0320
4030
3400
0340
,
0430
0320
0032
0203
0320
4030
3400
0340
,
0430
2300
3020
0230
0302
0403
0340
4030
,
3010
0000
0100
0000
0001
0000
0100
0000
1010
0000
1000
0001
0100
0000
0010
1000
,
0001
0000
1000
0010
0100
0000
0001
0100
0010
0000
0000
0000
1010
0000
0000
0000
,
0101
1010
0000
0100
2002
3003
0020
0000
,
0230
0302
2003
0000
,
3010
0000
1000
0001
0200
0000
0320
0000
2030
0000
3400
0000
0340
0000
0034
0000
,
0403
0320
2030
3200
0320
0034
0403
0340
,
4030
3200
0320
0230
2300
3040
0430
0304
,
0403
0320
2030
3020
0230
0304
0403
0340
,
1030
0010
1001
0000
2001
0000
3020
0000
,
0130
0001
0100
0010
1010
0000
0110
0000
,
1000
0010
0100
0001
0100
0010
1000
0100
0010
0100
1000
0001
0010
0100
1000
0001
,
0100
0010
0100
0001
1000
0100
0010
0100
1000
0000
0010
0000
0100
0000
0001
0000
,
1000
0000
0000
0000
0000
0000
0000
0000
0020
0030
0020
0030
0020
0030
0020
0030
,
0200
0300
0200
0300
0200
0300
2000
3000
0001
0100
0010
1000
0100
0010
0100
1000
,
0001
0100
0010
0100
0001
1000
0010
0100
0010
0100
0001
1000
0010
0100
0001
0010
,
0100
1000
0001
0100
0010
0100
0001
1000
0010
1000
0010
0100
0001
1000
0100
0010
,
0100
1000
0001
0010
0100
1000
0001
0100
0010
0100
0001
0100
0010
1000
0100
0010
,
0100
1000
0001
0100
0010
0100
0001
0010
0100
1000
0001
0100
0010
0100
0001
1000
,
0100
0010
0100
1000
0001
0010
0100
1000
0001
0100
0010
0100
0001
0010
0001
1000
,
0100
0010
0100
1000
0001
0100
0010
0100
0001
0010
0001
1000
0010
0100
0001
0010
,
0001
1000
0100
0010
0100
1000
0001
0010
0100
1000
0001
0100
0010
0100
0001
0100
,
0010
1000
0010
0100
0010
1000
0001
0010
0100
1000
0001
0100
0010
1000
0100
1000
,
0100
0010
0100
1000
0001
0100
0010
0100
0001
0010
0100
1000
0001
0010
0001
1000
,
0100
0010
0100
1000
0001
0010
0100
0010
0001
1000
0001
0100
0010
1000
0100
0010
,
0100
1000
0010
0100
0001
0010
0001
1000
0100
0010
0100
1000
0001
0100
0010
0100
,
0001
1000
0100
0010
0100
1000
0001
0010
0100
1000
0001
0010
0001
1000
0100
1000
,
0001
0100
0010
0100
0001
0010
0001
1000
0100
0010
0100
1000
0001
0010
0100
1000
,
0001
0100
0010
0100
0001
0010
0001
1000
0100
0010
0001
0010
0100
1000
0001
0100
,
0010
0100
0001
0010
0001
1000
0100
0010
0100
1000
0001
0100
0010
0100
0001
1000
,
0100
0010
0100
1000
0001
0100
0010
1000
0020
0000
0000
0000
0000
0000
0000
0000
,
0000
0000
0030
0000
;
