#TITLE:Seek Kill Repeat v2;
#SUBTITLE:BLAME!;
#ARTIST:El Stew;
#TITLETRANSLIT:;
#SUBTITLETRANSLIT:;
#ARTISTTRANSLIT:;
#CREDIT:;
#BANNER:Seek Kill Repeat.png;
#BACKGROUND:screen4.png;
#LYRICSPATH:;
#CDTITLE:;
#MUSIC:Seek Kill Repeat.mp3;
#OFFSET:0.000;
#SAMPLESTART:100.000;
#SAMPLELENGTH:12.000;
#SELECTABLE:YES;
#BPMS:0.000=50.000,19.750=25.000,20.253=99.990,36.250=199.980,38.250=99.990,40.250=199.980,44.250=99.990,46.250=199.980,50.250=99.990,52.250=199.980,56.250=99.990,58.250=199.980,60.250=99.990,84.500=199.980,86.500=99.990,88.250=199.980,92.750=99.990,94.500=199.980,96.500=99.990,112.250=199.980,176.750=99.990,192.750=199.980,195.250=99.990,196.750=199.980,201.750=99.990,203.250=199.980,205.750=99.990,221.750=199.980,285.250=99.990;
#STOPS:17.500=0.300
;
#BGCHANGES:;
// cache tags:
#FIRSTBEAT:0.000;
#LASTBEAT:301.500;
#SONGFILENAME:Songs/toune/Seek Kill Repeat v2/Seek Kill Repeat.sm;
#HASMUSIC:1;
#HASBANNER:1;
#MUSICLENGTH:156.695;
// end cache tags

//---------------dance-single - ----------------
#NOTES:
     dance-single:
     :
     Challenge:
     15:
     0.487,0.505,0.434,0.300,1.000,419.000,68.000,47.000,489.000,4.000:
2000
000M
0M00
00M0
0000
000M
00M0
000M
0000
0M00
000M
000M
0M00
00MM
0M00
0000
,
0M00
000M
0000
00M0
000M
000M
00M0
0MM0
00M0
0000
300M
M0M0
0M00
0M0M
000M
M000
,
00MM
0M02
MM00
M000
00M0
0M00
0MM0
0000
M000
00M0
0MM3
00MM
MM0M
M0MM
M0M0
0MMM
,
M000
2M00
00M0
0M0M
0MM0
0000
00M0
0M0M
0MMM
0M2M
300M
MM00
000M
0M0M
M000
MM00
,
M00M
0M0M
M000
0M0M
0M00
MM0M
0M02
M000
MM00
MM00
MM00
M000
0M00
0M00
M000
0M33
,
0000
21MM
0000
0000
0000
001M
0000
00M1
0000
001M
0000
0000
0000
0000
0000
3000
,
0000
MM12
0000
0000
0000
10M0
0000
M010
0000
10M0
0000
0000
0000
0000
0000
0003
,
0000
1M2M
0000
0000
0000
010M
0000
0M01
0000
010M
0000
0000
0000
0000
0000
0030
,
0000
2M1M
0000
0000
0000
0M01
0000
010M
0000
0M01
0000
0000
0000
3000
0000
M0M0
,
0000
2020
0000
0000
0000
0000
0000
0000
0000
3000
0000
M00M
0000
0031
0000
M0MM
,
0000
2000
0000
000M
0000
0000
0000
00MM
0000
3022
0000
M000
0000
0000
0000
0000
,
0000
0003
0000
000M
0000
1030
0000
M0M0
0000
2000
0000
0000
0000
0000
0000
0MM0
,
0000
3220
0000
M000
0000
M000
0000
0000
0000
0300
0000
0M0M
0000
0031
0000
MMMM
,
0000
2000
0000
0000
0000
0000
0000
00MM
0000
3022
0000
M000
0000
M000
0000
M000
,
0000
M003
0000
M00M
0000
103M
0000
M0MM
0000
0002
0000
0000
0000
0000
0000
0000
,
0000
0103
0100
0000
0000
1100
0000
0010
01M0
0010
0010
0100
0002
0000
0000
0003
,
0000
100M
1000
0010
0000
0101
0000
0001
0010
0001
01M0
1000
0020
0000
0000
0030
,
0000
11MM
0000
0010
0000
M1M1
0000
M00M
0000
1001
0000
00M0
0000
MM1M
0000
0000
,
0100
0100
0010
1000
0001
0100
0000
0MM0
0000
0110
0000
0M0M
0000
M1M1
0000
0000
,
0001
1000
0100
M01M
0000
1M1M
0000
0000
0000
MM11
0000
0000
0000
11MM
0000
0000
,
1000
0100
0010
100M
0011
0000
0000
0000
0000
M1M1
0000
0000
0000
0010
0000
0000
,
1000
M100
2000
0000
0M00
0000
0000
0000
0100
0000
3000
M000
0010
0001
1000
M001
,
1000
1M2M
0000
0000
0000
M000
0000
0000
0000
2M31
0000
00M0
0000
0000
0000
0000
,
0000
0010
0000
3000
0M00
0001
0010
0100
1000
0100
MM12
0000
0000
0000
0000
0000
,
0000
1MM3
M100
0M10
0000
MM11
MMMM
M11M
,
0000
1000
0001
0010
100M
0MM0
1001
0000
MMM0
0000
1010
0000
0000
0000
0100
0000
,
0000
0100
0100
0010
1000
0001
0000
0000
0000
0000
0110
0000
0MMM
0000
1MMM
0000
,
0000
0110
1100
0001
1000
0110
0000
0000
0000
0000
1100
0000
0000
0000
MM1M
0000
,
0000
1000
0000
M000
0000
0000
0000
00M0
0000
0M10
0000
01M0
0000
0M0M
0000
0001
,
0000
0001
0000
0001
0000
000M
0000
0100
0000
0000
0000
1M00
0000
0100
0010
0100
,
0010
0M01
0010
M100
0000
0000
0000
1000
0000
1000
0000
M000
0000
0MM0
0000
0110
,
0000
0010
0000
0010
0000
00MM
0000
MM22
0000
0033
00MM
1000
0000
0000
0100
10M0
,
0100
M010
0100
00M0
0000
0000
0000
1000
0000
0100
0000
0010
0000
000M
0000
0001
,
0000
0001
0000
0001
0000
000M
0000
0000
0000
0010
0000
1000
00M1
0100
0010
0100
,
1000
0010
0M00
0000
0000
0000
0000
0000
0000
0010
0000
1000
0000
0000
0000
0001
,
0000
0100
0000
0010
0000
0M0M
0000
M2M2
0000
0303
0000
010M
0000
0M00
0001
0100
,
1000
0010
M100
0000
0000
0M00
0000
01M0
0000
0M10
0000
01M0
0000
0M00
0000
1000
,
0000
0010
0000
0010
0000
00M0
0000
0000
0000
0001
0000
0100
0010
1M0M
0010
0100
,
1000
0010
0M00
0000
0000
0000
0000
0000
0000
01M0
0000
0M10
0000
0000
0000
00M1
,
0000
0010
0000
0010
0000
0MM0
0000
M22M
0000
0330
0000
0MM1
0000
0000
1000
0M10
,
0010
1000
1M00
00M0
M000
0000
0000
01M0
0000
0M10
0000
0010
0000
M000
0000
1M00
,
0000
01M0
0000
0010
0000
0000
0000
0000
0000
M001
0000
1000
1000
0M10
1000
0100
,
1000
0M01
0000
000M
0000
0000
0000
0000
0000
0100
0000
0001
00M0
0000
0000
001M
,
0000
0001
0000
0001
0000
MM00
0000
22MM
0000
3300
0000
MM01
0000
0000
1000
0100
,
00M1
0100
0010
1000
0000
0100
0000
M01M
0000
0000
0000
1MM1
0000
0000
0010
0000
,
0000
0000
0100
0110
1000
0010
0001
0000
0000
M00M
0000
1001
0000
M00M
0000
0010
,
0000
00M0
0100
0100
0M10
1000
0001
0000
MMMM
0000
0000
1M1M
0000
0000
0000
0001
,
0000
00M0
0001
M101
0010
1000
0M01
0000
0000
00M0
0000
0M1M
0000
00M0
0000
1M00
,
0000
00M1
0001
1200
0000
M000
0000
0000
0000
000M
0000
0001
0000
030M
0000
1000
,
0100
1000
0100
M012
0000
00M0
0000
0000
0000
0000
0000
0003
0000
21MM
0000
0M00
,
0000
0000
0000
00M0
0000
0010
0000
30M0
0000
1000
1000
0100
0000
1M2M
0000
0000
,
0000
0000
0000
0000
0000
000M
0000
0031
00M0
0001
0100
0000
0000
0000
0000
1000
,
0MM0
0000
M000
M11M
0000
0000
0M11
0M01
1000
0010
1100
0000
0000
MMMM
0000
1MM1
,
0000
M00M
0000
0M10
0000
0000
M11M
M10M
001M
M110
M000
0MM1
0000
M00M
0000
1M00
,
0000
MMM0
0000
0110
0000
00M1
0001
0000
1000
010M
M100
0000
0000
000M
0000
0001
,
0000
M00M
0000
1000
0000
0M00
0010
0110
0000
0MM0
0000
0000
0000
1M00
0000
M100
,
0000
00M0
0000
M010
0000
1000
0000
M001
0000
0000
0000
000M
0000
0001
0000
0000
,
1MM0
0001
0110
1001
0000
M110
0000
0000
0000
0000
0000
00M1
0000
M00M
0000
00M1
,
0000
0000
0000
1000
0M00
0010
M000
0100
00M0
0000
0000
0000
2M2M
0000
3030
0000
,
M01M
0000
0000
0001
10M0
0001
1000
01M0
0000
0M0M
0000
0000
001M
0000
010M
0000
,
1000
00M0
01M0
1M00
0000
0000
0000
00M1
,
1000
1000
0M10
M001
0010
1000
010M
0000
00M0
0000
0000
0000
0000
0000
0010
0000
,
0100
0M00
10M0
1000
0100
M0M0
2M2M
3030
,
M1M0
0000
0000
1000
010M
1000
0010
M100
00M0
0M00
000M
0000
0001
0000
00M1
0000
,
0010
0M00
1000
MM10
0100
0000
0000
00M1
,
0100
0010
0M10
0001
0001
0100
100M
0000
M000
0000
0000
0000
0000
0000
1000
0000
,
M010
000M
0000
0000
0M01
0000
0100
0000
0001
0000
M00M
0000
2MM2
0000
3003
0000
,
M01M
0000
0000
0010
100M
0010
0001
0010
M00M
0M00
0000
0000
1M00
0000
0M10
0000
,
0100
M000
0M10
1M00
1000
0000
0000
00M1
,
1000
0100
M100
0010
0100
1000
01M0
0000
0M00
0000
0000
0000
0000
0000
1000
0000
,
M001
0000
000M
0000
1000
0000
1M00
0000
1000
00MM
0000
0022
0000
0033
0000
0000
,
0000
0000
0000
M000
0000
1000
0000
M100
0000
1M00
0000
00M0
0000
1010
0000
M0M0
,
0000
0000
0001
0000
000M
1000
10M0
0100
M010
0M01
0000
0100
0000
0000
1000
0000
,
M000
0000
0010
0000
0M00
0010
0110
0000
M0M1
0100
0000
0000
M0M0
0000
1010
0000
,
0000
1001
0000
M000
001M
0M00
0011
0100
000M
1M00
0010
0000
000M
0000
0001
0000
,
00M0
0000
0000
0000
0010
0000
0000
0000
0000
0000
0110
0MM0
0110
0000
0000
0000
0000
0000
0000
0000
0000
0000
0000
0000
0000
0000
0000
0000
0000
0000
0000
0000
;

//---------------dance-single - ----------------
#NOTES:
     dance-single:
     :
     Hard:
     10:
     0.483,0.505,0.421,0.300,0.913,417.000,66.000,47.000,260.000,4.000:
0020
MM00
000M
M00M
,
0M00
0000
0000
0000
MM00
0030
000M
M0M0
,
0200
0000
M0M0
0000
000M
0300
00M0
0M00
,
0000
002M
0000
0000
0000
000M
M000
0000
0000
0032
0M00
0000
0000
0000
0000
0000
,
0000
0000
0M00
0000
0000
0000
M2M0
0000
0000
0000
M0M0
0000
0000
0000
0000
0303
,
0000
1020
0000
0000
0000
1000
0000
M100
0000
1000
0000
0000
0000
0000
0000
0030
,
0000
0210
0000
0000
0000
0001
0000
0001
0000
0001
0000
0000
0000
0000
0000
0300
,
0000
1002
0000
0000
0000
0010
0000
10M0
0000
0010
0000
0000
0000
0000
0000
0003
,
0000
1020
0000
0000
0000
0001
0000
0001
0000
0100
0000
0M00
0000
0030
0000
0000
,
0000
0022
0000
0000
0000
0000
0000
0000
0000
0M30
0000
0000
0000
01M3
0000
0000
,
0000
0020
0000
0000
0000
0M0M
0000
0000
0000
0232
0000
0000
0000
00M0
0000
0000
,
0000
0300
0000
0M00
0000
0103
0000
0000
0000
0020
0000
0000
0000
0000
0000
0000
,
0000
2032
0000
0000
0000
00M0
0000
0000
0000
3000
0000
M000
0000
10M3
0000
0000
,
0000
0020
0000
0000
0000
0M0M
0000
0000
0000
0232
0000
0000
0000
00M0
0000
0000
,
0000
0300
0000
0000
0000
1M03
0000
0000
0000
0200
0000
0000
0000
0000
0000
0000
,
0000
0310
1000
0M00
0000
0110
0000
0001
1000
0100
0010
0100
0200
0000
0000
0300
,
0000
1M00
0001
0010
0000
0M11
0000
0100
0010
0001
0001
1000
0002
0000
0000
0003
,
0000
0011
0000
0010
0000
1M1M
0000
0000
0000
M11M
0000
0000
0000
0001
0000
0000
,
0001
0100
0010
0100
0100
0010
0000
0000
0000
1MM1
0000
0000
0000
10M1
0000
0000
,
1M00
0010
0010
0001
1100
0000
0000
0000
0000
11MM
0000
0000
0000
M11M
0000
0000
,
1000
0100
0001
0001
01M1
0000
0000
0000
0000
M1M1
0000
0000
0000
1MMM
0000
0000
,
0010
0010
0020
0000
M000
0000
0000
0000
100M
0000
0030
0000
0001
0100
1000
1000
,
0100
01M2
0000
0000
0000
MMM0
0000
0000
0000
1M23
0000
0000
0000
0000
0000
0000
,
0000
1000
0000
0030
000M
0010
0001
0100
0100
1000
0210
0000
00M0
0000
0000
0000
,
0000
0000
0310
0000
0010
0100
0000
0000
0000
0000
M11M
0000
0000
0000
11MM
0000
,
0000
M100
0001
0010
1000
0000
01M1
0000
0000
0000
M1M1
0000
0000
0000
1MMM
0000
,
0000
0010
0001
0100
0001
0000
0010
0000
0000
0000
M1M1
0000
0000
0000
0001
0000
,
0000
1010
1100
0001
0100
M110
0000
0000
0000
0000
11MM
0000
0000
0000
MMM1
0000
,
0000
0001
0000
000M
0000
0000
0000
0000
0000
1000
0000
001M
M000
0M00
0000
100M
,
0000
0100
0000
0001
0000
0000
0000
MM1M
0000
0000
0000
0100
0000
0010
0100
1000
,
0100
0010
0001
M010
0000
0000
0000
1000
0000
0100
0000
0000
0000
0000
0000
11MM
,
0000
1000
0000
0010
0000
0000
0000
M2M2
0000
0303
0000
0001
0M00
0000
001M
0100
,
0010
M001
0010
0000
0000
0000
0000
0100
0000
M001
0000
0000
0000
0000
0000
0100
,
0000
0010
0000
0100
0000
0000
0M00
0000
0000
0100
0000
0001
0010
0100
100M
0010
,
0100
0001
0000
0000
0000
0000
0000
0000
0000
0100
0000
0100
0000
0000
0000
1000
,
0000
0001
0000
0100
0000
0000
0000
22MM
0000
33MM
0000
M100
0000
0000
00M1
0100
,
1000
0010
0100
0000
0000
0000
0000
0100
0000
0100
0000
0001
0000
0000
0000
MMM1
,
0000
0001
0000
MM1M
0000
0000
0000
0000
0000
0001
0000
0001
0100
0010
1M00
0010
,
1000
0010
M000
00M0
0000
0000
0000
0000
0000
0010
0000
0100
0000
0000
0000
MMM1
,
0000
1000
0000
0100
0000
0000
0000
2MM2
0000
3MM3
0000
100M
0000
0000
0001
M100
,
0010
0100
1000
0000
0000
0000
0000
0001
0000
0001
0000
M1MM
0000
0000
0000
MM10
,
0000
0001
0000
0100
0000
0000
0000
0000
0000
1MM0
0000
0001
0100
M001
0010
0001
,
1000
0100
0000
0000
0000
0000
0000
0000
0000
1000
0000
0100
0000
0000
0000
1MM0
,
0000
1000
0000
0010
0000
0000
0000
2M2M
0000
3M3M
0000
1MMM
0000
0000
0001
0010
,
0100
1000
0010
0100
0000
0010
0000
0100
0000
0000
0000
1MM1
0000
0000
0001
MMM0
,
0000
0000
1000
0011
1000
0001
0100
0000
000M
0000
0000
M1M1
0000
0000
0000
0010
,
0000
0000
0010
1000
0010
0100
1000
0000
0000
0000
0000
11MM
0000
0000
0000
MM1M
,
0000
0000
0010
011M
1000
1000
0100
0000
0000
0000
0000
0100
0000
0000
0000
0100
,
0000
0100
0100
2100
0000
0M00
0000
0M00
0000
0M00
0000
0100
0000
3000
0M00
0010
,
0100
1000
0100
0210
0000
0000
0000
0000
0000
0000
0000
0300
0000
MM21
0000
0000
,
0000
000M
0000
0000
0000
1000
0000
0030
0000
0100
0010
0100
0000
0012
0000
0000
,
0000
00M0
0000
00M0
0000
0000
0000
0103
0000
001M
0100
0000
0000
0000
0000
0100
,
0000
0000
0000
M1M1
0000
0000
1M10
0001
1000
0001
1M10
0000
0000
0000
0000
11MM
,
0000
0000
0000
0010
0000
0000
0011
1000
1000
01M1
0000
0100
0000
0000
0000
0010
,
0000
0000
0000
1M1M
0000
0010
0100
0000
0010
0M00
0010
0000
0000
0000
0000
1MMM
,
0000
0000
0000
0M1M
0000
0000
1000
11MM
0000
0000
0000
0000
0000
0100
0000
0100
,
0000
0000
0000
1M00
0000
0010
0000
0010
0000
00MM
0000
0000
0000
0001
0000
0000
,
0010
0100
0011
1100
0000
10M1
0000
0000
0000
0000
0000
0010
0000
0000
00M0
0100
,
0000
0M00
0000
1000
0000
1M00
0000
0010
0000
0000
0000
0000
0022
0000
0033
0000
,
001M
0000
0000
1M00
1000
0010
0010
1M00
0000
0000
0000
0000
0000
0100
0000
0010
,
0000
0100
0000
0000
0001
0000
1000
0000
1MMM
0000
0000
0000
0000
0000
1000
0000
,
0100
1000
0001
0100
0010
M001
01M0
0000
0000
0000
0000
0000
0000
1000
0MM0
0001
,
0000
0000
0010
0100
0001
0000
MM22
0033
,
1000
00MM
0000
0010
0100
0010
0001
1000
0000
0000
0000
0000
MM10
0000
0001
0000
,
M100
0000
0000
0000
0100
0000
0010
0000
1000
0000
0000
M000
0000
0000
1000
0000
,
0010
0001
1000
0010
0001
0010
1000
0000
0000
MMMM
0000
0000
1000
0MMM
1000
0000
,
0000
0000
0000
0000
1000
0000
1000
0000
0001
0000
0000
0000
M22M
0000
0330
M00M
,
0100
00M0
0000
0010
0010
1000
0100
0010
0000
0000
0000
0000
M0M1
0000
0100
0000
,
M0M1
0M00
0001
1000
0100
0000
0000
0001
,
0010
M10M
0010
0100
0001
1000
0010
0000
0000
0000
MMMM
0000
0000
0000
0010
0000
,
MM10
0000
0000
0000
1000
0000
1000
0000
0010
0000
0000
M2M2
0000
0303
M0M0
0000
,
0M0M
0000
0000
0000
0000
0100
0000
0001
0000
M1M0
0000
0000
0000
M11M
0000
0000
,
0000
0000
0100
0000
0000
0010
1000
0010
0000
0010
0001
0M00
0000
0000
1000
0000
,
0000
0000
0100
0000
0000
1000
0M11
0000
1000
0010
0000
0000
0000
0000
MM11
0000
,
0000
1001
0000
0000
0010
0000
1001
0010
0000
0001
1000
0000
0000
0000
1MMM
0000
,
0000
0000
0010
0000
0M0M
1000
0010
0000
0000
0000
0000
0000
0000
0000
0000
0000
;
