#TITLE:Forgotten Moments;
#SUBTITLE:;
#ARTIST:Ophidian;
#TITLETRANSLIT:;
#SUBTITLETRANSLIT:;
#ARTISTTRANSLIT:;
#CREDIT:Rynker;
#BANNER:../speedcore rejects ban.png;
#BACKGROUND:../speedcore rejects bg.png;
#LYRICSPATH:;
#CDTITLE:;
#MUSIC:lenny dee - forgotten moments (ophidian remix).ogg;
#OFFSET:-0.049;
#SAMPLESTART:95.493;
#SAMPLELENGTH:12.000;
#SELECTABLE:YES;
#BPMS:0.000=166.000;
#STOPS:;
#BGCHANGES:;
// cache tags:
#FIRSTBEAT:8.000;
#LASTBEAT:586.000;
#SONGFILENAME:Songs/Speedcore Rejects/Forgotten Moments - [Rynker]/Forgotten Moments.sm;
#HASMUSIC:1;
#HASBANNER:1;
#MUSICLENGTH:215.395;
// end cache tags

//---------------dance-single - Rynker----------------
#NOTES:
     dance-single:
     Rynker:
     Challenge:
     13:
     1.000,1.000,0.432,0.696,0.671,1280.000,93.000,150.000,0.000,0.000:

0000
0000
0000
0000
,
0000
0000
0000
0000
,
1001
0000
1000
0000
0020
0000
0000
0030
1010
0000
0010
0000
0200
0000
0000
0300
,
0001
0000
0010
0000
0200
0000
0000
0300
1000
0000
0001
0000
0000
0000
0001
0000
,
1001
0000
1000
0000
0200
0000
0000
0300
0011
0000
0001
0000
2000
0000
0000
3000
,
0100
0000
1000
0000
0002
0000
0000
0003
0100
0000
0010
0000
0000
0000
0010
0000
,
1010
0000
1000
0000
0002
0000
0000
0003
0101
0000
0001
0000
0200
0000
0000
0300
,
0001
0000
0010
0000
0002
0000
0000
0003
1000
0000
0100
0000
2000
0000
0000
3000
,
0011
0000
0010
0000
0200
0000
0000
0300
1100
0000
0100
0000
2000
0000
0000
3000
,
0001
0000
0100
0000
0020
0000
0000
0030
1000
0000
0010
0000
1000
0010
0100
0001
,
0100
0000
0001
0000
2000
0000
0000
3000
1100
0000
0100
0000
0020
0000
0000
0030
,
0011
0000
0010
0000
0200
0000
0000
0300
0100
0000
1000
0000
0002
0000
0000
0003
,
0011
0000
0001
0000
2000
0000
0000
3000
1010
0000
1000
0000
0002
0000
0000
0003
,
0001
0000
0100
0000
0020
0000
0000
0030
1010
0000
0010
0000
0100
0001
0100
0001
,
1000
0000
0100
0000
0020
0000
0000
0030
0101
0000
0100
0000
0020
0000
0000
0030
,
1001
0000
0001
0000
0200
0000
0000
0300
0001
0000
0010
0000
0200
0000
0000
0300
,
1000
0000
0001
0100
0001
0000
1000
0100
1000
0000
0100
0010
0100
0010
0100
0010
,
0001
1000
0010
1000
0010
0100
0001
0100
0001
1000
0100
1000
0100
0010
0100
0010
,
0100
0000
1000
0000
0002
0000
0000
0003
0100
0000
0001
0000
2000
0000
0000
3000
,
0001
0000
1000
0000
0020
0000
0000
0030
1000
0000
0001
0000
0200
0000
0000
0300
,
0001
0000
1000
0000
0020
0000
0000
0030
1000
0000
0001
0000
0200
0000
0000
0300
,
0001
0000
1000
0000
0200
0000
0000
0300
1000
0000
0100
0000
0020
0000
0000
0030
,
0100
0000
1000
0000
0002
0000
0000
0003
0010
0000
0001
0000
2000
0000
0000
3000
,
0001
0000
1000
0000
0020
0000
0000
0030
1000
0000
0001
0000
0200
0000
0000
0300
,
0001
0000
0100
0000
0020
0000
0000
0030
1000
0000
0010
0000
0200
0000
0000
0300
,
0001
0000
0100
0000
0020
0000
0000
0030
0100
0000
0010
0000
0200
0000
0000
0300
,
0001
0000
1000
0000
0200
0000
0000
0300
0010
0000
0100
0000
2000
0000
0000
3000
,
0100
0000
0010
0000
0002
0000
0000
0003
0010
0000
0100
0000
2000
0000
0000
3000
,
0100
0000
1000
0000
0002
0000
0000
0003
1000
0000
0010
0000
0200
0000
0000
0300
,
0001
0000
1000
0000
0020
0000
0000
0030
1000
0000
0001
0000
0200
0000
0000
0300
,
0010
0000
0100
0000
0002
0000
0000
0003
1000
0000
0010
0000
2000
0000
0000
3000
,
0100
0000
0010
0000
0002
0000
0000
0003
0010
0000
0100
0000
2000
0000
0000
3000
,
0100
0000
0010
0000
0200
0000
0000
0300
1000
0000
0001
0000
2000
0000
0000
3000
,
0010
0000
0100
0000
0020
0000
0000
0030
1000
0000
0001
0000
0200
0000
0000
0300
,
0020
2030
3002
0000
0000
0000
0013
0001
,
1000
0001
1000
0001
1000
0001
1000
0001
,
0200
0320
2030
0000
0000
0000
3010
1000
,
0001
1000
0001
1000
0001
1000
0001
1000
,
0200
0320
0032
0000
0000
0000
1003
0100
,
1000
0100
1000
0100
1000
0100
1000
0100
,
0020
0032
2003
0000
0000
0000
3010
1000
,
0001
1000
1100
0000
0100
1000
0000
1000
,
0200
0320
0032
0000
0000
0000
0103
0010
,
0100
0010
0110
0000
0100
0001
0000
0100
,
0002
2003
3200
0000
0000
0000
0310
0001
,
0010
0001
0011
0000
1000
0010
0000
0010
,
0200
0302
2003
0000
0000
0000
3100
1000
,
0100
1000
1100
0000
1000
0001
0000
0001
,
0200
0320
2030
0000
0000
0000
3001
1000
,
0001
1000
1001
0000
0001
0010
0000
0010
,
0200
0000
2300
0000
3020
0000
0000
0000
0130
0000
0001
0000
2000
0000
0000
3000
,
0100
0000
1000
0000
0002
0000
0000
0003
0010
0000
0001
0000
2000
0000
0000
3000
,
0020
0000
2030
0000
3002
0000
0000
0003
0100
0000
0001
0000
0200
0000
0000
0300
,
0010
0000
0100
0000
0002
0000
0000
0003
1000
0000
0100
0000
2000
0000
0000
3000
,
0200
0000
0320
0000
0032
0000
0000
0003
0010
0000
0100
0000
2000
0000
0000
3000
,
0001
0000
1000
0000
0020
0000
0000
0030
1000
0000
0001
0000
0200
0000
0000
0300
,
0020
0000
0230
0000
0302
0000
0000
0003
1000
0000
0100
0000
0020
0000
0000
0030
,
0100
0000
0010
0000
0002
0000
0000
0003
1000
0000
0010
0000
0200
0000
0000
0300
,
0002
0000
2003
0000
3020
0000
0000
0030
1000
0000
0100
0000
0020
0000
0000
0030
,
0001
0000
0010
0000
0200
0000
0000
0300
0010
0000
0001
0000
2000
0000
0000
3000
,
0020
0000
2030
0000
3002
0000
0000
0003
1000
0000
0010
0000
0200
0000
0000
0300
,
0001
0000
1000
0000
0200
0000
0000
0300
0010
0000
0001
0000
2000
0000
0000
3000
,
0200
0000
0320
0000
0032
0000
0000
0003
0010
0000
0100
0000
2000
0000
0000
3000
,
0001
0000
1000
0000
0020
0000
0000
0030
0100
0000
0001
0000
0100
0000
0000
0000
,
0010
0100
0001
0100
0001
0100
0010
0100
,
0001
0000
1000
0000
0100
1000
0100
1000
0001
1000
0001
1000
0010
0100
0010
0100
,
0001
1000
0001
1000
0100
1000
0100
0010
0001
0010
0001
0010
0100
0010
0100
0010
,
0001
1000
0001
1000
0010
1000
0010
1000
0001
0100
0001
0100
0010
0100
0010
0100
,
0001
0100
0001
1000
0100
1000
0100
1000
0001
0010
0001
0010
0100
0010
0100
0010
,
0001
1000
0001
1000
0010
1000
0010
1000
0001
0100
0001
0100
0010
1000
0010
1000
,
0001
0010
0001
0010
0100
1000
0100
1000
0001
0010
0001
0010
0100
0010
0100
0010
,
0001
1000
0001
1000
0010
1000
0010
1000
0001
0100
0001
0100
0010
0100
0010
0100
,
0001
0100
0001
0100
0010
0100
0010
1000
0001
1000
0001
1000
0100
1000
0100
0010
,
0001
0010
0001
0010
0100
0010
0100
0010
0001
1000
0001
1000
0010
1000
0010
1000
,
0001
0100
0001
0100
0010
1000
0010
1000
0001
0100
0001
0100
0010
1000
0010
1000
,
0001
1000
0001
1000
0100
1000
0100
0010
0001
0010
0001
1000
0100
1000
0100
1000
,
0001
0100
0001
0100
0010
1000
0010
1000
0001
0100
0001
0100
0010
1000
0010
1000
,
0001
1000
0001
0100
0010
0100
0010
1000
0001
1000
0001
0010
0100
0010
0100
0010
,
0001
0010
0001
1000
0010
1000
0010
1000
0001
1000
0001
1000
0010
1000
0010
1000
,
0001
0100
0001
0100
0010
0100
0010
0100
0001
0100
0001
0100
0010
0100
0010
0100
,
0001
1000
0001
1000
0100
0010
0100
0010
0001
0010
0001
0010
0100
0010
0100
0010
,
0001
1000
0001
1000
0010
1000
0010
1000
0001
1000
0001
1000
0010
0100
0001
1000
,
0010
0100
0001
1000
0001
1000
0010
1000
0010
1000
0001
0100
0010
0100
0001
0100
,
0010
1000
0100
1000
0100
0010
0001
0010
0100
1000
0001
1000
0010
1000
0010
0100
,
0001
0100
0010
0100
0001
0100
0010
1000
0001
1000
0100
0010
0100
0010
0001
0010
,
0001
1000
0100
1000
0001
1000
0010
0100
0001
0100
0010
0100
0001
1000
0010
1000
,
0001
0010
0100
0010
0001
1000
0010
1000
0001
0100
0010
0100
0001
1000
0100
1000
,
0100
0010
0001
0010
0100
1000
0001
1000
0010
0100
0001
1000
0010
0100
0001
1000
,
0100
0010
0100
0010
0001
1000
0100
0010
0001
1000
0100
0010
0001
1000
0001
1000
,
0010
0100
0001
1000
0010
0100
0001
1000
0001
1000
0010
0100
0001
1000
0100
1000
,
0100
0010
0001
1000
0100
0000
1000
0001
0100
0000
0010
1000
0001
0000
1000
0100
,
0010
0000
0001
1000
0100
0000
0010
0001
1000
0000
0010
0100
0001
0000
1000
0100
,
0010
0000
0001
1000
0010
0000
0100
0001
1000
0000
0100
0010
0001
0000
0010
0100
,
1000
0000
0001
1000
0010
0000
1000
0001
0100
0000
0010
0100
0001
0000
0100
0001
,
0010
0000
0001
1000
0100
0000
0010
0001
0010
0000
0100
0010
0001
0000
1000
0010
,
0100
0000
0001
0100
0010
0000
1000
0001
1000
0000
0100
0010
0001
0000
0010
0100
,
1000
0000
0001
1000
0010
0000
1000
0001
0100
0000
0010
0100
0001
0000
0100
0010
,
1000
0000
0001
1000
0100
0010
0001
0100
0010
0100
0001
0010
0100
1000
0010
1000
,
0100
0010
0011
0000
1001
1000
1010
0000
,
1010
0010
0110
0000
0101
0100
0101
0000
,
1001
0001
1001
0000
1100
1000
1001
0000
,
0101
0001
0011
0000
0110
0010
0011
0000
,
1001
0001
0101
0000
0110
0100
0101
0000
,
1100
0100
0110
0000
0011
0001
1001
0000
,
1010
1000
1100
0000
0110
0100
0110
0000
,
0011
0000
0001
0000
1001
0000
0000
0000
1010
0000
1000
0000
0100
1000
0001
0100
,
0010
0100
0101
0000
1001
0001
0011
0000
,
0011
0010
0001
1000
0001
1000
1010
0010
,
0100
0001
1000
0100
0010
0001
0011
0010
,
0100
1000
1001
0001
0010
0100
0110
0010
,
0001
1000
1010
0001
1000
0001
0110
0100
,
0001
1000
1100
0100
0010
0001
1100
1000
,
0001
1000
1010
0001
0100
0010
0101
0100
,
0010
1000
1001
0001
0010
0100
0110
0010
,
0001
1001
1001
1000
0001
0100
0110
0010
,
1000
0001
0011
0010
0100
1000
1100
0100
,
0010
0001
1001
1000
0010
0100
0101
0001
,
0010
0100
0110
0010
0001
1000
1010
0010
,
0100
0001
1001
1000
0100
0010
0110
0100
,
1000
0001
1001
1000
0010
0100
0101
0001
,
0010
0100
0110
0010
0001
1000
1010
0010
,
0100
0000
0001
0000
0101
0000
0100
0000
0010
0000
1000
0000
0010
1000
0100
0010
,
0100
0010
0011
0001
1000
0010
0110
0100
,
0001
1000
1001
0001
0010
0100
0110
0010
,
0001
1000
1010
0010
0100
0001
0101
0100
,
0010
1000
1010
0010
0100
0001
1001
1000
,
0100
0010
0100
0010
0001
1000
0010
0100
0001
0100
0010
1000
0001
0010
0100
1000
,
0010
0100
0001
1000
0100
0010
0100
1000
0001
1000
0010
0100
0001
0100
0010
1000
,
0001
0010
0110
0100
1000
0001
1001
1000
,
0010
0100
0010
0100
0010
0100
0001
1000
0001
1000
0100
0010
0100
1000
0010
0100
,
0001
1000
0010
0100
0002
1003
0100
0020
,
0031
1000
0020
0130
0001
0010
0100
0010
,
0002
1003
0010
0100
0020
1030
0001
0200
,
0310
1000
0002
0013
0100
1000
0001
1000
,
0020
0130
0001
0100
0020
1030
0001
0020
,
0130
1000
0002
0000
0000
0000
0003
0000
,
0200
0000
0000
0300
0020
0000
0000
2030
,
0000
3002
0003
0000
,
0020
0000
0000
0000
0230
0000
0000
2300
,
0000
0000
3002
0000
0103
0001
1000
0100
,
0020
0130
1000
0001
2000
3010
0100
0002
,
1003
0100
0020
0130
0010
0001
1000
0010
,
0200
0301
1000
0100
0020
0031
1000
0020
,
0130
0001
2000
3100
0010
0100
1000
0001
,
2000
0000
3010
0000
0100
0000
0001
0000
0010
0100
0010
0100
1000
0001
1000
0010
,
0100
0001
1000
0001
0010
0100
0010
0100
1000
0001
1000
0010
0100
0000
0001
0000
,
0021
0000
0030
0000
;
