#TITLE:Becoming The Dragon;
#SUBTITLE:;
#ARTIST:Trivium;
#TITLETRANSLIT:;
#SUBTITLETRANSLIT:;
#ARTISTTRANSLIT:;
#CREDIT:;
#BANNER:TriviumBegen7-bn.JPG;
#BACKGROUND:dddddddddd.jpg;
#LYRICSPATH:;
#CDTITLE:cdtitle.png;
#MUSIC:Becoming The Dragon.mp3;
#OFFSET:1.470;
#SAMPLESTART:40.925;
#SAMPLELENGTH:12.000;
#SELECTABLE:YES;
#BPMS:0.000=142.000;
#STOPS:;
#BGCHANGES:;
// cache tags:
#FIRSTBEAT:4.000;
#LASTBEAT:352.000;
#SONGFILENAME:Songs/new cedric/Becoming The Dragon [Cerdo Claro]/Becoming The Dragon.sm;
#HASMUSIC:1;
#HASBANNER:1;
#MUSICLENGTH:149.368;
// end cache tags

//---------------dance-single - En blanco----------------
#NOTES:
     dance-single:
     En blanco:
     Hard:
     11:
     1.000,1.000,1.000,0.475,1.000,1074.000,422.000,71.000,0.000,49.000:
0000
0000
0000
0000
,
1011
0000
0000
0000
0100
0000
0000
0000
0010
0000
0000
0000
0002
0000
0000
0003
0000
0000
0000
0000
0001
0000
0000
0000
0100
0000
0000
0000
0010
0000
0000
0000
0100
0000
0000
0000
2000
0000
0000
3000
0000
0000
0000
0000
0100
0000
0000
0000
,
1011
0000
0000
0000
0000
0000
0000
0000
0000
0000
0000
0000
0000
0000
0000
0000
0100
0000
0000
0000
0000
0000
0000
0000
0000
0000
0000
0000
0000
0000
0000
0000
0010
0000
0000
0000
0000
0000
0000
0000
0000
0000
0000
0000
0000
0000
0000
0000
0001
0000
0000
0000
0000
0000
0000
0000
0000
0000
0000
0000
0000
0000
0000
0000
0100
0000
0000
0000
0000
0000
0000
0000
0000
0000
0000
0000
0000
0000
0000
0000
0010
0000
0000
0000
0000
0000
0000
0000
0000
0000
0000
0000
0000
0000
0000
0000
2002
0000
0000
3003
0000
0000
0000
0000
0000
0000
0000
0000
0000
0000
0000
0000
0010
0000
0000
0000
0000
0000
0000
0000
0000
0000
0000
0000
0000
0000
0000
0000
2200
0000
0000
0000
3300
0000
0000
0000
0000
0000
0000
0000
0000
0000
0000
0000
0001
0000
0000
0000
0000
0000
0000
0000
0000
0000
0000
0000
0000
0000
0000
0000
0220
0000
0000
0000
0330
0000
0000
0000
0000
0000
0000
0000
0000
0000
0000
0000
0000
0000
0000
0000
0000
0000
0000
0000
0000
0000
0000
0000
0000
0000
0000
0000
,
1011
0000
0000
0000
0100
0000
0000
0000
0010
0000
0000
0000
0002
0000
0000
0003
0000
0000
0000
0000
0001
0000
0000
0000
0100
0000
0000
0000
0010
0000
0000
0000
0100
0000
0000
0000
2000
0000
0000
3000
0000
0000
0000
0000
0100
0000
0000
0000
,
1011
0100
0010
0001
0100
0010
1001
0011
0110
0011
0110
1100
,
1001
0000
0100
1000
0010
0000
0001
0000
0100
0000
0020
0000
0001
0000
0000
0000
0000
0000
0000
0000
0000
0000
0000
0000
,
1031
0010
0100
0001
0010
0200
0020
0000
0000
0032
1003
0010
,
1301
0100
0010
0001
0100
0010
0001
0100
0010
1000
0010
0100
,
0001
0000
0000
0000
0000
0000
0000
0000
0000
0000
0000
0000
0000
0000
0000
0000
0100
0000
0000
0000
0000
0000
0000
0000
0000
0000
0000
0000
0000
0000
0000
0000
0010
0000
0000
0000
0000
0000
0000
0000
0000
0000
0000
0000
0000
0000
0000
0000
0100
0000
0000
0000
0000
0000
0000
0000
0000
0000
0000
0000
0000
0000
0000
0000
0001
0000
0000
0000
0000
0000
0000
0000
0000
0000
0000
0000
0000
0000
0000
0000
0100
0000
0000
0000
0000
0000
0000
0000
0000
0000
0000
0000
0000
0000
0000
0000
2022
0000
0000
0003
0000
0000
3000
0000
0000
0030
0000
0000
0000
0000
0000
0000
0000
0000
0000
0000
0000
0000
0000
0000
0000
0000
0000
0000
0000
0000
0000
0000
0000
0000
0000
0000
0000
0000
0000
0000
0000
0000
0000
0000
0000
0000
0000
0000
0222
0000
0000
0300
0000
0000
0003
0000
0000
0030
0000
0000
0000
0000
0000
0000
0000
0000
0000
0000
0000
0000
0000
0000
0000
0000
0000
0000
0000
0000
0000
0000
0000
0000
0000
0000
0000
0000
0000
0000
0000
0000
0000
0000
0000
0000
0000
0000
,
1101
0010
0100
1000
0100
0000
0010
0100
0001
0010
0100
1000
0100
0000
0001
0010
0100
0000
0010
0100
1000
0000
0001
0000
,
1000
0100
0010
0001
0100
1000
0012
0000
0000
0213
0000
0000
,
0301
0000
0010
0100
1000
0100
0010
0001
0100
0010
0001
0100
0010
0001
0100
1000
0100
0010
0001
0010
0100
0010
1000
0010
,
1001
0000
0100
0000
0010
0000
0001
0000
0000
0100
0000
0000
1000
0000
0000
0000
0100
0000
0000
0000
0010
0000
0000
0000
0101
0000
0000
0000
0110
0000
0000
0000
1010
0000
0000
0000
0101
0000
0000
0000
0110
0000
0000
0000
1010
0000
0000
0000
,
1001
0001
0001
1001
0100
0010
1001
1000
1000
1010
0100
0010
,
1001
0010
0001
0100
0010
0001
2100
0010
0001
3210
0001
1000
,
1301
0001
0001
1001
0100
0010
1001
1000
1000
1010
0100
0010
,
1001
0010
0001
0100
0010
0001
2100
0010
0001
3210
0001
1000
,
0311
0000
1000
0110
0000
0001
0110
0000
0001
0100
0010
0001
,
1100
0001
0010
0100
0000
2100
0000
3120
0000
0132
0010
0100
,
1013
1000
1000
1001
0010
0100
1001
0001
0001
0101
0010
0100
,
1001
0100
1000
0010
0100
1000
0012
0100
1000
0123
1000
0001
,
1031
1000
1000
1000
0100
0001
0010
0010
0010
0010
0100
1000
,
0100
0100
0100
0100
0010
1000
0001
0001
0001
0001
1000
0001
,
1100
0110
0011
2001
0000
0000
3200
0000
0000
1320
0000
0000
,
0132
0000
0000
0023
0000
0000
1031
1001
1001
1001
0000
0000
,
0011
0110
1100
2001
0000
0000
3101
0000
0000
0120
0000
0000
,
0131
0000
1100
0010
0101
0000
1010
0000
0110
0000
0011
0000
1100
0000
0011
0100
1010
0000
0101
0000
1100
0000
0110
0000
,
1002
0100
1000
0023
0000
0000
0230
0000
0000
2310
0000
0000
,
3201
0000
0000
0320
0000
0000
1031
1001
1001
1001
0000
0000
,
1100
0110
0011
2001
0000
0000
3101
0000
0000
0210
0000
0000
,
1310
0000
0011
0100
1010
0000
0101
0000
0110
0000
1100
0000
0011
0000
1100
0010
0101
0000
1010
0000
0011
0000
0110
0000
,
1001
0100
0010
1001
0001
0001
1001
0100
0010
1100
1000
1000
,
1010
0000
0100
0000
0001
0000
0110
0000
0010
0000
0010
0000
1001
0100
0010
0001
1000
0100
0010
0001
0100
0010
1000
0100
,
1001
1000
1000
1001
0010
0100
0011
0001
0001
0101
0010
1000
,
0110
0000
0000
0000
0100
0000
0000
0000
0100
0000
0000
0000
0101
0000
0000
0000
0010
0000
0000
0000
0100
0000
0000
0000
2001
0000
0000
0010
0000
0000
0000
0000
0000
0000
0000
0000
3210
0000
0000
0000
0000
0000
0000
0000
0000
0000
0000
0000
,
1301
0010
0100
1001
1000
1000
1001
0010
0100
0011
0001
0001
,
0101
0000
0010
0000
1000
0000
0110
0000
0100
0000
0100
0000
1001
0010
0100
1000
0001
0010
0100
1000
0010
0100
0001
0010
,
1001
0001
0001
1001
0100
0010
1100
1000
1000
1010
0100
0001
,
0110
0000
0010
0000
0010
0000
1010
0000
0100
0000
0010
0000
1001
0000
0010
0001
1000
0000
0011
0000
0101
0000
1100
0000
,
1001
0000
0001
0010
0100
1000
0020
0000
0100
0000
0001
0000
2030
0000
0100
0000
0010
0000
3002
0000
0100
0000
0010
0000
,
0203
0001
1000
0320
0001
1000
0032
0100
0010
0203
0010
1000
,
0311
0110
1100
1002
0000
0000
0023
0000
0000
1230
0000
0000
,
0321
0000
0000
0230
0000
0000
1301
1001
1001
1001
0000
0000
,
1100
0110
0011
2001
0000
0000
3101
0000
0000
0210
0000
0000
,
1301
0011
0011
0011
0110
1100
1001
1100
1100
1010
0011
0110
,
1001
0010
0100
2001
0000
0000
3020
0000
0000
0032
0000
0000
,
0203
0000
0000
0320
0000
0000
1031
1001
1001
1001
0000
0000
,
1100
0110
0011
1002
0000
0000
1013
0000
0000
0200
0000
0000
,
1301
0000
0001
0010
0100
1000
0011
0000
0110
0000
0011
0000
1001
0000
0010
0000
0100
0000
0011
0000
0110
0000
1100
0000
,
1001
0010
0100
0010
0000
0000
0011
1000
0001
1000
0000
0000
0101
0010
0100
0010
,
0000
0000
1100
0001
1000
0001
0000
0000
0011
0100
0001
0100
0000
0000
1001
0100
,
1000
0100
0000
0000
1010
0100
0010
0100
1000
0100
0011
0100
0001
0100
1000
0010
,
1001
0100
0010
0101
0010
0001
0110
1000
0100
1010
0001
0100
0011
1000
0101
0010
,
1001
0100
0010
0101
0010
0001
0110
1000
0100
1010
0001
0100
0011
1000
0101
0010
,
1001
0010
0100
0010
0000
0000
0011
1000
0001
1000
0000
0000
0101
0010
0100
0010
,
0000
0000
1100
0001
1000
0001
0000
0000
0011
0100
0001
0100
0000
0000
1001
0100
,
1000
0100
0000
0000
1010
0100
0010
0100
0000
0000
0011
0100
0001
0100
0000
0000
,
1001
0100
0010
0101
0010
0001
0110
1000
0100
1010
0001
0100
0011
1000
0101
0010
,
1001
0100
0010
0101
0010
0001
0110
1000
0100
1010
0001
0100
0011
1000
0101
0010
,
1001
0010
1100
0001
0110
1000
0011
0100
1001
0010
0100
0001
0010
0100
1000
0100
,
0010
0001
1100
0001
0110
1000
0101
0010
1001
0100
0010
0001
0110
0001
0100
0010
,
1001
0010
0100
0011
1000
0010
0101
0010
0100
1010
0001
1000
0011
1000
0101
0010
,
1001
0100
0010
1100
0001
0100
1010
0100
0010
0101
1000
0001
1100
0001
1010
0100
,
1001
0010
0100
0010
0000
0000
0011
1000
0001
1000
0000
0000
0101
0010
0100
0010
,
0001
0010
1100
0001
1000
0001
0010
0100
0011
0100
0001
0100
0000
0000
1001
0100
,
1000
0100
0000
0000
1010
0100
0010
0100
0000
0000
0011
0100
0001
0100
0000
0000
,
1001
0100
0010
0101
0010
0001
0110
1000
0100
1010
0001
0100
0011
1000
0101
0010
,
1001
0100
0010
0101
0010
0001
0110
1000
0100
1010
0001
0100
0011
1000
0101
0010
,
1001
0010
1000
0101
0010
0100
1010
0001
0100
1001
0100
0001
0110
0001
1010
0100
,
1001
0010
0100
1010
0001
0010
0101
1000
0001
0110
1000
0100
0011
0000
0110
0000
,
1001
0100
0001
1010
0100
0010
0101
1000
0010
1001
0010
1000
0110
1000
0101
0010
,
1001
0100
0010
0101
1000
0100
1010
0001
1000
0110
0001
0010
1100
0000
0110
0000
,
1001
0100
0010
1100
0001
1000
0011
0100
1000
0110
1000
0100
1001
0100
0011
1000
,
0110
0001
1000
0011
0100
0001
1100
0010
0100
1001
0010
1000
0011
0000
1100
0000
,
1001
0010
1000
0101
0010
0100
1010
0001
0100
1001
0100
0001
0110
0001
1010
0100
,
1001
0010
0100
1010
0001
0010
0101
1000
0001
0110
1000
0100
0011
0000
0110
0000
,
1001
0011
1000
0110
0011
1000
0110
0101
0010
1100
1001
0100
0011
1000
0011
0100
,
1001
1010
0100
1001
1010
0100
1001
0011
1000
0101
0110
0001
1010
0100
1010
0100
,
1001
1100
0001
0110
1100
0001
0110
1010
0100
0011
1001
0010
1100
0001
1100
0010
,
1001
0011
1000
0110
0011
1000
0110
0101
0010
1100
1001
0100
0011
1000
0011
0100
,
1001
1010
0100
1001
1010
0100
1001
0011
1000
0101
0110
0001
1010
0100
1010
0100
,
1001
1100
0001
0110
1100
0001
0110
1010
0100
0011
1001
0010
1100
0001
1100
0010
,
1001
1100
0001
0110
1100
0001
0110
1010
0100
0011
1001
0010
1100
0001
1100
0010
,
1001
0101
0010
1001
0101
0010
1001
1100
0001
1010
0110
1000
0101
0010
0101
0010
,
1001
0100
1000
0011
0100
0001
1100
0010
0001
0110
1000
0001
1010
0100
0011
1000
,
0101
0010
0001
0110
1000
0100
0011
1000
0001
0110
1000
0010
1100
0000
0110
0000
,
1101
0000
0000
0111
0000
0000
1011
0000
1101
0000
0000
0111
0000
0000
1110
0000
,
2012
0000
0000
0000
0000
0000
0000
0000
0000
0000
0000
0000
0000
0000
0000
3003
0000
0000
0000
0000
0000
0000
0000
0000
1001
0000
0000
0000
0000
0000
0100
0000
0010
0000
0100
0000
1001
0000
0000
0000
0000
0000
0000
0000
0010
0000
0100
0000
,
1001
0000
0000
0000
;
