#TITLE:10-1;
#SUBTITLE:The BOSS Song of ChasePines101;
#ARTIST:DJ Technorch;
#TITLETRANSLIT:;
#SUBTITLETRANSLIT:;
#ARTISTTRANSLIT:;
#CREDIT:ChasePines101 & Owem;
#BANNER:../Banner.png;
#BACKGROUND:../BG.png;
#LYRICSPATH:;
#CDTITLE:../CDTitlePines.png;
#MUSIC:10-1.ogg;
#OFFSET:-1.055;
#SAMPLESTART:39.974;
#SAMPLELENGTH:25.946;
#SELECTABLE:YES;
#BPMS:0.000=148.000,48.000=296.000,80.000=592.000,144.000=148.000,160.000=296.000,288.000=148.000,352.000=74.000,400.000=148.000,440.000=296.000,448.000=592.000,704.000=296.000,768.000=148.000;
#STOPS:;
#BGCHANGES:;
// cache tags:
#FIRSTBEAT:0.000;
#LASTBEAT:778.000;
#SONGFILENAME:Songs/Owem's Simfiles 08 - 1.2/10-1 - [ChasePines101 & Owem] v1.0.3/10-1.sm;
#HASMUSIC:1;
#HASBANNER:1;
#MUSICLENGTH:194.049;
// end cache tags

//---------------dance-single - 18- (Owem)----------------
#NOTES:
     dance-single:
     18- (Owem):
     Hard:
     18:
     1.000,1.000,0.046,0.103,1.000,1656.000,9.000,20.000,766.000,1.000:
MMMM
MMMM
MMMM
MMMM
MMMM
MMMM
MMMM
MMMM
MMMM
MMMM
MMMM
MMMM
MMMM
MMMM
MMMM
MMMM
MMMM
MMMM
MMMM
MMMM
MMMM
MMMM
MMMM
MMMM
MMMM
MMMM
MMMM
MMMM
MMMM
MMMM
MMMM
MMMM
MMMM
0000
MMMM
0000
MMMM
0000
MMMM
0000
MMMM
0000
MMMM
0000
MMMM
0000
MMMM
0000
MMMM
0000
MMMM
0000
MMMM
0000
MMMM
0000
MMMM
0000
MMMM
0000
MMMM
0000
MMMM
0000
,
MMMM
0000
0000
MMMM
0000
0000
MMMM
0000
0000
MMMM
0000
0000
MMMM
0000
0000
MMMM
0000
0000
MMMM
0000
0000
MMMM
0000
0000
MMMM
0000
0000
MMMM
0000
0000
MMMM
0000
0000
MMMM
0000
0000
0000
MMMM
0000
0000
0000
MMMM
0000
0000
0000
MMMM
0000
0000
0000
MMMM
0000
0000
0000
MMMM
0000
0000
0000
MMMM
0000
0000
0000
MMMM
0000
0000
,
0000
MMMM
0000
0000
0000
0000
MMMM
0000
0000
0000
0000
MMMM
0000
0000
0000
0000
MMMM
0000
0000
0000
0000
MMMM
0000
0000
0000
0000
MMMM
0000
0000
0000
0000
MMMM
0000
0000
0000
0000
MMMM
0000
0000
0000
0000
0000
MMMM
0000
0000
0000
0000
0000
MMMM
0000
0000
0000
0000
0000
MMMM
0000
0000
0000
0000
0000
MMMM
0000
0000
0000
,
0000
0000
MMMM
0000
0000
0000
0000
0000
0000
MMMM
0000
0000
0000
0000
0000
0000
MMMM
0000
0000
0000
0000
0000
0000
MMMM
0000
0000
0000
0000
0000
0000
MMMM
0000
0000
0000
0000
0000
0000
MMMM
0000
0000
0000
0000
0000
0000
0000
MMMM
0000
0000
0000
0000
0000
0000
0000
MMMM
0000
0000
0000
0000
0000
0000
0000
0000
0000
0000
,
1000
0001
1000
0001
,
0100
0010
0100
0010
,
1000
0100
1000
0100
,
0010
0000
0000
0000
0001
0000
0000
0000
0010
0000
0000
0000
0004
0000
0000
0003
,
1000
0100
0010
0001
0100
0010
1000
0100
0010
0001
0010
0100
0010
0001
1000
0010
,
1000
0100
0010
0001
0100
0001
0010
0001
0100
0010
1000
0100
1000
0010
0100
0001
,
1000
0010
1000
0001
0010
0100
1000
0010
0100
0001
1000
0100
1000
0010
1000
0001
,
0100
0010
1000
0010
0100
0001
0010
0001
1000
0100
1000
0001
0100
0010
1000
0001
,
1000
0100
1000
0010
0100
0001
0010
0100
,
0010
0001
1000
0010
1000
0100
0010
0001
,
0100
0010
1000
0010
0100
0010
1000
0001
,
0010
0001
1000
0001
0010
0100
1000
0010
,
0100
0001
0010
0100
0010
0001
1000
0100
,
1000
0010
0100
0001
0010
0001
1000
0010
,
1000
0001
0010
0001
0100
0001
1000
0001
,
0100
0010
1000
0010
1000
0001
1000
0001
,
1000
0100
0010
0001
,
0010
0100
1000
0010
,
0100
0001
1000
0001
,
0010
0100
1000
0001
,
1000
0100
0010
0001
,
1000
0010
0100
0010
,
1000
0001
0010
0100
,
0010
0001
1000
0100
,
1000
0001
0100
0001
,
0100
0010
1000
0001
,
1000
0010
0100
0001
,
0010
0001
1000
0100
,
0010
0100
1000
0100
,
0010
0001
0100
0010
,
1000
0010
0100
0001
,
0010
0100
1000
0001
,
200M
00M0
0M00
00M0
000M
00M0
0M00
00M0
000M
00M0
0M00
00M0
000M
00M0
0M00
00M0
,
000M
00M0
0M00
00M0
000M
00M0
0M00
00M0
000M
00M0
0M00
00M0
000M
00M0
0M00
00M0
000M
00M0
0M00
00M0
000M
00M0
0M00
00M0
000M
00M0
0M00
00M0
000M
00M0
0M00
00M0
,
000M
00M0
0M00
00M0
000M
00M0
0M00
00M0
000M
00M0
0M00
00M0
000M
00M0
0M00
00M0
000M
00M0
0M00
00M0
000M
00M0
0M00
00M0
000M
00M0
0M00
00M0
000M
00M0
0M00
00M0
000M
00M0
0M00
00M0
000M
00M0
0M00
00M0
000M
00M0
0M00
00M0
000M
00M0
0M00
00M0
000M
00M0
0M00
00M0
000M
00M0
0M00
00M0
000M
00M0
0M00
00M0
000M
00M0
0M00
00M0
,
300M
0000
M000
000M
0000
0000
M000
0000
000M
0000
000M
0000
000M
0000
000M
0000
,
1000
0100
0010
0001
1000
0001
0100
0010
1000
0001
0100
0001
,
1000
0100
0010
0001
1000
0010
0100
0001
0100
0010
1000
0001
,
0100
0001
1000
0100
0010
0001
1000
0010
0100
0001
0100
0010
,
1000
0001
0010
0001
1000
0100
0010
0001
1000
0010
0100
0001
,
1000
0100
1000
0010
0100
0001
1000
0100
0010
0001
1000
0010
,
0100
0001
0100
0010
1000
0001
0010
0001
1000
0100
0010
0001
,
1000
0010
0100
0001
0100
0010
1000
0001
0010
0100
1000
0001
,
1000
0000
0000
0000
0010
0000
0000
0000
0100
0000
0000
0000
0001
0000
0000
0000
1000
0000
0000
0000
0010
0000
0000
0000
1000
0000
0000
0100
0000
0000
0010
0000
0000
0001
0000
0000
1000
0000
0000
0010
0000
0000
0100
0000
0000
0001
0000
0000
,
1000
0100
0010
0001
0100
0001
1000
0010
0100
0001
0100
0010
,
1000
0001
0010
0001
0100
0010
0100
0001
1000
0100
0010
0001
,
1000
0010
0100
0001
0100
0010
1000
0001
0010
0001
0100
0010
,
1000
0001
0100
0001
1000
0100
0010
0001
1000
0010
0100
0001
,
0100
0010
1000
0001
0010
0001
1000
0100
0010
0001
1000
0010
,
0100
0001
0100
0010
1000
0001
0010
0001
1000
0100
0010
0001
,
1000
0001
0100
0010
1000
0001
0100
0001
1000
0100
0010
0001
,
1000
0010
0100
0001
1000
0100
0010
0001
1000
0010
1000
0001
,
0100
0010
1000
0001
0100
0001
1000
0100
0010
0001
1000
0001
,
0100
0010
1000
0001
0010
0100
1000
0001
0100
0010
1000
0001
,
0100
0001
1000
0100
0010
0001
1000
0010
0100
0001
0100
0010
,
1000
0001
0010
0001
1000
0100
0010
0001
1000
0010
0100
0001
,
1000
0010
1000
0001
0100
0001
0010
0100
1000
0100
0010
0001
,
1000
0010
0100
0001
0100
0010
1000
0001
0010
0001
1000
0100
,
0010
0001
1000
0010
0100
0001
0100
0010
1000
0001
0100
0001
,
1000
0100
0010
0001
1000
0010
0100
0001
1000
0010
0000
0000
,
1000
0100
0010
0001
1000
0001
0100
0010
1000
0001
0100
0001
,
0010
0100
1000
0001
0010
0001
1000
0100
0010
0001
1000
0010
,
0100
0001
1000
0100
0010
0001
1000
0010
1000
0001
0100
0001
,
1000
0100
0010
0001
1000
0010
0100
0001
0100
0010
1000
0001
,
0010
0001
1000
0100
0010
0001
1000
0010
0100
0001
0100
0010
,
1000
0001
0100
0001
1000
0100
0010
0001
1000
0010
0100
0001
,
4000
0000
3000
0004
0000
0003
1000
0001
,
2000
0001
3001
1000
,
0001
1000
0100
0010
0001
0100
0010
1000
0100
0010
0001
0100
0001
1000
0100
1000
,
0001
0100
0001
0010
0100
1000
0010
1000
0001
0010
0001
0100
0001
0100
0010
1000
,
0001
1000
0010
0100
0010
1000
0001
0010
0001
0100
0010
1000
0100
0010
0001
1000
,
0001
0100
0001
1000
0010
0100
0001
0010
0100
1000
0010
0100
0001
0010
0001
1000
,
0100
0010
0100
1000
0001
0100
0001
0010
0100
1000
0010
0100
0010
1000
0001
0010
,
0001
0010
0100
1000
0010
0100
0001
0100
0010
1000
0001
0100
0001
0010
0100
1000
,
0001
0100
0001
1000
0010
0100
0001
1000
0100
1000
0010
0100
0001
0010
0100
1000
,
0001
0100
0010
0100
0001
0010
0100
0010
0001
0100
0010
1000
0100
0010
0001
1000
,
0001
0100
0010
1000
0100
0010
0001
1000
0010
0100
0001
0010
0100
1000
0010
0100
0010
1000
0001
0010
0001
0100
0010
1000
,
0001
1000
0010
0100
0001
1000
0100
0010
0100
1000
0010
0100
0001
0100
0010
1000
0001
1000
0001
1000
0100
0010
0001
1000
,
0001
0100
0010
0100
0001
0100
0010
1000
0100
0010
0001
0100
0001
0010
0100
1000
0010
1000
0100
0010
0001
0010
0001
1000
,
0100
0010
0001
0100
0010
0100
0001
0010
0100
1000
0010
0100
0001
0010
0100
1000
0010
0100
0001
0100
0010
1000
0001
0100
,
0001
0000
0000
0000
0000
0000
0000
0000
0000
0000
1000
0000
0000
0000
0000
0000
0000
0000
0000
0100
0000
0000
0000
0000
0000
0000
0000
0000
0000
0010
0000
0000
0000
0000
0000
0000
0000
0000
0001
0000
0000
0000
0000
0000
0000
0000
0000
0000
0100
0000
0000
0000
0000
0000
0000
0000
0000
0000
0010
0000
0000
0000
0000
0000
0000
0000
0000
0100
0000
0000
0000
0000
0000
0000
0000
0000
0000
0001
0000
0000
0000
0000
0000
0000
0000
0000
1000
0000
0000
0000
0000
0000
0000
0000
0000
0000
0100
0000
0000
0000
0000
0000
0000
0000
0000
0000
0010
0000
0000
0000
0000
0000
0000
0000
0000
0001
0000
0000
0000
0000
0000
0000
0000
0000
0000
0010
0000
0000
0000
0000
0000
0000
0000
0000
0100
0000
0000
0000
0000
0000
0000
0000
0000
0000
1000
0000
0000
0000
0000
0000
0000
0000
0000
0000
0010
0000
0000
0000
0000
0000
0000
0000
0000
0100
0000
0000
0000
0000
0000
0000
0000
0000
0000
0001
0000
0000
0000
0000
0000
0000
0000
0000
1000
0000
0000
0000
0000
0000
0000
0000
0000
0000
,
0100
0000
0000
0000
0000
0000
0000
0000
0000
0000
1000
0000
0000
0000
0000
0000
0000
0000
0000
0010
0000
0000
0000
0000
0000
0000
0000
0000
0000
1000
0000
0000
0000
0000
0000
0000
0000
0000
0100
0000
0000
0000
0000
0000
0000
0000
0000
0000
0010
0000
0000
0000
0000
0000
0000
0000
0000
0000
0001
0000
0000
0000
0000
0000
0000
0000
0000
0100
0000
0000
0000
0000
0000
0000
0000
0000
0000
0010
0000
0000
0000
0000
0000
0000
0000
0000
1000
0000
0000
0000
0000
0000
0000
0000
0000
0000
0001
0000
0000
0000
0000
0000
0000
0000
0000
0000
0010
0000
0000
0000
0000
0000
0000
0000
0000
0001
0000
0000
0000
0000
0000
0000
0000
0000
0000
0100
0000
0000
0000
0000
0000
0000
0000
0000
0001
0000
0000
0000
0000
0000
0000
0000
0000
0000
0010
0000
0000
0000
0000
0000
0000
0000
0000
0000
0100
0000
0000
0000
0000
0000
0000
0000
0000
1000
0000
0000
0000
0000
0000
0000
0000
0000
0000
0001
0000
0000
0000
0000
0000
0000
0000
0000
0010
0000
0000
0000
0000
0000
0000
0000
0000
0000
,
0001
0000
0000
0000
0000
0000
0000
0000
0000
0000
1000
0000
0000
0000
0000
0000
0000
0000
0000
0100
0000
0000
0000
0000
0000
0000
0000
0000
0000
0010
0000
0000
0000
0000
0000
0000
0000
0000
0001
0000
0000
0000
0000
0000
0000
0000
0000
0000
0100
0000
0000
0000
0000
0000
0000
0000
0000
0000
0010
0000
0000
0000
0000
0000
0000
0000
0000
1000
0000
0000
0000
0000
0000
0000
0000
0000
0000
0010
0000
0000
0000
0000
0000
0000
0000
0000
1000
0000
0000
0000
0000
0000
0000
0000
0000
0000
0001
0000
0000
0000
0000
0000
0000
0000
0000
0000
0100
0000
0000
0000
0000
0000
0000
0000
0000
0001
0000
0000
0000
0000
0000
0000
0000
0000
0000
1000
0000
0000
0000
0000
0000
0000
0000
0000
0100
0000
0000
0000
0000
0000
0000
0000
0000
0000
0010
0000
0000
0000
0000
0000
0000
0000
0000
0000
0100
0000
0000
0000
0000
0000
0000
0000
0000
1000
0000
0000
0000
0000
0000
0000
0000
0000
0000
0010
0000
0000
0000
0000
0000
0000
0000
0000
0100
0000
0000
0000
0000
0000
0000
0000
0000
0000
,
0001
0000
0000
0000
0000
0000
0000
0000
0000
0000
0100
0000
0000
0000
0000
0000
0000
0000
0000
0010
0000
0000
0000
0000
0000
0000
0000
0000
0000
1000
0000
0000
0000
0000
0000
0000
0000
0000
0001
0000
0000
0000
0000
0000
0000
0000
0000
0000
0010
0000
0000
0000
0000
0000
0000
0000
0000
0000
0100
0000
0000
0000
0000
0000
0000
0000
0000
1000
0000
0000
0000
0000
0000
0000
0000
0000
0000
0010
0000
0000
0000
0000
0000
0000
0000
0000
0100
0000
0000
0000
0000
0000
0000
0000
0000
0000
0001
0000
0000
0000
0000
0000
0000
0000
0000
0000
1000
0000
0000
0000
0000
0000
0000
0000
0000
0001
0000
0000
0000
0000
0000
0000
0000
0000
0000
0100
0000
0000
0000
0000
0000
0000
0000
0000
0010
0000
0000
0000
0000
0000
0000
0000
0000
0000
0100
0000
0000
0000
0000
0000
0000
0000
0000
0000
0001
0000
0000
0000
0000
0000
0000
0000
0000
0100
0000
0000
0000
0000
0000
0000
0000
0000
0000
0010
0000
0000
0000
0000
0000
0000
0000
0000
1000
0000
0000
0000
0000
0000
0000
0000
0000
0000
,
0001
0000
1000
0100
1000
0000
0001
0010
0000
0001
0010
0000
0100
1000
0100
0000
1000
0000
0001
0100
0010
0000
1000
0010
0000
1000
0010
0000
0100
0001
0100
0000
,
0001
0010
0100
1000
0100
0010
0001
1000
0001
0000
0100
0000
0010
1000
0010
0000
1000
0100
0010
0001
1000
0001
0000
1000
0001
0010
0000
0100
1000
0001
0100
0010
,
1000
0100
0010
0001
0100
0001
0010
0100
1000
0001
1000
0100
0010
0001
0100
0010
1000
0100
0010
0001
0100
0010
1000
0001
1000
0100
0010
0100
1000
0010
0100
0001
,
0100
0010
1000
0001
0010
0100
1000
0001
1000
0010
0100
0001
1000
0100
1000
0010
1000
0100
0010
0001
0100
0001
1000
0100
1000
0001
0010
0100
1000
0010
0100
0001
,
1000
0000
0001
0000
0010
0000
0200
0000
0000
0000
1300
0000
0000
0000
1000
0001
1000
0000
0001
0000
0010
0000
0000
0000
0011
0000
0000
0000
0000
0000
0001
0010
,
0001
0000
0100
0000
0010
0000
2000
0000
0000
0000
3001
0000
0000
0000
0001
0010
0100
0000
1000
0000
0001
0000
0000
0000
1001
0000
0000
0000
0000
0000
1000
0010
,
0100
0000
0001
0000
0010
0000
0002
0000
0000
0000
0013
0000
0000
0000
0100
1000
0001
0000
1000
0000
0010
0000
0000
0000
1010
0000
0000
0000
0000
0000
0001
0100
,
0001
0000
0100
0000
0010
0000
0200
0000
0000
0000
0301
0000
0000
0000
0010
0100
1000
0000
0001
0000
0010
0000
0000
0000
0110
0000
0000
0000
0000
0000
0001
1000
,
0001
1000
0001
0010
0100
1000
1001
1000
0001
0100
0010
0100
0001
0010
0110
0010
,
0001
1000
0010
1000
0001
0010
0011
0010
0100
1000
0010
0100
0001
1000
1100
0100
,
2000
3000
0000
0000
0100
0000
0000
0000
0010
0000
0000
0000
0100
0000
0000
0000
2000
3000
0000
0000
0001
0000
0000
0000
0100
0000
0000
0000
0010
0000
0000
0000
2000
3000
0000
0000
0001
0000
0000
0000
0100
0000
0000
0000
0001
0000
0000
0000
2000
3000
0000
0000
0100
0000
0000
0000
1000
0000
0000
0000
0001
0000
0000
0000
,
2000
3000
0000
0000
0001
0000
0000
0000
0010
0000
0000
0000
0100
0000
0000
0000
2000
3000
0000
0000
0001
0000
0000
0000
0010
0000
0000
0000
0001
0000
0000
0000
2000
3000
0000
0000
0010
0000
0000
0000
0200
0300
0000
0000
0001
0000
0000
0000
2000
3000
0000
0000
0001
0000
0000
0000
0100
0000
0000
0000
0010
0000
0000
0000
,
1000
0000
0000
0000
0M0M
00MM
M00M
M00M
M00M
M00M
00MM
0M0M
0M0M
00MM
M00M
M00M
M00M
0000
MMMM
000M
000M
000M
000M
000M
MMMM
000M
000M
000M
000M
000M
000M
MMMM
,
0000
0MM0
M00M
000M
000M
000M
0M00
00M0
M000
M000
M000
M000
M000
M00M
0MM0
0000
MMMM
0MM0
0MM0
0MM0
0MM0
0MM0
0MM0
0MM0
0MM0
0MM0
0000
0000
0000
0000
0000
0000
,
MMMM
0MM0
0MM0
0MM0
0MM0
0MM0
0MM0
0MM0
0MM0
0MM0
0000
0000
0000
MMMM
0MM0
0MM0
0MM0
0MM0
0MM0
0MM0
0MM0
0MM0
MMMM
0000
MMMM
M0MM
M0MM
M0MM
M0MM
M0MM
M0MM
M0MM
,
0000
MMMM
000M
000M
000M
000M
000M
000M
MMMM
000M
000M
000M
000M
000M
000M
000M
MMMM
0000
0000
0000
0000
0000
0000
0000
0000
0000
0000
0000
0000
0000
0000
0000
,
000M
M000
000M
M000
,
000M
2222
0000
0000
,
0000
0000
0000
0000
,
0000
0000
0000
0000
0000
0000
0000
0000
0000
0000
0000
0000
0000
0000
3333
0000
0000
000M
0000
0000
0000
0000
0000
0000
0000
0000
0000
0000
M000
0000
0000
0000
,
000M
0M00
00M0
M000
00M0
0M00
000M
0M00
00M0
M000
00M0
0M00
000M
0M00
00M0
M000
00M0
0M00
000M
0M00
00M0
M000
00M0
0M00
000M
0M00
00M0
M000
00M0
0M00
000M
0M00
,
00M0
0000
M000
00M0
0M00
000M
0M00
00M0
M000
00M0
0M00
000M
0M00
00M0
M000
00M0
0M00
000M
0M00
00M0
M000
00M0
0M00
000M
0M00
00M0
M000
00M0
0M00
000M
0M00
00M0
M000
00M0
0M00
000M
0M00
00M0
M000
00M0
0M00
000M
0M00
00M0
M000
00M0
0M00
000M
0M00
00M0
M000
00M0
0M00
000M
0M00
00M0
M000
00M0
0M00
000M
0M00
00M0
M000
00M0
,
0M00
000M
0M00
0000
0000
0000
00M0
M000
,
000M
000M
000M
000M
,
1000
0000
0100
0000
0010
0000
0001
0000
1000
0000
0001
0000
,
0100
0000
0010
0000
1000
0000
0001
0000
0100
0000
0001
0000
,
1000
0000
0100
0000
0010
0000
0001
0000
1000
0000
0010
0000
,
0100
0000
0001
0000
0100
0000
0010
0000
1000
0000
0001
0000
,
0100
0000
0001
0000
1000
0000
0100
0000
0010
0000
0001
0000
,
1000
0000
0010
0000
0100
0000
0001
0000
0100
0000
0010
0000
,
1000
0000
0001
0000
0010
0000
0001
0000
1000
0000
0100
0000
,
0010
0000
0001
0000
1000
0000
0010
0000
0100
0000
0001
0000
,
1000
0000
0100
0000
1000
0000
0010
0000
0100
0000
0001
0000
,
1000
0000
0100
0000
0010
0000
0001
0000
1000
0000
0010
0000
,
0100
0000
0001
0000
0100
0000
0010
0000
1000
0000
0001
0000
,
0010
0000
0001
0000
1000
0000
0100
0000
0010
0000
0001
0000
,
1000
0000
0010
0000
0100
0000
0001
0000
0100
0000
0010
0000
,
1000
0000
0001
0000
0010
0000
0100
0000
1000
0000
0001
0000
,
1000
0000
0010
0000
0100
0000
0001
0000
1000
0000
0010
0000
,
1000
0100
0010
0001
1000
0010
0100
0001
,
1000
0000
0100
0000
0010
0000
0001
0000
0100
0000
0001
0000
,
1000
0000
0010
0000
0100
0000
0001
0000
0100
0000
0010
0000
,
1000
0000
0001
0000
0010
0000
0001
0000
0100
0000
0010
0000
,
0100
0000
0001
0000
1000
0000
0100
0000
0010
0000
0001
0000
,
1000
0000
0010
0000
0100
0000
0001
0000
0100
0000
0010
0000
,
1000
0000
0001
0000
0010
0000
0001
0000
0100
0000
0010
0000
,
1000
0000
0001
0000
0100
0000
0001
0000
1000
0000
0100
0000
,
0010
0000
0001
0000
1000
0000
0010
0000
0100
0000
0001
0000
,
0100
0000
0010
0000
1000
0000
0001
0000
0010
0000
0001
0000
,
1000
0000
0100
0000
0010
0000
0001
0000
1000
0000
0010
0000
,
0100
0000
0001
0000
0100
0000
0010
0000
1000
0000
0001
0000
,
0010
0000
0001
0000
1000
0000
0100
0000
0010
0000
0001
0000
,
1000
0000
0001
0000
0100
0000
0010
0000
1000
0000
0001
0000
,
0100
0000
0001
0000
1000
0000
0100
0000
0010
0000
0001
0000
,
1000
0000
0010
0000
0100
0000
0001
0000
1000
0000
0100
0000
,
0010
0000
0001
0000
1000
0000
0010
0000
1000
0000
0001
0000
,
0100
0000
0010
0000
1000
0000
0001
0000
0100
0000
0001
0000
,
1000
0000
0100
0000
0010
0000
0001
0000
1000
0000
0001
0000
,
0100
0000
0010
0000
1000
0000
0001
0000
0010
0000
0100
0000
,
1000
0000
0001
0000
0100
0000
0010
0000
1000
0000
0001
0000
,
0100
0000
0001
0000
1000
0000
0100
0000
0010
0000
0001
0000
,
1000
0000
0010
0000
0100
0000
0001
0000
0100
0000
0010
0000
,
1000
0000
0001
0000
0010
0000
0001
0000
1000
0000
0100
0000
,
0010
0000
0001
0000
1000
0000
0010
0000
0100
0000
0001
0000
,
1000
0000
0010
0000
1000
0000
0001
0000
0100
0000
0001
0000
,
0010
0000
0100
0000
1000
0000
0100
0000
0010
0000
0001
0000
,
1000
0000
0010
0000
0100
0000
0001
0000
0100
0000
0010
0000
,
1000
0000
0001
0000
0010
0000
0001
0000
1000
0000
0100
0000
,
0010
0000
0001
0000
1000
0000
0010
0000
0100
0000
0001
0000
,
0100
0000
0010
0000
1000
0000
0001
0000
0100
0000
0001
0000
,
1000
0000
0100
0000
0010
0000
0001
0000
1000
0000
0010
0000
,
0100
0000
0001
0000
1000
0000
0010
0000
0000
0000
0000
0000
,
1000
0000
0100
0000
0010
0000
0001
0000
1000
0000
0001
0000
,
0100
0000
0010
0000
1000
0000
0001
0000
0100
0000
0001
0000
,
0010
0000
0100
0000
1000
0000
0001
0000
0010
0000
0001
0000
,
1000
0000
0100
0000
0010
0000
0001
0000
1000
0000
0010
0000
,
0100
0000
0001
0000
1000
0000
0100
0000
0010
0000
0001
0000
,
1000
0000
0010
0000
1000
0000
0001
0000
0100
0000
0001
0000
,
1000
0000
0100
0000
0010
0000
0001
0000
1000
0000
0010
0000
,
0100
0000
0001
0000
0100
0000
0010
0000
1000
0000
0001
0000
,
0010
0000
0001
0000
1000
0000
0100
0000
0010
0000
0001
0000
,
1000
0000
0010
0000
0100
0000
0001
0000
0100
0000
0010
0000
,
1000
0000
0001
0000
0100
0000
0001
0000
1000
0000
0100
0000
,
0010
0000
0001
0000
1000
0000
0010
0000
0100
0000
0001
0000
,
4000
0000
0000
0000
3000
0004
0000
0000
,
0000
0003
1000
0001
,
2000
0000
0001
0000
,
3001
0000
1000
0000
,
0001
0100
0010
1000
0100
0010
0001
1000
0010
0100
0010
1000
,
0100
0010
0001
0010
0100
1000
0001
0100
0001
0010
0001
0100
,
0010
1000
0100
0010
0001
1000
0010
1000
0100
1000
0001
1000
,
0100
0010
0001
1000
0010
0100
0001
0010
0100
0010
0001
1000
,
0010
1000
0100
1000
0001
0100
0001
0010
0100
1000
0100
0010
,
0001
0100
0010
0100
0001
1000
0100
0010
0100
1000
0001
1000
,
0001
0010
0001
0100
0001
1000
0100
0010
0001
0100
0010
1000
,
0001
0010
0100
1000
0001
0100
0010
1000
0100
0010
0100
1000
,
0001
0000
0000
0000
0000
0000
0000
0000
0000
0000
0000
0000
0000
0000
0000
0000
0000
0000
0000
0100
0000
0000
0000
0000
0000
0000
0000
0000
0000
0000
0000
0000
0000
0000
0000
0000
0000
0000
0010
0000
0000
0000
0000
0000
0000
0000
0000
0000
0000
0000
0000
0000
0000
0000
0000
0000
0000
0000
1000
0000
0000
0000
0000
0000
0000
0000
0000
0000
0000
0000
0000
0000
0000
0000
0000
0000
0000
0100
0000
0000
0000
0000
0000
0000
0000
0000
0000
0000
0000
0000
0000
0000
0000
0000
0000
0000
0010
0000
0000
0000
0000
0000
0000
0000
0000
0000
0000
0000
0000
0000
0000
0000
0000
0000
0000
0001
0000
0000
0000
0000
0000
0000
0000
0000
0000
0000
0000
0000
0000
0000
0000
0000
0000
0000
0100
0000
0000
0000
0000
0000
0000
0000
0000
0000
0000
0000
0000
0000
0000
0000
0000
0000
0000
0000
0010
0000
0000
0000
0000
0000
0000
0000
0000
0000
0000
0000
0000
0000
0000
0000
0000
0000
0000
1000
0000
0000
0000
0000
0000
0000
0000
0000
0000
0000
0000
0000
0000
0000
0000
0000
0000
0000
,
0100
0000
0000
0000
0000
0000
0000
0000
0000
0000
0000
0000
0000
0000
0000
0000
0000
0000
0000
0010
0000
0000
0000
0000
0000
0000
0000
0000
0000
0000
0000
0000
0000
0000
0000
0000
0000
0000
0100
0000
0000
0000
0000
0000
0000
0000
0000
0000
0000
0000
0000
0000
0000
0000
0000
0000
0000
0000
1000
0000
0000
0000
0000
0000
0000
0000
0000
0000
0000
0000
0000
0000
0000
0000
0000
0000
0000
0001
0000
0000
0000
0000
0000
0000
0000
0000
0000
0000
0000
0000
0000
0000
0000
0000
0000
0000
0100
0000
0000
0000
0000
0000
0000
0000
0000
0000
0000
0000
0000
0000
0000
0000
0000
0000
0000
0001
0000
0000
0000
0000
0000
0000
0000
0000
0000
0000
0000
0000
0000
0000
0000
0000
0000
0000
0010
0000
0000
0000
0000
0000
0000
0000
0000
0000
0000
0000
0000
0000
0000
0000
0000
0000
0000
0000
0100
0000
0000
0000
0000
0000
0000
0000
0000
0000
0000
0000
0000
0000
0000
0000
0000
0000
0000
1000
0000
0000
0000
0000
0000
0000
0000
0000
0000
0000
0000
0000
0000
0000
0000
0000
0000
0000
,
0010
0000
0000
0000
0000
0000
0000
0000
0000
0000
0000
0000
0000
0000
0000
0000
0000
0000
0000
0100
0000
0000
0000
0000
0000
0000
0000
0000
0000
0000
0000
0000
0000
0000
0000
0000
0000
0000
0001
0000
0000
0000
0000
0000
0000
0000
0000
0000
0000
0000
0000
0000
0000
0000
0000
0000
0000
0000
1000
0000
0000
0000
0000
0000
0000
0000
0000
0000
0000
0000
0000
0000
0000
0000
0000
0000
0000
0100
0000
0000
0000
0000
0000
0000
0000
0000
0000
0000
0000
0000
0000
0000
0000
0000
0000
0000
0010
0000
0000
0000
0000
0000
0000
0000
0000
0000
0000
0000
0000
0000
0000
0000
0000
0000
0000
0001
0000
0000
0000
0000
0000
0000
0000
0000
0000
0000
0000
0000
0000
0000
0000
0000
0000
0000
1000
0000
0000
0000
0000
0000
0000
0000
0000
0000
0000
0000
0000
0000
0000
0000
0000
0000
0000
0000
0100
0000
0000
0000
0000
0000
0000
0000
0000
0000
0000
0000
0000
0000
0000
0000
0000
0000
0000
1000
0000
0000
0000
0000
0000
0000
0000
0000
0000
0000
0000
0000
0000
0000
0000
0000
0000
0000
,
0001
0000
0000
0000
0000
0000
0000
0000
0000
0000
0000
0000
0000
0000
0000
0000
0000
0000
0000
0100
0000
0000
0000
0000
0000
0000
0000
0000
0000
0000
0000
0000
0000
0000
0000
0000
0000
0000
0010
0000
0000
0000
0000
0000
0000
0000
0000
0000
0000
0000
0000
0000
0000
0000
0000
0000
0000
0000
1000
0000
0000
0000
0000
0000
0000
0000
0000
0000
0000
0000
0000
0000
0000
0000
0000
0000
0000
0001
0000
0000
0000
0000
0000
0000
0000
0000
0000
0000
0000
0000
0000
0000
0000
0000
0000
0000
1000
0000
0000
0000
0000
0000
0000
0000
0000
0000
0000
0000
0000
0000
0000
0000
0000
0000
0000
0010
0000
0000
0000
0000
0000
0000
0000
0000
0000
0000
0000
0000
0000
0000
0000
0000
0000
0000
0100
0000
0000
0000
0000
0000
0000
0000
0000
0000
0000
0000
0000
0000
0000
0000
0000
0000
0000
0000
0001
0000
0000
0000
0000
0000
0000
0000
0000
0000
0000
0000
0000
0000
0000
0000
0000
0000
0000
1000
0000
0000
0000
0000
0000
0000
0000
0000
0000
0000
0000
0000
0000
0000
0000
0000
0000
0000
,
0001
0000
0000
0000
0000
0000
0000
0000
0000
0000
0000
0000
0000
0000
0000
0000
0000
0000
0000
0010
0000
0000
0000
0000
0000
0000
0000
0000
0000
0000
0000
0000
0000
0000
0000
0000
0000
0000
0001
0000
0000
0000
0000
0000
0000
0000
0000
0000
0000
0000
0000
0000
0000
0000
0000
0000
0000
0000
0100
0000
0000
0000
0000
0000
0000
0000
0000
0000
0000
0000
0000
0000
0000
0000
0000
0000
0000
0001
0000
0000
0000
0000
0000
0000
0000
0000
0000
0000
0000
0000
0000
0000
0000
0000
0000
0000
1000
0000
0000
0000
0000
0000
0000
0000
0000
0000
0000
0000
0000
0000
0000
0000
0000
0000
0000
0001
0000
0000
0000
0000
0000
0000
0000
0000
0000
0000
0000
0000
0000
0000
0000
0000
0000
0000
1000
0000
0000
0000
0000
0000
0000
0000
0000
0000
0000
0000
0000
0000
0000
0000
0000
0000
0000
0000
0010
0000
0000
0000
0000
0000
0000
0000
0000
0000
0000
0000
0000
0000
0000
0000
0000
0000
0000
1000
0000
0000
0000
0000
0000
0000
0000
0000
0000
0000
0000
0000
0000
0000
0000
0000
0000
0000
,
0100
0000
0000
0000
0000
0000
0000
0000
0000
0000
0000
0000
0000
0000
0000
0000
0000
0000
0000
1000
0000
0000
0000
0000
0000
0000
0000
0000
0000
0000
0000
0000
0000
0000
0000
0000
0000
0000
0010
0000
0000
0000
0000
0000
0000
0000
0000
0000
0000
0000
0000
0000
0000
0000
0000
0000
0000
0000
0100
0000
0000
0000
0000
0000
0000
0000
0000
0000
0000
0000
0000
0000
0000
0000
0000
0000
0000
0001
0000
0000
0000
0000
0000
0000
0000
0000
0000
0000
0000
0000
0000
0000
0000
0000
0000
0000
0010
0000
0000
0000
0000
0000
0000
0000
0000
0000
0000
0000
0000
0000
0000
0000
0000
0000
0000
0001
0000
0000
0000
0000
0000
0000
0000
0000
0000
0000
0000
0000
0000
0000
0000
0000
0000
0000
0100
0000
0000
0000
0000
0000
0000
0000
0000
0000
0000
0000
0000
0000
0000
0000
0000
0000
0000
0000
0010
0000
0000
0000
0000
0000
0000
0000
0000
0000
0000
0000
0000
0000
0000
0000
0000
0000
0000
1000
0000
0000
0000
0000
0000
0000
0000
0000
0000
0000
0000
0000
0000
0000
0000
0000
0000
0000
,
0100
0000
0000
0000
0000
0000
0000
0000
0000
0000
0000
0000
0000
0000
0000
0000
0000
0000
0000
0010
0000
0000
0000
0000
0000
0000
0000
0000
0000
0000
0000
0000
0000
0000
0000
0000
0000
0000
0100
0000
0000
0000
0000
0000
0000
0000
0000
0000
0000
0000
0000
0000
0000
0000
0000
0000
0000
0000
1000
0000
0000
0000
0000
0000
0000
0000
0000
0000
0000
0000
0000
0000
0000
0000
0000
0000
0000
0100
0000
0000
0000
0000
0000
0000
0000
0000
0000
0000
0000
0000
0000
0000
0000
0000
0000
0000
0010
0000
0000
0000
0000
0000
0000
0000
0000
0000
0000
0000
0000
0000
0000
0000
0000
0000
0000
0001
0000
0000
0000
0000
0000
0000
0000
0000
0000
0000
0000
0000
0000
0000
0000
0000
0000
0000
0100
0000
0000
0000
0000
0000
0000
0000
0000
0000
0000
0000
0000
0000
0000
0000
0000
0000
0000
0000
0010
0000
0000
0000
0000
0000
0000
0000
0000
0000
0000
0000
0000
0000
0000
0000
0000
0000
0000
1000
0000
0000
0000
0000
0000
0000
0000
0000
0000
0000
0000
0000
0000
0000
0000
0000
0000
0000
,
0100
0000
0000
0000
0000
0000
0000
0000
0000
0000
0000
0000
0000
0000
0000
0000
0000
0000
0000
0010
0000
0000
0000
0000
0000
0000
0000
0000
0000
0000
0000
0000
0000
0000
0000
0000
0000
0000
0001
0000
0000
0000
0000
0000
0000
0000
0000
0000
0000
0000
0000
0000
0000
0000
0000
0000
0000
0000
0100
0000
0000
0000
0000
0000
0000
0000
0000
0000
0000
0000
0000
0000
0000
0000
0000
0000
0000
0010
0000
0000
0000
0000
0000
0000
0000
0000
0000
0000
0000
0000
0000
0000
0000
0000
0000
0000
1000
0000
0000
0000
0000
0000
0000
0000
0000
0000
0000
0000
0000
0000
0000
0000
0000
0000
0000
0010
0000
0000
0000
0000
0000
0000
0000
0000
0000
0000
0000
0000
0000
0000
0000
0000
0000
0000
0100
0000
0000
0000
0000
0000
0000
0000
0000
0000
0000
0000
0000
0000
0000
0000
0000
0000
0000
0000
0001
0000
0000
0000
0000
0000
0000
0000
0000
0000
0000
0000
0000
0000
0000
0000
0000
0000
0000
1000
0000
0000
0000
0000
0000
0000
0000
0000
0000
0000
0000
0000
0000
0000
0000
0000
0000
0000
,
0001
1000
0001
1000
0001
0000
0000
0000
0000
0000
0000
0000
0000
0000
0000
0000
,
0000
0000
0000
0000
,
0000
0000
M00M
0000
;

//---------------dance-single - ChasePines_101----------------
#NOTES:
     dance-single:
     ChasePines_101:
     Challenge:
     29:
     1.000,1.000,0.046,0.103,1.000,1898.000,9.000,20.000,766.000,1.000:
MMMM
MMMM
MMMM
MMMM
MMMM
MMMM
MMMM
MMMM
MMMM
MMMM
MMMM
MMMM
MMMM
MMMM
MMMM
MMMM
MMMM
MMMM
MMMM
MMMM
MMMM
MMMM
MMMM
MMMM
MMMM
MMMM
MMMM
MMMM
MMMM
MMMM
MMMM
MMMM
MMMM
0000
MMMM
0000
MMMM
0000
MMMM
0000
MMMM
0000
MMMM
0000
MMMM
0000
MMMM
0000
MMMM
0000
MMMM
0000
MMMM
0000
MMMM
0000
MMMM
0000
MMMM
0000
MMMM
0000
MMMM
0000
,
MMMM
0000
0000
MMMM
0000
0000
MMMM
0000
0000
MMMM
0000
0000
MMMM
0000
0000
MMMM
0000
0000
MMMM
0000
0000
MMMM
0000
0000
MMMM
0000
0000
MMMM
0000
0000
MMMM
0000
0000
MMMM
0000
0000
0000
MMMM
0000
0000
0000
MMMM
0000
0000
0000
MMMM
0000
0000
0000
MMMM
0000
0000
0000
MMMM
0000
0000
0000
MMMM
0000
0000
0000
MMMM
0000
0000
,
0000
MMMM
0000
0000
0000
0000
MMMM
0000
0000
0000
0000
MMMM
0000
0000
0000
0000
MMMM
0000
0000
0000
0000
MMMM
0000
0000
0000
0000
MMMM
0000
0000
0000
0000
MMMM
0000
0000
0000
0000
MMMM
0000
0000
0000
0000
0000
MMMM
0000
0000
0000
0000
0000
MMMM
0000
0000
0000
0000
0000
MMMM
0000
0000
0000
0000
0000
MMMM
0000
0000
0000
,
0000
0000
MMMM
0000
0000
0000
0000
0000
0000
MMMM
0000
0000
0000
0000
0000
0000
MMMM
0000
0000
0000
0000
0000
0000
MMMM
0000
0000
0000
0000
0000
0000
MMMM
0000
0000
0000
0000
0000
0000
MMMM
0000
0000
0000
0000
0000
0000
0000
MMMM
0000
0000
0000
0000
0000
0000
0000
MMMM
0000
0000
0000
0000
0000
0000
0000
0000
0000
0000
,
1000
0001
1000
0001
,
0100
0010
0100
0010
,
1000
0100
1000
0100
,
0010
0000
0000
0000
0001
0000
0000
0000
0010
0000
0000
0000
0004
0000
0000
0003
,
1000
0100
0010
0001
0100
0010
1000
0100
0010
0001
0010
0100
0010
0001
1000
0010
,
1000
0100
0010
0001
0100
0001
0010
0001
0100
0010
1000
0100
1000
0010
0100
0001
,
1000
0010
1000
0001
0010
0100
1000
0010
0100
0001
1000
0100
1000
0010
1000
0001
,
0100
0010
1000
0010
0100
0001
0010
0001
1000
0100
1000
0001
0100
0010
1000
0001
,
1000
0100
1000
0010
0100
0001
0010
0100
,
0010
0001
1000
0010
1000
0100
0010
0001
,
0100
0010
1000
0010
0100
0010
1000
0001
,
0010
0001
1000
0001
0010
0100
1000
0010
,
0100
0001
0010
0100
0010
0001
1000
0100
,
1000
0010
0100
0001
0010
0001
1000
0010
,
1000
0001
0010
0001
0100
0001
1000
0001
,
0100
0010
1000
0010
1000
0001
1000
0001
,
1000
0100
0010
0001
,
0010
0100
1000
0010
,
0100
0001
1000
0001
,
0010
0100
1000
0001
,
1000
0100
0010
0001
,
1000
0010
0100
0010
,
1000
0001
0010
0100
,
0010
0001
1000
0100
,
1000
0001
0100
0001
,
0100
0010
1000
0001
,
1000
0010
0100
0001
,
0010
0001
1000
0100
,
0010
0100
1000
0100
,
0010
0001
0100
0010
,
1000
0010
0100
0001
,
0010
0100
1000
0001
,
200M
00M0
0M00
00M0
000M
00M0
0M00
00M0
000M
00M0
0M00
00M0
000M
00M0
0M00
00M0
,
000M
00M0
0M00
00M0
000M
00M0
0M00
00M0
000M
00M0
0M00
00M0
000M
00M0
0M00
00M0
000M
00M0
0M00
00M0
000M
00M0
0M00
00M0
000M
00M0
0M00
00M0
000M
00M0
0M00
00M0
,
000M
00M0
0M00
00M0
000M
00M0
0M00
00M0
000M
00M0
0M00
00M0
000M
00M0
0M00
00M0
000M
00M0
0M00
00M0
000M
00M0
0M00
00M0
000M
00M0
0M00
00M0
000M
00M0
0M00
00M0
000M
00M0
0M00
00M0
000M
00M0
0M00
00M0
000M
00M0
0M00
00M0
000M
00M0
0M00
00M0
000M
00M0
0M00
00M0
000M
00M0
0M00
00M0
000M
00M0
0M00
00M0
000M
00M0
0M00
00M0
,
300M
0000
M000
000M
0000
0000
M000
0000
000M
0000
000M
0000
000M
0000
000M
0000
,
1000
0010
0100
0001
0010
0100
1000
0010
1000
0001
0010
0100
0010
0001
1000
0010
,
0100
0001
0100
0010
1000
0100
1000
0010
1000
0100
0010
0001
0100
0010
1000
0100
,
1000
0010
0100
0001
1000
0100
0010
0001
0100
0010
1000
0100
0010
0100
1000
0001
,
0100
0010
1000
0001
0010
0100
1000
0100
0010
0001
0100
0001
1000
0100
1000
0001
,
0010
0001
0010
0100
1000
0010
0100
0010
1000
0100
0010
0001
0100
0010
1000
0001
,
1000
0010
0100
0001
1000
0001
0010
0100
1000
0001
0100
0001
0010
0001
1000
0010
,
1000
0001
0010
0100
0010
0001
1000
0010
0100
0001
0100
0010
1000
0100
0010
0100
,
1000
0000
0000
0010
0000
0000
0100
0000
0000
0001
0000
0000
1000
0000
0000
0100
0000
0000
0010
0000
0000
0001
0000
0000
1000
0000
0001
0000
0100
0000
0010
0000
1000
0000
0100
0000
0010
0000
0001
0000
1000
0000
0010
0000
0100
0000
0001
0000
,
1000
0001
0010
0100
0010
0001
1000
0100
0010
0001
0100
0010
1000
0100
0010
0001
,
0010
0100
1000
0010
0100
0001
1000
0001
0100
0001
1000
0010
0100
0001
0100
0010
,
1000
0100
1000
0010
0100
0001
1000
0100
0010
0001
0100
0001
1000
0100
0010
0100
,
1000
0010
0100
0001
0010
0100
1000
0001
0100
0001
0010
0100
1000
0100
0010
0001
,
1000
0100
1000
0001
0100
0010
1000
0010
0100
0001
0010
0100
1000
0001
0100
0001
,
1000
0010
1000
0100
0010
0001
1000
0100
1000
0001
1000
0001
0100
0001
1000
0100
,
1000
0001
0010
0100
0010
0001
0010
0100
1000
0100
1000
0010
0100
0001
0010
0001
,
0100
0010
1000
0100
0010
0001
0010
0100
1000
0001
0100
0010
0100
0001
1000
0001
,
1000
0100
0010
0001
1000
0100
1000
0010
1000
0001
0010
0100
1000
0001
0100
0001
,
0010
0001
1000
0100
0010
0100
1000
0001
0100
0010
1000
0100
0010
0001
0100
0010
,
1000
0001
0100
0010
0100
0001
1000
0001
0010
0100
1000
0001
0100
0010
1000
0100
,
1000
0010
0100
0001
1000
0010
1000
0100
0010
0100
1000
0001
0100
0001
1000
0100
,
1000
0001
0100
0010
1000
0100
0010
0001
1000
0001
0010
0100
1000
0010
1000
0100
,
0010
0001
1000
0010
0100
0010
1000
0001
0100
0010
1000
0001
0010
0100
0010
0001
,
1000
0100
1000
0010
0100
0001
0010
0100
1000
0001
0010
0001
0100
0010
1000
0100
,
0010
0100
1000
0100
0010
0001
1000
0010
0100
0001
0100
0010
1000
0000
0000
0000
,
0001
1000
0100
0010
0001
0100
0010
1000
0100
0010
0001
0100
0010
1000
0001
0010
,
0100
0010
0001
0010
0100
1000
0010
1000
0100
0010
0001
0100
0010
0100
0001
1000
,
0100
1000
0010
1000
0001
0010
0100
0010
0001
1000
0100
1000
0010
0100
0001
0010
,
0100
1000
0010
0100
0001
1000
0001
0010
0100
1000
0010
0100
0001
1000
0001
0100
,
0010
1000
0100
0010
0001
0100
0010
1000
0100
0010
0100
1000
0001
0100
0010
1000
,
0100
0010
0001
1000
0010
1000
0001
0100
0010
0100
0001
0010
0100
1000
0010
0100
,
0004
0000
0003
4000
0000
3000
0001
1000
,
0002
1000
1003
0001
,
1000
0001
0100
0010
1000
0100
0010
0001
0100
0010
1000
0100
1000
0001
0100
0001
,
1000
0100
1000
0010
0100
0001
0010
0001
1000
0010
1000
0100
1000
0100
0010
0001
,
1000
0001
0010
0100
0010
0001
1000
0010
1000
0100
0010
0001
0100
0010
1000
0001
,
1000
0100
1000
0001
0010
0100
1000
0010
0100
0001
0010
0100
1000
0010
1000
0001
,
0100
0010
0100
0001
1000
0100
1000
0010
0100
0001
0010
0100
0010
0001
1000
0010
,
1000
0010
0100
0001
0010
0100
1000
0100
0010
0001
1000
0100
1000
0010
0100
0001
,
1000
0100
1000
0001
0010
0100
1000
0001
0100
0001
0010
0100
1000
0010
0100
0001
,
1000
0100
0010
0100
1000
0010
0100
0010
1000
0100
0010
0001
0100
0010
1000
0001
,
1000
0100
0010
0001
0100
0010
1000
0001
0010
0100
1000
0010
0100
0001
0010
0100
0010
0001
1000
0010
1000
0100
0010
0001
,
1000
0001
0010
0100
1000
0001
0100
0010
0100
0001
0010
0100
1000
0100
0010
0001
1000
0001
1000
0001
0100
0010
1000
0001
,
1000
0100
0010
0100
1000
0100
0010
0001
0100
0010
1000
0100
1000
0010
0100
0001
0010
0001
0100
0010
1000
0010
1000
0001
,
0100
0010
1000
0100
0010
0100
1000
0010
0100
0001
0010
0100
1000
0010
0100
0001
0010
0100
1000
0100
0010
0001
1000
0100
,
1000
0000
0000
0000
0000
0000
0000
0000
0000
0000
0001
0000
0000
0000
0000
0000
0000
0000
0000
0100
0000
0000
0000
0000
0000
0000
0000
0000
0000
0010
0000
0000
0000
0000
0000
0000
0000
0000
1000
0000
0000
0000
0000
0000
0000
0000
0000
0000
0100
0000
0000
0000
0000
0000
0000
0000
0000
0000
0010
0000
0000
0000
0000
0000
0000
0000
0000
0100
0000
0000
0000
0000
0000
0000
0000
0000
0000
1000
0000
0000
0000
0000
0000
0000
0000
0000
0001
0000
0000
0000
0000
0000
0000
0000
0000
0000
0100
0000
0000
0000
0000
0000
0000
0000
0000
0000
0010
0000
0000
0000
0000
0000
0000
0000
0000
1000
0000
0000
0000
0000
0000
0000
0000
0000
0000
0010
0000
0000
0000
0000
0000
0000
0000
0000
0100
0000
0000
0000
0000
0000
0000
0000
0000
0000
0001
0000
0000
0000
0000
0000
0000
0000
0000
0000
0010
0000
0000
0000
0000
0000
0000
0000
0000
0100
0000
0000
0000
0000
0000
0000
0000
0000
0000
1000
0000
0000
0000
0000
0000
0000
0000
0000
0001
0000
0000
0000
0000
0000
0000
0000
0000
0000
,
0100
0000
0000
0000
0000
0000
0000
0000
0000
0000
0001
0000
0000
0000
0000
0000
0000
0000
0000
0010
0000
0000
0000
0000
0000
0000
0000
0000
0000
0001
0000
0000
0000
0000
0000
0000
0000
0000
0100
0000
0000
0000
0000
0000
0000
0000
0000
0000
0010
0000
0000
0000
0000
0000
0000
0000
0000
0000
1000
0000
0000
0000
0000
0000
0000
0000
0000
0100
0000
0000
0000
0000
0000
0000
0000
0000
0000
0010
0000
0000
0000
0000
0000
0000
0000
0000
0001
0000
0000
0000
0000
0000
0000
0000
0000
0000
1000
0000
0000
0000
0000
0000
0000
0000
0000
0000
0010
0000
0000
0000
0000
0000
0000
0000
0000
1000
0000
0000
0000
0000
0000
0000
0000
0000
0000
0100
0000
0000
0000
0000
0000
0000
0000
0000
1000
0000
0000
0000
0000
0000
0000
0000
0000
0000
0010
0000
0000
0000
0000
0000
0000
0000
0000
0000
0100
0000
0000
0000
0000
0000
0000
0000
0000
0001
0000
0000
0000
0000
0000
0000
0000
0000
0000
1000
0000
0000
0000
0000
0000
0000
0000
0000
0010
0000
0000
0000
0000
0000
0000
0000
0000
0000
,
1000
0000
0000
0000
0000
0000
0000
0000
0000
0000
0001
0000
0000
0000
0000
0000
0000
0000
0000
0100
0000
0000
0000
0000
0000
0000
0000
0000
0000
0010
0000
0000
0000
0000
0000
0000
0000
0000
1000
0000
0000
0000
0000
0000
0000
0000
0000
0000
0100
0000
0000
0000
0000
0000
0000
0000
0000
0000
0010
0000
0000
0000
0000
0000
0000
0000
0000
0001
0000
0000
0000
0000
0000
0000
0000
0000
0000
0010
0000
0000
0000
0000
0000
0000
0000
0000
0001
0000
0000
0000
0000
0000
0000
0000
0000
0000
1000
0000
0000
0000
0000
0000
0000
0000
0000
0000
0100
0000
0000
0000
0000
0000
0000
0000
0000
1000
0000
0000
0000
0000
0000
0000
0000
0000
0000
0001
0000
0000
0000
0000
0000
0000
0000
0000
0100
0000
0000
0000
0000
0000
0000
0000
0000
0000
0010
0000
0000
0000
0000
0000
0000
0000
0000
0000
0100
0000
0000
0000
0000
0000
0000
0000
0000
0001
0000
0000
0000
0000
0000
0000
0000
0000
0000
0010
0000
0000
0000
0000
0000
0000
0000
0000
0100
0000
0000
0000
0000
0000
0000
0000
0000
0000
,
1000
0000
0000
0000
0000
0000
0000
0000
0000
0000
0100
0000
0000
0000
0000
0000
0000
0000
0000
0010
0000
0000
0000
0000
0000
0000
0000
0000
0000
0001
0000
0000
0000
0000
0000
0000
0000
0000
1000
0000
0000
0000
0000
0000
0000
0000
0000
0000
0010
0000
0000
0000
0000
0000
0000
0000
0000
0000
0100
0000
0000
0000
0000
0000
0000
0000
0000
0001
0000
0000
0000
0000
0000
0000
0000
0000
0000
0010
0000
0000
0000
0000
0000
0000
0000
0000
0100
0000
0000
0000
0000
0000
0000
0000
0000
0000
1000
0000
0000
0000
0000
0000
0000
0000
0000
0000
0001
0000
0000
0000
0000
0000
0000
0000
0000
1000
0000
0000
0000
0000
0000
0000
0000
0000
0000
0100
0000
0000
0000
0000
0000
0000
0000
0000
0010
0000
0000
0000
0000
0000
0000
0000
0000
0000
0100
0000
0000
0000
0000
0000
0000
0000
0000
0000
1000
0000
0000
0000
0000
0000
0000
0000
0000
0100
0000
0000
0000
0000
0000
0000
0000
0000
0000
0010
0000
0000
0000
0000
0000
0000
0000
0000
0001
0000
0000
0000
0000
0000
0000
0000
0000
0000
,
1000
0000
0001
0100
0001
0000
1000
0010
0000
1000
0010
0000
0100
0001
0100
0000
0001
0000
1000
0100
0010
0000
0001
0010
0000
0001
0010
0000
0100
1000
0100
0000
,
1000
0010
0100
0001
0100
0010
1000
0001
1000
0000
0100
0000
0010
0001
0010
0000
0001
0100
0010
1000
0001
1000
0000
0001
1000
0010
0000
0100
0001
1000
0100
0010
,
0001
0100
0010
1000
0100
1000
0010
0100
0001
1000
0001
0100
0010
1000
0100
0010
0001
0100
0010
1000
0100
0010
0001
1000
0001
0100
0010
0100
0001
0010
0100
1000
,
0100
0010
0001
1000
0010
0100
0001
1000
0001
0010
0100
1000
0001
0100
0001
0010
0001
0100
0010
1000
0100
1000
0001
0100
0001
1000
0010
0100
0001
0010
0100
1000
,
0001
0000
1000
0000
0010
0000
0200
0000
0000
0000
0301
0000
0000
0000
0001
1000
0001
0000
1000
0000
0010
0000
0000
0000
1010
0000
0000
0000
0000
0000
1000
0010
,
1000
0000
0100
0000
0010
0000
0002
0000
0000
0000
1003
0000
0000
0000
1000
0010
0100
0000
0001
0000
1000
0000
0000
0000
1001
0000
0000
0000
0000
0000
0001
0010
,
0100
0000
1000
0000
0010
0000
2000
0000
0000
0000
3010
0000
0000
0000
0100
0001
1000
0000
0001
0000
0010
0000
0000
0000
0011
0000
0000
0000
0000
0000
1000
0100
,
1000
0000
0100
0000
0010
0000
0200
0000
0000
0000
1300
0000
0000
0000
0010
0100
0001
0000
1000
0000
0010
0000
0000
0000
0110
0000
0000
0000
0000
0000
1000
0001
,
1000
0001
1000
0010
0100
0001
1001
0001
1000
0100
0010
0100
1000
0010
0110
0010
,
1000
0001
0010
0001
1000
0010
1010
0010
0100
0001
0010
0100
1000
0001
0101
0100
,
0002
0003
0000
0000
0100
0000
0000
0000
0010
0000
0000
0000
0100
0000
0000
0000
0002
0003
0000
0000
1000
0000
0000
0000
0100
0000
0000
0000
0010
0000
0000
0000
0002
0003
0000
0000
1000
0000
0000
0000
0100
0000
0000
0000
1000
0000
0000
0000
0002
0003
0000
0000
0100
0000
0000
0000
0001
0000
0000
0000
1000
0000
0000
0000
,
0002
0003
0000
0000
1000
0000
0000
0000
0010
0000
0000
0000
0100
0000
0000
0000
0002
0003
0000
0000
1000
0000
0000
0000
0010
0000
0000
0000
1000
0000
0000
0000
0002
0003
0000
0000
0010
0000
0000
0000
0200
0300
0000
0000
1000
0000
0000
0000
0002
0003
0000
0000
1000
0000
0000
0000
0100
0000
0000
0000
0010
0000
0000
0000
,
0001
0000
0000
0000
MM00
M0M0
M00M
M00M
M00M
M00M
M0M0
MM00
MM00
M0M0
M00M
M00M
M00M
0000
MMMM
M000
M000
M000
M000
M000
MMMM
M000
M000
M000
M000
M000
M000
MMMM
,
0000
0MM0
M00M
M000
M000
M000
0M00
00M0
000M
000M
000M
000M
000M
M00M
0MM0
0000
MMMM
0MM0
0MM0
0MM0
0MM0
0MM0
0MM0
0MM0
0MM0
0MM0
0000
0000
0000
0000
0000
0000
,
MMMM
0MM0
0MM0
0MM0
0MM0
0MM0
0MM0
0MM0
0MM0
0MM0
0000
0000
0000
MMMM
0MM0
0MM0
0MM0
0MM0
0MM0
0MM0
0MM0
0MM0
MMMM
0000
MMMM
M0MM
M0MM
M0MM
M0MM
M0MM
M0MM
M0MM
,
0000
MMMM
M000
M000
M000
M000
M000
M000
MMMM
M000
M000
M000
M000
M000
M000
M000
MMMM
0000
0000
0000
0000
0000
0000
0000
0000
0000
0000
0000
0000
0000
0000
0000
,
M000
000M
M000
000M
,
M000
2222
0000
0000
,
0000
0000
0000
0000
,
0000
0000
0000
0000
0000
0000
0000
0000
0000
0000
0000
0000
0000
0000
3333
0000
0000
M000
0000
0000
0000
0000
0000
0000
0000
0000
0000
0000
000M
0000
0000
0000
,
M000
0M00
00M0
000M
00M0
0M00
M000
0M00
00M0
000M
00M0
0M00
M000
0M00
00M0
000M
00M0
0M00
M000
0M00
00M0
000M
00M0
0M00
M000
0M00
00M0
000M
00M0
0M00
M000
0M00
,
00M0
0000
000M
00M0
0M00
M000
0M00
00M0
000M
00M0
0M00
M000
0M00
00M0
000M
00M0
0M00
M000
0M00
00M0
000M
00M0
0M00
M000
0M00
00M0
000M
00M0
0M00
M000
0M00
00M0
000M
00M0
0M00
M000
0M00
00M0
000M
00M0
0M00
M000
0M00
00M0
000M
00M0
0M00
M000
0M00
00M0
000M
00M0
0M00
M000
0M00
00M0
000M
00M0
0M00
M000
0M00
00M0
000M
00M0
,
0M00
M000
0M00
0000
0000
0000
00M0
000M
,
M000
M000
M000
M000
,
0001
0100
0010
1000
0100
0010
0001
0100
,
0001
1000
0100
0010
0100
1000
0001
0100
,
0001
0010
0001
0100
0010
1000
0010
0100
,
0001
1000
0100
0010
0001
0010
0100
1000
,
0001
1000
0010
0100
0001
1000
0100
1000
,
0001
0100
0010
0100
0001
1000
0010
1000
,
0001
0010
0100
1000
0100
0010
0100
1000
,
0001
1000
0010
0100
0001
0100
0010
1000
,
0001
0010
0001
0100
0010
1000
0001
0010
,
0100
0010
0001
0010
0100
1000
0001
0100
,
0010
1000
0010
1000
0100
0010
0001
1000
,
0100
1000
0010
1000
0001
1000
0001
0100
,
0001
0010
0001
0100
0010
1000
0100
0010
,
0001
0010
0100
1000
0010
0100
0001
1000
,
0001
0100
0010
1000
0100
1000
0001
0100
,
0001
0010
0100
1000
0010
0100
0001
1000
0100
0010
0001
1000
,
0001
0100
0010
1000
0100
0010
0100
1000
,
0010
0100
0001
1000
0100
0010
0001
1000
,
0001
0100
0010
0100
0001
1000
0100
1000
,
0010
0100
0001
0010
0100
0010
0001
1000
,
0010
0100
0010
1000
0100
0010
0001
0010
,
0001
0100
0010
1000
0001
0010
0001
1000
,
0010
0100
0010
1000
0100
0010
0100
1000
,
0001
0010
0100
1000
0100
0010
0001
1000
,
0001
0100
0001
1000
0010
1000
0001
0100
,
0010
1000
0100
0010
0001
0100
0010
1000
,
0001
0010
0100
0010
0001
1000
0010
1000
,
0100
0010
0001
0010
0100
1000
0010
0100
,
0001
1000
0001
0100
0001
1000
0100
1000
,
0100
0010
0001
0100
0010
0100
0001
1000
,
0100
1000
0010
1000
0001
0010
0100
1000
,
0001
0100
0010
1000
0100
0010
0001
1000
,
0001
1000
0010
0100
0010
1000
0001
0010
,
0100
0010
0001
1000
0010
1000
0100
0010
,
0001
0100
0010
0100
0001
0010
0100
1000
,
0001
1000
0010
0100
0001
0100
0001
1000
,
0100
0010
0100
1000
0100
0010
0001
0100
,
0001
0010
0001
0010
0100
1000
0010
0100
,
0001
1000
0100
0010
0001
0100
0010
1000
,
0001
0010
0100
0010
0001
1000
0010
0100
,
0001
1000
0001
1000
0100
0010
0001
1000
,
0010
0100
0010
1000
0100
1000
0001
0100
,
0001
1000
0100
0010
0100
1000
0100
0010
,
0001
0100
0010
1000
0010
0100
0001
1000
,
0100
1000
0001
1000
0001
0100
0001
1000
,
0010
0100
0010
1000
0010
0100
0001
0010
,
0001
0100
0010
1000
0100
0010
0001
0100
,
0010
1000
0010
0100
0001
0000
0000
0000
,
1000
0001
0100
0010
1000
0001
0100
0001
,
1000
0100
0010
0100
1000
0001
0100
0010
,
1000
0100
0010
0001
1000
0010
0100
0010
,
1000
0001
0010
0001
0100
0010
1000
0100
,
1000
0001
0010
0100
1000
0100
0010
0001
,
0100
0001
0010
0001
1000
0010
0100
0001
,
1000
0100
1000
0001
1000
0001
0010
0100
,
1000
0010
0100
0010
1000
0100
0010
0100
,
1000
0001
0100
0010
1000
0100
0010
0001
,
1000
0100
1000
0010
0100
0001
0010
0001
,
0100
0010
1000
0100
0010
0100
1000
0100
,
0010
0001
0100
0010
1000
0100
0010
0001
,
4000
0000
0000
0000
3000
0004
0000
0000
,
0000
0003
1000
0001
,
2000
0000
0001
0000
,
3001
0000
1000
0000
,
0001
0100
0010
1000
0100
0010
0001
1000
0010
0100
0010
1000
,
0100
0010
0001
0010
0100
1000
0001
0100
0001
0010
0001
0100
,
0010
1000
0100
0010
0001
1000
0010
1000
0100
1000
0001
1000
,
0100
0010
0001
1000
0010
0100
0001
0010
0100
0010
0001
1000
,
0010
1000
0100
1000
0001
0100
0001
0010
0100
1000
0100
0010
,
0001
0100
0010
0100
0001
1000
0100
0010
0100
1000
0001
1000
,
0001
0010
0001
0100
0001
1000
0100
0010
0001
0100
0010
1000
,
0001
0010
0100
1000
0001
0100
0010
1000
0100
0010
0100
1000
,
0001
0000
0000
0000
0000
0000
0000
0000
0000
0000
0000
0000
0000
0000
0000
0000
0000
0000
0000
0100
0000
0000
0000
0000
0000
0000
0000
0000
0000
0000
0000
0000
0000
0000
0000
0000
0000
0000
0010
0000
0000
0000
0000
0000
0000
0000
0000
0000
0000
0000
0000
0000
0000
0000
0000
0000
0000
0000
1000
0000
0000
0000
0000
0000
0000
0000
0000
0000
0000
0000
0000
0000
0000
0000
0000
0000
0000
0100
0000
0000
0000
0000
0000
0000
0000
0000
0000
0000
0000
0000
0000
0000
0000
0000
0000
0000
0010
0000
0000
0000
0000
0000
0000
0000
0000
0000
0000
0000
0000
0000
0000
0000
0000
0000
0000
0001
0000
0000
0000
0000
0000
0000
0000
0000
0000
0000
0000
0000
0000
0000
0000
0000
0000
0000
0100
0000
0000
0000
0000
0000
0000
0000
0000
0000
0000
0000
0000
0000
0000
0000
0000
0000
0000
0000
0010
0000
0000
0000
0000
0000
0000
0000
0000
0000
0000
0000
0000
0000
0000
0000
0000
0000
0000
1000
0000
0000
0000
0000
0000
0000
0000
0000
0000
0000
0000
0000
0000
0000
0000
0000
0000
0000
,
0100
0000
0000
0000
0000
0000
0000
0000
0000
0000
0000
0000
0000
0000
0000
0000
0000
0000
0000
0010
0000
0000
0000
0000
0000
0000
0000
0000
0000
0000
0000
0000
0000
0000
0000
0000
0000
0000
0100
0000
0000
0000
0000
0000
0000
0000
0000
0000
0000
0000
0000
0000
0000
0000
0000
0000
0000
0000
1000
0000
0000
0000
0000
0000
0000
0000
0000
0000
0000
0000
0000
0000
0000
0000
0000
0000
0000
0001
0000
0000
0000
0000
0000
0000
0000
0000
0000
0000
0000
0000
0000
0000
0000
0000
0000
0000
0100
0000
0000
0000
0000
0000
0000
0000
0000
0000
0000
0000
0000
0000
0000
0000
0000
0000
0000
0001
0000
0000
0000
0000
0000
0000
0000
0000
0000
0000
0000
0000
0000
0000
0000
0000
0000
0000
0010
0000
0000
0000
0000
0000
0000
0000
0000
0000
0000
0000
0000
0000
0000
0000
0000
0000
0000
0000
0100
0000
0000
0000
0000
0000
0000
0000
0000
0000
0000
0000
0000
0000
0000
0000
0000
0000
0000
1000
0000
0000
0000
0000
0000
0000
0000
0000
0000
0000
0000
0000
0000
0000
0000
0000
0000
0000
,
0010
0000
0000
0000
0000
0000
0000
0000
0000
0000
0000
0000
0000
0000
0000
0000
0000
0000
0000
0100
0000
0000
0000
0000
0000
0000
0000
0000
0000
0000
0000
0000
0000
0000
0000
0000
0000
0000
0001
0000
0000
0000
0000
0000
0000
0000
0000
0000
0000
0000
0000
0000
0000
0000
0000
0000
0000
0000
1000
0000
0000
0000
0000
0000
0000
0000
0000
0000
0000
0000
0000
0000
0000
0000
0000
0000
0000
0100
0000
0000
0000
0000
0000
0000
0000
0000
0000
0000
0000
0000
0000
0000
0000
0000
0000
0000
0010
0000
0000
0000
0000
0000
0000
0000
0000
0000
0000
0000
0000
0000
0000
0000
0000
0000
0000
0001
0000
0000
0000
0000
0000
0000
0000
0000
0000
0000
0000
0000
0000
0000
0000
0000
0000
0000
1000
0000
0000
0000
0000
0000
0000
0000
0000
0000
0000
0000
0000
0000
0000
0000
0000
0000
0000
0000
0100
0000
0000
0000
0000
0000
0000
0000
0000
0000
0000
0000
0000
0000
0000
0000
0000
0000
0000
1000
0000
0000
0000
0000
0000
0000
0000
0000
0000
0000
0000
0000
0000
0000
0000
0000
0000
0000
,
0001
0000
0000
0000
0000
0000
0000
0000
0000
0000
0000
0000
0000
0000
0000
0000
0000
0000
0000
0100
0000
0000
0000
0000
0000
0000
0000
0000
0000
0000
0000
0000
0000
0000
0000
0000
0000
0000
0010
0000
0000
0000
0000
0000
0000
0000
0000
0000
0000
0000
0000
0000
0000
0000
0000
0000
0000
0000
1000
0000
0000
0000
0000
0000
0000
0000
0000
0000
0000
0000
0000
0000
0000
0000
0000
0000
0000
0001
0000
0000
0000
0000
0000
0000
0000
0000
0000
0000
0000
0000
0000
0000
0000
0000
0000
0000
1000
0000
0000
0000
0000
0000
0000
0000
0000
0000
0000
0000
0000
0000
0000
0000
0000
0000
0000
0010
0000
0000
0000
0000
0000
0000
0000
0000
0000
0000
0000
0000
0000
0000
0000
0000
0000
0000
0100
0000
0000
0000
0000
0000
0000
0000
0000
0000
0000
0000
0000
0000
0000
0000
0000
0000
0000
0000
0001
0000
0000
0000
0000
0000
0000
0000
0000
0000
0000
0000
0000
0000
0000
0000
0000
0000
0000
1000
0000
0000
0000
0000
0000
0000
0000
0000
0000
0000
0000
0000
0000
0000
0000
0000
0000
0000
,
0001
0000
0000
0000
0000
0000
0000
0000
0000
0000
0000
0000
0000
0000
0000
0000
0000
0000
0000
0010
0000
0000
0000
0000
0000
0000
0000
0000
0000
0000
0000
0000
0000
0000
0000
0000
0000
0000
0001
0000
0000
0000
0000
0000
0000
0000
0000
0000
0000
0000
0000
0000
0000
0000
0000
0000
0000
0000
0100
0000
0000
0000
0000
0000
0000
0000
0000
0000
0000
0000
0000
0000
0000
0000
0000
0000
0000
0001
0000
0000
0000
0000
0000
0000
0000
0000
0000
0000
0000
0000
0000
0000
0000
0000
0000
0000
1000
0000
0000
0000
0000
0000
0000
0000
0000
0000
0000
0000
0000
0000
0000
0000
0000
0000
0000
0001
0000
0000
0000
0000
0000
0000
0000
0000
0000
0000
0000
0000
0000
0000
0000
0000
0000
0000
1000
0000
0000
0000
0000
0000
0000
0000
0000
0000
0000
0000
0000
0000
0000
0000
0000
0000
0000
0000
0010
0000
0000
0000
0000
0000
0000
0000
0000
0000
0000
0000
0000
0000
0000
0000
0000
0000
0000
1000
0000
0000
0000
0000
0000
0000
0000
0000
0000
0000
0000
0000
0000
0000
0000
0000
0000
0000
,
0100
0000
0000
0000
0000
0000
0000
0000
0000
0000
0000
0000
0000
0000
0000
0000
0000
0000
0000
1000
0000
0000
0000
0000
0000
0000
0000
0000
0000
0000
0000
0000
0000
0000
0000
0000
0000
0000
0010
0000
0000
0000
0000
0000
0000
0000
0000
0000
0000
0000
0000
0000
0000
0000
0000
0000
0000
0000
0100
0000
0000
0000
0000
0000
0000
0000
0000
0000
0000
0000
0000
0000
0000
0000
0000
0000
0000
0001
0000
0000
0000
0000
0000
0000
0000
0000
0000
0000
0000
0000
0000
0000
0000
0000
0000
0000
0010
0000
0000
0000
0000
0000
0000
0000
0000
0000
0000
0000
0000
0000
0000
0000
0000
0000
0000
0001
0000
0000
0000
0000
0000
0000
0000
0000
0000
0000
0000
0000
0000
0000
0000
0000
0000
0000
0100
0000
0000
0000
0000
0000
0000
0000
0000
0000
0000
0000
0000
0000
0000
0000
0000
0000
0000
0000
0010
0000
0000
0000
0000
0000
0000
0000
0000
0000
0000
0000
0000
0000
0000
0000
0000
0000
0000
1000
0000
0000
0000
0000
0000
0000
0000
0000
0000
0000
0000
0000
0000
0000
0000
0000
0000
0000
,
0100
0000
0000
0000
0000
0000
0000
0000
0000
0000
0000
0000
0000
0000
0000
0000
0000
0000
0000
0010
0000
0000
0000
0000
0000
0000
0000
0000
0000
0000
0000
0000
0000
0000
0000
0000
0000
0000
0100
0000
0000
0000
0000
0000
0000
0000
0000
0000
0000
0000
0000
0000
0000
0000
0000
0000
0000
0000
1000
0000
0000
0000
0000
0000
0000
0000
0000
0000
0000
0000
0000
0000
0000
0000
0000
0000
0000
0100
0000
0000
0000
0000
0000
0000
0000
0000
0000
0000
0000
0000
0000
0000
0000
0000
0000
0000
0010
0000
0000
0000
0000
0000
0000
0000
0000
0000
0000
0000
0000
0000
0000
0000
0000
0000
0000
0001
0000
0000
0000
0000
0000
0000
0000
0000
0000
0000
0000
0000
0000
0000
0000
0000
0000
0000
0100
0000
0000
0000
0000
0000
0000
0000
0000
0000
0000
0000
0000
0000
0000
0000
0000
0000
0000
0000
0010
0000
0000
0000
0000
0000
0000
0000
0000
0000
0000
0000
0000
0000
0000
0000
0000
0000
0000
1000
0000
0000
0000
0000
0000
0000
0000
0000
0000
0000
0000
0000
0000
0000
0000
0000
0000
0000
,
0100
0000
0000
0000
0000
0000
0000
0000
0000
0000
0000
0000
0000
0000
0000
0000
0000
0000
0000
0010
0000
0000
0000
0000
0000
0000
0000
0000
0000
0000
0000
0000
0000
0000
0000
0000
0000
0000
0001
0000
0000
0000
0000
0000
0000
0000
0000
0000
0000
0000
0000
0000
0000
0000
0000
0000
0000
0000
0100
0000
0000
0000
0000
0000
0000
0000
0000
0000
0000
0000
0000
0000
0000
0000
0000
0000
0000
0010
0000
0000
0000
0000
0000
0000
0000
0000
0000
0000
0000
0000
0000
0000
0000
0000
0000
0000
1000
0000
0000
0000
0000
0000
0000
0000
0000
0000
0000
0000
0000
0000
0000
0000
0000
0000
0000
0010
0000
0000
0000
0000
0000
0000
0000
0000
0000
0000
0000
0000
0000
0000
0000
0000
0000
0000
0100
0000
0000
0000
0000
0000
0000
0000
0000
0000
0000
0000
0000
0000
0000
0000
0000
0000
0000
0000
0001
0000
0000
0000
0000
0000
0000
0000
0000
0000
0000
0000
0000
0000
0000
0000
0000
0000
0000
1000
0000
0000
0000
0000
0000
0000
0000
0000
0000
0000
0000
0000
0000
0000
0000
0000
0000
0000
,
0001
1000
0001
1000
0001
0000
0000
0000
0000
0000
0000
0000
0000
0000
0000
0000
,
0000
0000
0000
0000
,
0000
0000
M00M
0000
;

//---------------dance-single - Autogen Shit----------------
#NOTES:
     dance-single:
     Autogen Shit:
     Edit:
     29:
     1.000,1.000,0.046,0.103,1.000,1898.000,9.000,20.000,766.000,1.000:
MMMM
MMMM
MMMM
MMMM
MMMM
MMMM
MMMM
MMMM
MMMM
MMMM
MMMM
MMMM
MMMM
MMMM
MMMM
MMMM
MMMM
MMMM
MMMM
MMMM
MMMM
MMMM
MMMM
MMMM
MMMM
MMMM
MMMM
MMMM
MMMM
MMMM
MMMM
MMMM
MMMM
0000
MMMM
0000
MMMM
0000
MMMM
0000
MMMM
0000
MMMM
0000
MMMM
0000
MMMM
0000
MMMM
0000
MMMM
0000
MMMM
0000
MMMM
0000
MMMM
0000
MMMM
0000
MMMM
0000
MMMM
0000
,
MMMM
0000
0000
MMMM
0000
0000
MMMM
0000
0000
MMMM
0000
0000
MMMM
0000
0000
MMMM
0000
0000
MMMM
0000
0000
MMMM
0000
0000
MMMM
0000
0000
MMMM
0000
0000
MMMM
0000
0000
MMMM
0000
0000
0000
MMMM
0000
0000
0000
MMMM
0000
0000
0000
MMMM
0000
0000
0000
MMMM
0000
0000
0000
MMMM
0000
0000
0000
MMMM
0000
0000
0000
MMMM
0000
0000
,
0000
MMMM
0000
0000
0000
0000
MMMM
0000
0000
0000
0000
MMMM
0000
0000
0000
0000
MMMM
0000
0000
0000
0000
MMMM
0000
0000
0000
0000
MMMM
0000
0000
0000
0000
MMMM
0000
0000
0000
0000
MMMM
0000
0000
0000
0000
0000
MMMM
0000
0000
0000
0000
0000
MMMM
0000
0000
0000
0000
0000
MMMM
0000
0000
0000
0000
0000
MMMM
0000
0000
0000
,
0000
0000
MMMM
0000
0000
0000
0000
0000
0000
MMMM
0000
0000
0000
0000
0000
0000
MMMM
0000
0000
0000
0000
0000
0000
MMMM
0000
0000
0000
0000
0000
0000
MMMM
0000
0000
0000
0000
0000
0000
MMMM
0000
0000
0000
0000
0000
0000
0000
MMMM
0000
0000
0000
0000
0000
0000
0000
MMMM
0000
0000
0000
0000
0000
0000
0000
0000
0000
0000
,
1000
0001
1000
0001
,
0100
0010
0100
0010
,
1000
0100
1000
0100
,
0010
0000
0000
0000
0001
0000
0000
0000
0010
0000
0000
0000
0004
0000
0000
0003
,
0010
0100
1000
0001
0100
0010
1000
0100
1000
0001
0100
0001
0010
0100
1000
0001
,
1000
0010
0100
0001
0010
0001
0100
0010
0100
0001
0010
0001
0100
0010
1000
0001
,
0100
0010
1000
0100
1000
0010
0100
0001
0010
0100
0010
0001
0100
0001
0010
0100
,
1000
0010
1000
0001
0010
0100
0010
0001
0100
0010
1000
0100
0010
0001
0010
0100
,
1000
0001
1000
0010
0100
0010
1000
0001
,
0010
0001
0100
0010
1000
0100
0010
0001
,
0100
0001
1000
0100
0010
0100
1000
0010
,
0100
0001
0010
0100
0010
0001
0100
0010
,
0100
0001
0010
0100
1000
0010
1000
0100
,
0010
0100
1000
0001
0100
0001
0010
0100
,
1000
0100
0010
0001
1000
0100
1000
0001
,
0100
0010
1000
0100
0010
0001
1000
0100
,
1000
0001
1000
0010
,
0100
0010
1000
0100
,
0010
0100
1000
0010
,
0100
0001
0010
0100
,
0010
0001
0100
0001
,
1000
0100
1000
0010
,
0100
0010
1000
0100
,
0010
0100
1000
0001
,
0100
0010
1000
0010
,
0100
0001
1000
0010
,
0100
0001
0010
0100
,
1000
0010
0100
0010
,
1000
0100
0010
0001
,
0100
0010
0100
0001
,
1000
0001
0100
0010
,
1000
0100
0010
0001
,
200M
00M0
0M00
00M0
000M
00M0
0M00
00M0
000M
00M0
0M00
00M0
000M
00M0
0M00
00M0
,
000M
00M0
0M00
00M0
000M
00M0
0M00
00M0
000M
00M0
0M00
00M0
000M
00M0
0M00
00M0
000M
00M0
0M00
00M0
000M
00M0
0M00
00M0
000M
00M0
0M00
00M0
000M
00M0
0M00
00M0
,
000M
00M0
0M00
00M0
000M
00M0
0M00
00M0
000M
00M0
0M00
00M0
000M
00M0
0M00
00M0
000M
00M0
0M00
00M0
000M
00M0
0M00
00M0
000M
00M0
0M00
00M0
000M
00M0
0M00
00M0
000M
00M0
0M00
00M0
000M
00M0
0M00
00M0
000M
00M0
0M00
00M0
000M
00M0
0M00
00M0
000M
00M0
0M00
00M0
000M
00M0
0M00
00M0
000M
00M0
0M00
00M0
000M
00M0
0M00
00M0
,
300M
0000
M000
000M
0000
0000
M000
0000
000M
0000
000M
0000
000M
0000
000M
0000
,
1000
0001
0010
0100
1000
0001
0010
0001
1000
0100
0010
0001
0100
0001
0010
0100
,
1000
0100
0010
0001
1000
0010
1000
0100
0010
0001
0100
0010
1000
0001
0100
0001
,
1000
0010
1000
0001
0100
0010
1000
0001
0010
0001
0100
0010
1000
0001
0100
0001
,
0010
0100
0010
0001
1000
0010
1000
0001
0010
0100
1000
0001
1000
0010
0100
0001
,
1000
0010
1000
0001
0010
0100
1000
0010
1000
0001
0010
0100
0010
0001
0100
0010
,
1000
0001
0010
0100
1000
0100
0010
0001
0100
0001
0010
0100
1000
0001
0010
0100
,
1000
0010
0100
0010
1000
0001
0010
0100
0010
0001
0100
0010
1000
0001
0100
0010
,
0100
0000
0000
0001
0000
0000
1000
0000
0000
0100
0000
0000
1000
0000
0000
0001
0000
0000
0100
0000
0000
0010
0000
0000
1000
0000
0100
0000
0010
0000
0001
0000
0100
0000
0010
0000
1000
0000
0001
0000
0010
0000
0100
0000
1000
0000
0001
0000
,
0100
0010
1000
0100
0010
0001
1000
0010
0100
0010
1000
0001
0010
0001
1000
0100
,
0010
0001
1000
0100
1000
0001
0010
0100
1000
0001
0010
0100
1000
0001
0100
0010
,
1000
0001
0010
0100
1000
0010
0100
0010
1000
0001
0100
0010
1000
0100
0010
0001
,
1000
0100
1000
0001
0010
0100
1000
0001
0100
0010
0100
0001
1000
0010
0100
0010
,
1000
0001
1000
0010
0100
0001
1000
0001
0100
0010
1000
0001
1000
0100
0010
0100
,
1000
0010
1000
0001
0100
0010
0100
0001
0010
0100
1000
0100
0010
0001
0010
0100
,
1000
0001
0100
0010
1000
0001
0100
0010
1000
0100
0010
0001
0010
0100
1000
0010
,
0100
0001
0010
0100
0010
0001
0100
0001
1000
0010
0100
0010
1000
0100
0010
0001
,
1000
0010
0100
0010
1000
0100
0010
0001
0100
0010
1000
0001
0100
0010
1000
0100
,
1000
0001
0100
0010
0100
0001
0010
0100
1000
0001
0010
0100
1000
0001
0010
0100
,
0010
0001
0100
0010
0100
0001
0010
0100
0010
0001
1000
0010
0100
0001
0010
0100
,
0010
0001
0100
0001
1000
0100
0010
0100
1000
0001
0100
0010
0100
0001
0010
0001
,
1000
0010
0100
0001
1000
0010
0100
0010
1000
0100
0010
0001
1000
0010
1000
0100
,
0010
0001
0100
0010
0100
0001
1000
0010
1000
0001
0010
0100
1000
0001
0100
0010
,
1000
0100
0010
0100
1000
0001
0100
0001
1000
0100
0010
0001
1000
0010
0100
0001
,
0100
0010
1000
0001
0100
0010
0100
0001
1000
0100
0010
0001
1000
0000
0000
0000
,
0010
0100
0010
1000
0100
1000
0010
0100
0001
0100
0010
1000
0001
1000
0100
0010
,
0001
0010
0100
1000
0001
0100
0001
0010
0100
1000
0001
0010
0100
1000
0001
0010
,
0001
1000
0010
0100
0010
1000
0100
1000
0001
0100
0010
1000
0001
0010
0100
1000
,
0010
0100
0001
0100
0010
1000
0010
0100
0001
0010
0100
1000
0010
0100
0010
1000
,
0100
0010
0001
1000
0010
0100
0001
1000
0100
0010
0001
0100
0001
1000
0100
0010
,
0001
0010
0100
1000
0001
1000
0100
0010
0001
1000
0010
0100
0001
1000
0100
0010
,
0004
0000
0003
4000
0000
3000
0001
1000
,
0002
1000
1003
0001
,
0010
0001
1000
0001
0010
0100
0010
0001
0100
0001
0010
0100
0010
0001
0100
0001
,
0010
0100
1000
0100
0010
0001
1000
0100
0010
0100
1000
0010
0100
0010
1000
0100
,
1000
0010
0100
0001
0010
0100
0010
0001
0100
0001
0010
0100
1000
0010
0100
0001
,
0010
0100
0010
0001
1000
0001
0100
0010
1000
0100
1000
0010
0100
0001
1000
0010
,
0100
0001
0010
0100
0010
0001
0100
0010
1000
0001
0100
0010
1000
0001
0010
0100
,
0010
0001
1000
0001
0100
0010
0100
0001
0010
0100
0010
0001
1000
0001
0100
0010
,
0100
0001
1000
0100
0010
0001
0100
0010
1000
0001
0010
0001
0100
0010
1000
0100
,
0010
0001
1000
0010
0100
0001
1000
0010
0100
0001
0010
0100
1000
0010
0100
0001
,
0100
0001
0010
0100
1000
0010
0100
0010
1000
0001
0100
0001
0010
0100
1000
0010
0100
0001
0010
0001
0100
0010
1000
0001
,
1000
0100
0010
0001
0100
0001
0010
0100
1000
0100
0010
0001
0010
0100
1000
0001
0010
0100
1000
0010
1000
0100
0010
0100
,
1000
0010
1000
0001
0100
0010
0100
0001
0010
0100
0010
0001
0100
0010
1000
0001
0100
0001
0010
0100
0010
0001
0100
0010
,
1000
0100
0010
0100
1000
0010
1000
0100
0010
0001
0010
0100
1000
0001
0010
0001
0100
0010
0100
0001
0010
0100
0010
0001
,
0100
0000
0000
0000
0000
0000
0000
0000
0000
0000
0010
0000
0000
0000
0000
0000
0000
0000
0000
1000
0000
0000
0000
0000
0000
0000
0000
0000
0000
0001
0000
0000
0000
0000
0000
0000
0000
0000
0100
0000
0000
0000
0000
0000
0000
0000
0000
0000
0010
0000
0000
0000
0000
0000
0000
0000
0000
0000
1000
0000
0000
0000
0000
0000
0000
0000
0000
0001
0000
0000
0000
0000
0000
0000
0000
0000
0000
0010
0000
0000
0000
0000
0000
0000
0000
0000
0100
0000
0000
0000
0000
0000
0000
0000
0000
0000
1000
0000
0000
0000
0000
0000
0000
0000
0000
0000
0001
0000
0000
0000
0000
0000
0000
0000
0000
0100
0000
0000
0000
0000
0000
0000
0000
0000
0000
0001
0000
0000
0000
0000
0000
0000
0000
0000
0010
0000
0000
0000
0000
0000
0000
0000
0000
0000
0100
0000
0000
0000
0000
0000
0000
0000
0000
0000
0010
0000
0000
0000
0000
0000
0000
0000
0000
0001
0000
0000
0000
0000
0000
0000
0000
0000
0000
0100
0000
0000
0000
0000
0000
0000
0000
0000
0001
0000
0000
0000
0000
0000
0000
0000
0000
0000
,
1000
0000
0000
0000
0000
0000
0000
0000
0000
0000
0010
0000
0000
0000
0000
0000
0000
0000
0000
0100
0000
0000
0000
0000
0000
0000
0000
0000
0000
0001
0000
0000
0000
0000
0000
0000
0000
0000
0010
0000
0000
0000
0000
0000
0000
0000
0000
0000
0001
0000
0000
0000
0000
0000
0000
0000
0000
0000
1000
0000
0000
0000
0000
0000
0000
0000
0000
0100
0000
0000
0000
0000
0000
0000
0000
0000
0000
0010
0000
0000
0000
0000
0000
0000
0000
0000
0100
0000
0000
0000
0000
0000
0000
0000
0000
0000
1000
0000
0000
0000
0000
0000
0000
0000
0000
0000
0010
0000
0000
0000
0000
0000
0000
0000
0000
0100
0000
0000
0000
0000
0000
0000
0000
0000
0000
0010
0000
0000
0000
0000
0000
0000
0000
0000
1000
0000
0000
0000
0000
0000
0000
0000
0000
0000
0100
0000
0000
0000
0000
0000
0000
0000
0000
0000
0010
0000
0000
0000
0000
0000
0000
0000
0000
0100
0000
0000
0000
0000
0000
0000
0000
0000
0000
1000
0000
0000
0000
0000
0000
0000
0000
0000
0001
0000
0000
0000
0000
0000
0000
0000
0000
0000
,
0010
0000
0000
0000
0000
0000
0000
0000
0000
0000
0001
0000
0000
0000
0000
0000
0000
0000
0000
0100
0000
0000
0000
0000
0000
0000
0000
0000
0000
0010
0000
0000
0000
0000
0000
0000
0000
0000
1000
0000
0000
0000
0000
0000
0000
0000
0000
0000
0100
0000
0000
0000
0000
0000
0000
0000
0000
0000
0010
0000
0000
0000
0000
0000
0000
0000
0000
0001
0000
0000
0000
0000
0000
0000
0000
0000
0000
0100
0000
0000
0000
0000
0000
0000
0000
0000
0010
0000
0000
0000
0000
0000
0000
0000
0000
0000
1000
0000
0000
0000
0000
0000
0000
0000
0000
0000
0010
0000
0000
0000
0000
0000
0000
0000
0000
0100
0000
0000
0000
0000
0000
0000
0000
0000
0000
0001
0000
0000
0000
0000
0000
0000
0000
0000
0100
0000
0000
0000
0000
0000
0000
0000
0000
0000
0010
0000
0000
0000
0000
0000
0000
0000
0000
0000
1000
0000
0000
0000
0000
0000
0000
0000
0000
0001
0000
0000
0000
0000
0000
0000
0000
0000
0000
1000
0000
0000
0000
0000
0000
0000
0000
0000
0010
0000
0000
0000
0000
0000
0000
0000
0000
0000
,
0100
0000
0000
0000
0000
0000
0000
0000
0000
0000
0001
0000
0000
0000
0000
0000
0000
0000
0000
0100
0000
0000
0000
0000
0000
0000
0000
0000
0000
0010
0000
0000
0000
0000
0000
0000
0000
0000
1000
0000
0000
0000
0000
0000
0000
0000
0000
0000
0100
0000
0000
0000
0000
0000
0000
0000
0000
0000
0010
0000
0000
0000
0000
0000
0000
0000
0000
0100
0000
0000
0000
0000
0000
0000
0000
0000
0000
1000
0000
0000
0000
0000
0000
0000
0000
0000
0010
0000
0000
0000
0000
0000
0000
0000
0000
0000
0100
0000
0000
0000
0000
0000
0000
0000
0000
0000
0001
0000
0000
0000
0000
0000
0000
0000
0000
1000
0000
0000
0000
0000
0000
0000
0000
0000
0000
0100
0000
0000
0000
0000
0000
0000
0000
0000
0010
0000
0000
0000
0000
0000
0000
0000
0000
0000
0001
0000
0000
0000
0000
0000
0000
0000
0000
0000
0100
0000
0000
0000
0000
0000
0000
0000
0000
0010
0000
0000
0000
0000
0000
0000
0000
0000
0000
1000
0000
0000
0000
0000
0000
0000
0000
0000
0001
0000
0000
0000
0000
0000
0000
0000
0000
0000
,
1000
0000
0001
0100
0001
0000
1000
0010
0000
1000
0010
0000
0100
0001
0100
0000
0001
0000
1000
0100
0010
0000
0001
0010
0000
0001
0010
0000
0100
1000
0100
0000
,
1000
0010
0100
0001
0100
0010
1000
0001
1000
0000
0100
0000
0010
0001
0010
0000
0001
0100
0010
1000
0001
1000
0000
0001
1000
0010
0000
0100
0001
1000
0100
0010
,
0001
0100
0010
1000
0100
1000
0010
0100
0001
1000
0001
0100
0010
1000
0100
0010
0001
0100
0010
1000
0100
0010
0001
1000
0001
0100
0010
0100
0001
0010
0100
1000
,
0100
0010
0001
1000
0010
0100
0001
1000
0001
0010
0100
1000
0001
0100
0001
0010
0001
0100
0010
1000
0100
1000
0001
0100
0001
1000
0010
0100
0001
0010
0100
1000
,
0001
0000
1000
0000
0010
0000
0200
0000
0000
0000
0301
0000
0000
0000
0001
1000
0001
0000
1000
0000
0010
0000
0000
0000
1010
0000
0000
0000
0000
0000
1000
0010
,
1000
0000
0100
0000
0010
0000
0002
0000
0000
0000
1003
0000
0000
0000
1000
0010
0100
0000
0001
0000
1000
0000
0000
0000
1001
0000
0000
0000
0000
0000
0001
0010
,
0100
0000
1000
0000
0010
0000
2000
0000
0000
0000
3010
0000
0000
0000
0100
0001
1000
0000
0001
0000
0010
0000
0000
0000
0011
0000
0000
0000
0000
0000
1000
0100
,
1000
0000
0100
0000
0010
0000
0200
0000
0000
0000
1300
0000
0000
0000
0010
0100
0001
0000
1000
0000
0010
0000
0000
0000
0110
0000
0000
0000
0000
0000
1000
0001
,
1000
0001
1000
0010
0100
0001
1001
0001
1000
0100
0010
0100
1000
0010
0110
0010
,
1000
0001
0010
0001
1000
0010
1010
0010
0100
0001
0010
0100
1000
0001
0101
0100
,
0002
0003
0000
0000
0100
0000
0000
0000
0010
0000
0000
0000
0100
0000
0000
0000
0002
0003
0000
0000
1000
0000
0000
0000
0100
0000
0000
0000
0010
0000
0000
0000
0002
0003
0000
0000
1000
0000
0000
0000
0100
0000
0000
0000
1000
0000
0000
0000
0002
0003
0000
0000
0100
0000
0000
0000
0001
0000
0000
0000
1000
0000
0000
0000
,
0002
0003
0000
0000
1000
0000
0000
0000
0010
0000
0000
0000
0100
0000
0000
0000
0002
0003
0000
0000
1000
0000
0000
0000
0010
0000
0000
0000
1000
0000
0000
0000
0002
0003
0000
0000
0010
0000
0000
0000
0200
0300
0000
0000
1000
0000
0000
0000
0002
0003
0000
0000
1000
0000
0000
0000
0100
0000
0000
0000
0010
0000
0000
0000
,
0001
0000
0000
0000
MM00
M0M0
M00M
M00M
M00M
M00M
M0M0
MM00
MM00
M0M0
M00M
M00M
M00M
0000
MMMM
M000
M000
M000
M000
M000
MMMM
M000
M000
M000
M000
M000
M000
MMMM
,
0000
0MM0
M00M
M000
M000
M000
0M00
00M0
000M
000M
000M
000M
000M
M00M
0MM0
0000
MMMM
0MM0
0MM0
0MM0
0MM0
0MM0
0MM0
0MM0
0MM0
0MM0
0000
0000
0000
0000
0000
0000
,
MMMM
0MM0
0MM0
0MM0
0MM0
0MM0
0MM0
0MM0
0MM0
0MM0
0000
0000
0000
MMMM
0MM0
0MM0
0MM0
0MM0
0MM0
0MM0
0MM0
0MM0
MMMM
0000
MMMM
M0MM
M0MM
M0MM
M0MM
M0MM
M0MM
M0MM
,
0000
MMMM
M000
M000
M000
M000
M000
M000
MMMM
M000
M000
M000
M000
M000
M000
M000
MMMM
0000
0000
0000
0000
0000
0000
0000
0000
0000
0000
0000
0000
0000
0000
0000
,
M000
000M
M000
000M
,
M000
2222
0000
0000
,
0000
0000
0000
0000
,
0000
0000
0000
0000
0000
0000
0000
3333
0000
0000
M000
0000
0000
0000
0000
000M
,
M000
0M00
00M0
000M
00M0
0M00
M000
0M00
00M0
000M
00M0
0M00
M000
0M00
00M0
000M
00M0
0M00
M000
0M00
00M0
000M
00M0
0M00
M000
0M00
00M0
000M
00M0
0M00
M000
0M00
,
00M0
0000
000M
00M0
0M00
M000
0M00
00M0
000M
00M0
0M00
M000
0M00
00M0
000M
00M0
0M00
M000
0M00
00M0
000M
00M0
0M00
M000
0M00
00M0
000M
00M0
0M00
M000
0M00
00M0
000M
00M0
0M00
M000
0M00
00M0
000M
00M0
0M00
M000
0M00
00M0
000M
00M0
0M00
M000
0M00
00M0
000M
00M0
0M00
M000
0M00
00M0
000M
00M0
0M00
M000
0M00
00M0
000M
00M0
,
0M00
M000
0M00
0000
0000
0000
00M0
000M
,
M000
M000
M000
M000
,
0001
1000
0100
0010
0001
1000
0100
1000
,
0001
0010
0100
1000
0010
1000
0100
0010
,
0001
0010
0100
1000
0001
0100
0001
0010
,
0100
1000
0010
0100
0001
1000
0010
1000
,
0001
0100
0001
1000
0010
0100
0001
1000
,
0100
1000
0010
0100
0001
1000
0010
1000
,
0100
0010
0100
1000
0001
0100
0001
1000
,
0100
0010
0001
1000
0001
0100
0010
1000
,
0001
0100
0001
1000
0100
0010
0001
0100
,
0001
1000
0100
0010
0100
1000
0010
0100
,
0001
1000
0100
0010
0001
0010
0100
1000
,
0010
1000
0100
0010
0001
1000
0100
0010
,
0001
0100
0010
0100
0001
1000
0100
0010
,
0100
1000
0010
0100
0001
1000
0010
0100
,
0010
1000
0001
0010
0001
1000
0010
0100
,
0001
0010
0100
1000
0010
0100
0001
1000
0100
0010
0001
1000
,
0010
0100
0001
0010
0100
1000
0001
0100
,
0010
0100
0001
1000
0100
1000
0001
0010
,
0100
1000
0001
0010
0001
1000
0100
0010
,
0001
1000
0100
0010
0001
1000
0010
0100
,
0001
1000
0100
0010
0001
0100
0010
0100
,
0001
1000
0010
0100
0001
0010
0100
1000
,
0001
0010
0001
1000
0100
0010
0001
1000
,
0010
0100
0010
1000
0001
0100
0010
0100
,
0001
1000
0001
0100
0010
1000
0001
1000
,
0010
0100
0001
1000
0001
0010
0100
0010
,
0001
0100
0001
1000
0010
0100
0010
1000
,
0100
0010
0001
0010
0100
1000
0100
0010
,
0001
1000
0010
0100
0001
1000
0010
0100
,
0001
0010
0100
1000
0100
0010
0001
0100
,
0010
1000
0100
0010
0100
1000
0010
1000
,
0001
0100
0010
0100
0001
0010
0100
1000
,
0001
0100
0010
0100
0001
0010
0100
1000
,
0010
0100
0001
1000
0010
0100
0001
0010
,
0001
1000
0010
0100
0010
1000
0100
0010
,
0001
1000
0100
0010
0001
1000
0100
0010
,
0100
1000
0010
0100
0010
1000
0100
0010
,
0100
1000
0001
0100
0010
1000
0100
0010
,
0100
1000
0010
1000
0001
0010
0100
0010
,
0001
1000
0010
0100
0010
1000
0100
1000
,
0001
0100
0010
1000
0001
0100
0010
0100
,
0001
0010
0100
1000
0001
0100
0001
0010
,
0100
1000
0010
0100
0010
1000
0001
0100
,
0001
1000
0100
0010
0001
1000
0010
0100
,
0001
0010
0100
0010
0001
1000
0010
1000
,
0001
0010
0100
1000
0001
0100
0010
1000
,
0010
0100
0001
1000
0010
0100
0010
1000
,
0001
0010
0100
1000
0001
0000
0000
0000
,
0100
0010
0100
0001
0010
0001
0100
0010
,
1000
0010
0100
0001
1000
0001
0010
0100
,
1000
0100
0010
0001
1000
0010
1000
0100
,
0010
0001
1000
0100
0010
0001
1000
0100
,
1000
0001
0100
0010
0100
0001
0010
0001
,
1000
0010
0100
0001
1000
0100
0010
0001
,
0100
0010
1000
0010
0100
0001
0100
0010
,
1000
0100
0010
0001
0100
0010
0100
0001
,
0010
0100
1000
0001
0100
0010
1000
0001
,
0010
0100
1000
0010
1000
0001
0010
0100
,
1000
0100
0010
0001
1000
0001
0010
0100
,
1000
0001
0100
0010
1000
0001
0010
0100
,
4000
0000
0000
0000
3000
0004
0000
0000
,
0000
0003
1000
0001
,
2000
0000
0001
0000
,
3001
0000
1000
0000
,
0010
0100
0001
0010
0001
0100
0010
1000
0100
0010
0001
1000
,
0100
0010
0001
0100
0001
1000
0010
0100
0001
0010
0001
0100
,
0010
0100
0001
0010
0001
0100
0010
0100
0001
0010
0100
0010
,
0001
1000
0001
0010
0100
0010
0001
1000
0100
1000
0010
0100
,
0001
0100
0010
1000
0100
1000
0010
0100
0001
0010
0100
0010
,
0001
1000
0010
1000
0100
0010
0001
0100
0001
1000
0010
1000
,
0100
0010
0001
0100
0010
0100
0001
0010
0100
1000
0100
0010
,
0001
0100
0001
0010
0100
0010
0001
0100
0010
1000
0100
0010
,
0001
0000
0000
0000
0000
0000
0000
0000
0000
0000
0000
0000
0000
0000
0000
0000
0000
0000
0000
0100
0000
0000
0000
0000
0000
0000
0000
0000
0000
0000
0000
0000
0000
0000
0000
0000
0000
0000
0010
0000
0000
0000
0000
0000
0000
0000
0000
0000
0000
0000
0000
0000
0000
0000
0000
0000
0000
0000
1000
0000
0000
0000
0000
0000
0000
0000
0000
0000
0000
0000
0000
0000
0000
0000
0000
0000
0000
0100
0000
0000
0000
0000
0000
0000
0000
0000
0000
0000
0000
0000
0000
0000
0000
0000
0000
0000
0010
0000
0000
0000
0000
0000
0000
0000
0000
0000
0000
0000
0000
0000
0000
0000
0000
0000
0000
0001
0000
0000
0000
0000
0000
0000
0000
0000
0000
0000
0000
0000
0000
0000
0000
0000
0000
0000
0100
0000
0000
0000
0000
0000
0000
0000
0000
0000
0000
0000
0000
0000
0000
0000
0000
0000
0000
0000
0010
0000
0000
0000
0000
0000
0000
0000
0000
0000
0000
0000
0000
0000
0000
0000
0000
0000
0000
1000
0000
0000
0000
0000
0000
0000
0000
0000
0000
0000
0000
0000
0000
0000
0000
0000
0000
0000
,
0100
0000
0000
0000
0000
0000
0000
0000
0000
0000
0000
0000
0000
0000
0000
0000
0000
0000
0000
0010
0000
0000
0000
0000
0000
0000
0000
0000
0000
0000
0000
0000
0000
0000
0000
0000
0000
0000
0100
0000
0000
0000
0000
0000
0000
0000
0000
0000
0000
0000
0000
0000
0000
0000
0000
0000
0000
0000
1000
0000
0000
0000
0000
0000
0000
0000
0000
0000
0000
0000
0000
0000
0000
0000
0000
0000
0000
0001
0000
0000
0000
0000
0000
0000
0000
0000
0000
0000
0000
0000
0000
0000
0000
0000
0000
0000
0100
0000
0000
0000
0000
0000
0000
0000
0000
0000
0000
0000
0000
0000
0000
0000
0000
0000
0000
0001
0000
0000
0000
0000
0000
0000
0000
0000
0000
0000
0000
0000
0000
0000
0000
0000
0000
0000
0010
0000
0000
0000
0000
0000
0000
0000
0000
0000
0000
0000
0000
0000
0000
0000
0000
0000
0000
0000
0100
0000
0000
0000
0000
0000
0000
0000
0000
0000
0000
0000
0000
0000
0000
0000
0000
0000
0000
1000
0000
0000
0000
0000
0000
0000
0000
0000
0000
0000
0000
0000
0000
0000
0000
0000
0000
0000
,
0010
0000
0000
0000
0000
0000
0000
0000
0000
0000
0000
0000
0000
0000
0000
0000
0000
0000
0000
0100
0000
0000
0000
0000
0000
0000
0000
0000
0000
0000
0000
0000
0000
0000
0000
0000
0000
0000
0001
0000
0000
0000
0000
0000
0000
0000
0000
0000
0000
0000
0000
0000
0000
0000
0000
0000
0000
0000
1000
0000
0000
0000
0000
0000
0000
0000
0000
0000
0000
0000
0000
0000
0000
0000
0000
0000
0000
0100
0000
0000
0000
0000
0000
0000
0000
0000
0000
0000
0000
0000
0000
0000
0000
0000
0000
0000
0010
0000
0000
0000
0000
0000
0000
0000
0000
0000
0000
0000
0000
0000
0000
0000
0000
0000
0000
0001
0000
0000
0000
0000
0000
0000
0000
0000
0000
0000
0000
0000
0000
0000
0000
0000
0000
0000
1000
0000
0000
0000
0000
0000
0000
0000
0000
0000
0000
0000
0000
0000
0000
0000
0000
0000
0000
0000
0100
0000
0000
0000
0000
0000
0000
0000
0000
0000
0000
0000
0000
0000
0000
0000
0000
0000
0000
1000
0000
0000
0000
0000
0000
0000
0000
0000
0000
0000
0000
0000
0000
0000
0000
0000
0000
0000
,
0001
0000
0000
0000
0000
0000
0000
0000
0000
0000
0000
0000
0000
0000
0000
0000
0000
0000
0000
0100
0000
0000
0000
0000
0000
0000
0000
0000
0000
0000
0000
0000
0000
0000
0000
0000
0000
0000
0010
0000
0000
0000
0000
0000
0000
0000
0000
0000
0000
0000
0000
0000
0000
0000
0000
0000
0000
0000
1000
0000
0000
0000
0000
0000
0000
0000
0000
0000
0000
0000
0000
0000
0000
0000
0000
0000
0000
0001
0000
0000
0000
0000
0000
0000
0000
0000
0000
0000
0000
0000
0000
0000
0000
0000
0000
0000
1000
0000
0000
0000
0000
0000
0000
0000
0000
0000
0000
0000
0000
0000
0000
0000
0000
0000
0000
0010
0000
0000
0000
0000
0000
0000
0000
0000
0000
0000
0000
0000
0000
0000
0000
0000
0000
0000
0100
0000
0000
0000
0000
0000
0000
0000
0000
0000
0000
0000
0000
0000
0000
0000
0000
0000
0000
0000
0001
0000
0000
0000
0000
0000
0000
0000
0000
0000
0000
0000
0000
0000
0000
0000
0000
0000
0000
1000
0000
0000
0000
0000
0000
0000
0000
0000
0000
0000
0000
0000
0000
0000
0000
0000
0000
0000
,
0001
0000
0000
0000
0000
0000
0000
0000
0000
0000
0000
0000
0000
0000
0000
0000
0000
0000
0000
0010
0000
0000
0000
0000
0000
0000
0000
0000
0000
0000
0000
0000
0000
0000
0000
0000
0000
0000
0001
0000
0000
0000
0000
0000
0000
0000
0000
0000
0000
0000
0000
0000
0000
0000
0000
0000
0000
0000
0100
0000
0000
0000
0000
0000
0000
0000
0000
0000
0000
0000
0000
0000
0000
0000
0000
0000
0000
0010
0000
0000
0000
0000
0000
0000
0000
0000
0000
0000
0000
0000
0000
0000
0000
0000
0000
0000
1000
0000
0000
0000
0000
0000
0000
0000
0000
0000
0000
0000
0000
0000
0000
0000
0000
0000
0000
0100
0000
0000
0000
0000
0000
0000
0000
0000
0000
0000
0000
0000
0000
0000
0000
0000
0000
0000
1000
0000
0000
0000
0000
0000
0000
0000
0000
0000
0000
0000
0000
0000
0000
0000
0000
0000
0000
0000
0010
0000
0000
0000
0000
0000
0000
0000
0000
0000
0000
0000
0000
0000
0000
0000
0000
0000
0000
1000
0000
0000
0000
0000
0000
0000
0000
0000
0000
0000
0000
0000
0000
0000
0000
0000
0000
0000
,
0100
0000
0000
0000
0000
0000
0000
0000
0000
0000
0000
0000
0000
0000
0000
0000
0000
0000
0000
1000
0000
0000
0000
0000
0000
0000
0000
0000
0000
0000
0000
0000
0000
0000
0000
0000
0000
0000
0010
0000
0000
0000
0000
0000
0000
0000
0000
0000
0000
0000
0000
0000
0000
0000
0000
0000
0000
0000
0100
0000
0000
0000
0000
0000
0000
0000
0000
0000
0000
0000
0000
0000
0000
0000
0000
0000
0000
0001
0000
0000
0000
0000
0000
0000
0000
0000
0000
0000
0000
0000
0000
0000
0000
0000
0000
0000
0010
0000
0000
0000
0000
0000
0000
0000
0000
0000
0000
0000
0000
0000
0000
0000
0000
0000
0000
0001
0000
0000
0000
0000
0000
0000
0000
0000
0000
0000
0000
0000
0000
0000
0000
0000
0000
0000
0100
0000
0000
0000
0000
0000
0000
0000
0000
0000
0000
0000
0000
0000
0000
0000
0000
0000
0000
0000
0010
0000
0000
0000
0000
0000
0000
0000
0000
0000
0000
0000
0000
0000
0000
0000
0000
0000
0000
1000
0000
0000
0000
0000
0000
0000
0000
0000
0000
0000
0000
0000
0000
0000
0000
0000
0000
0000
,
0100
0000
0000
0000
0000
0000
0000
0000
0000
0000
0000
0000
0000
0000
0000
0000
0000
0000
0000
0010
0000
0000
0000
0000
0000
0000
0000
0000
0000
0000
0000
0000
0000
0000
0000
0000
0000
0000
0100
0000
0000
0000
0000
0000
0000
0000
0000
0000
0000
0000
0000
0000
0000
0000
0000
0000
0000
0000
1000
0000
0000
0000
0000
0000
0000
0000
0000
0000
0000
0000
0000
0000
0000
0000
0000
0000
0000
0100
0000
0000
0000
0000
0000
0000
0000
0000
0000
0000
0000
0000
0000
0000
0000
0000
0000
0000
0010
0000
0000
0000
0000
0000
0000
0000
0000
0000
0000
0000
0000
0000
0000
0000
0000
0000
0000
0001
0000
0000
0000
0000
0000
0000
0000
0000
0000
0000
0000
0000
0000
0000
0000
0000
0000
0000
0100
0000
0000
0000
0000
0000
0000
0000
0000
0000
0000
0000
0000
0000
0000
0000
0000
0000
0000
0000
0010
0000
0000
0000
0000
0000
0000
0000
0000
0000
0000
0000
0000
0000
0000
0000
0000
0000
0000
1000
0000
0000
0000
0000
0000
0000
0000
0000
0000
0000
0000
0000
0000
0000
0000
0000
0000
0000
,
0100
0000
0000
0000
0000
0000
0000
0000
0000
0000
0000
0000
0000
0000
0000
0000
0000
0000
0000
0010
0000
0000
0000
0000
0000
0000
0000
0000
0000
0000
0000
0000
0000
0000
0000
0000
0000
0000
0001
0000
0000
0000
0000
0000
0000
0000
0000
0000
0000
0000
0000
0000
0000
0000
0000
0000
0000
0000
0100
0000
0000
0000
0000
0000
0000
0000
0000
0000
0000
0000
0000
0000
0000
0000
0000
0000
0000
0010
0000
0000
0000
0000
0000
0000
0000
0000
0000
0000
0000
0000
0000
0000
0000
0000
0000
0000
1000
0000
0000
0000
0000
0000
0000
0000
0000
0000
0000
0000
0000
0000
0000
0000
0000
0000
0000
0010
0000
0000
0000
0000
0000
0000
0000
0000
0000
0000
0000
0000
0000
0000
0000
0000
0000
0000
0100
0000
0000
0000
0000
0000
0000
0000
0000
0000
0000
0000
0000
0000
0000
0000
0000
0000
0000
0000
0001
0000
0000
0000
0000
0000
0000
0000
0000
0000
0000
0000
0000
0000
0000
0000
0000
0000
0000
1000
0000
0000
0000
0000
0000
0000
0000
0000
0000
0000
0000
0000
0000
0000
0000
0000
0000
0000
,
0001
1000
0001
1000
0001
0000
0000
0000
0000
0000
0000
0000
0000
0000
0000
0000
,
0000
0000
0000
0000
,
0000
0000
M00M
0000
;
