#TITLE:The Final Enemy;
#SUBTITLE:;
#ARTIST:ToastedNoodlez;
#TITLETRANSLIT:;
#SUBTITLETRANSLIT:;
#ARTISTTRANSLIT:;
#CREDIT:Owem;
#BANNER:../banner.png;
#BACKGROUND:../bg.png;
#LYRICSPATH:;
#CDTITLE:../cdtitleowem.png;
#MUSIC:ToastedNoodlez - The Final Enemy.ogg;
#OFFSET:-0.041;
#SAMPLESTART:80.041;
#SAMPLELENGTH:29.999;
#SELECTABLE:YES;
#BPMS:0.000=180.000;
#STOPS:;
#BGCHANGES:;
// cache tags:
#FIRSTBEAT:16.000;
#LASTBEAT:704.000;
#SONGFILENAME:Songs/Owem's Simfiles 08 (not release)/The Final Enemy - [Owem]/The Final Enemy.sm;
#HASMUSIC:1;
#HASBANNER:1;
#MUSICLENGTH:234.736;
// end cache tags

//---------------dance-single - 5-7/5/7-7-7-7/4/5-7/----------------
#NOTES:
     dance-single:
     5-7/5/7-7-7-7/4/5-7/:
     Challenge:
     15:
     1.000,1.000,0.230,0.435,1.000,1994.000,54.000,102.000,3.000,9.000:
0000
0000
0000
0000
,
0000
0000
0000
0000
,
0000
0000
0000
0000
,
0000
0000
0000
0000
,
1000
0100
0010
0001
1000
0001
0100
0010
,
1000
0010
0100
0001
1000
0100
1000
0001
,
1000
0010
0100
0001
1000
0100
1000
0001
,
0010
0100
1000
0001
0010
0001
0100
0010
,
1000
1100
0000
0110
0010
0000
0001
0011
,
0000
1001
1000
0000
0020
0000
0230
0000
,
0301
1001
0000
1010
1000
0000
0100
1100
,
0000
1001
0001
0000
1000
0100
0010
0001
,
1001
1010
0010
0101
1010
1000
0101
0011
,
0001
0110
1010
0000
0020
0000
0230
0000
,
0302
0000
0000
0000
0000
0000
0000
0000
0000
0000
0000
0000
0000
0000
0000
0000
0000
0000
0000
0000
0000
0000
0000
0003
0002
0000
0000
0000
0000
0000
0000
0000
0000
0000
0000
0000
0000
0000
0000
0000
0000
0000
0000
0000
0000
0000
0000
0000
0013
0000
0000
0000
0000
0000
0000
0000
0000
0000
0000
0000
0000
0000
0000
0000
0000
0000
0000
0000
0000
0000
0000
0000
0200
0000
0000
0000
0000
0000
0000
0000
0000
0000
0000
0000
0000
0000
0000
0000
0000
0000
0000
0000
0000
0000
0000
0300
0200
0000
0000
0000
0000
0000
0000
0000
0000
0000
0000
0000
0000
0000
0000
0000
0000
0000
0000
0000
0000
0000
0000
0000
1300
0000
0000
0000
0000
0000
0000
0000
0000
0000
0000
0000
0000
0000
0000
0000
0000
0000
0000
0000
0000
0000
0000
0000
0002
0000
0000
0000
0000
0000
0000
0000
0000
0000
0000
0000
0000
0000
0000
0000
0000
0000
0000
0000
0000
0000
0000
0003
0002
0000
0000
0000
0000
0000
0000
0000
0000
0000
0000
0000
0000
0000
0000
0000
0000
0000
0000
0000
0000
0000
0000
0000
,
0103
0000
0000
0000
0000
0000
0000
0000
0000
0000
0000
0000
0000
0000
0000
0000
0000
0000
0000
0000
0000
0000
0000
0000
0020
0000
0000
0000
0000
0000
0000
0000
0000
0000
0000
0000
0000
0000
0000
0000
0000
0000
0000
0000
0000
0000
0000
0030
0020
0000
0000
0000
0000
0000
0000
0000
0000
0000
0000
0000
0000
0000
0000
0000
0000
0000
0000
0000
0000
0000
0000
0000
0030
0000
0000
0000
0000
0000
0000
0000
0000
0000
0000
0000
0000
0000
0000
0000
0000
0000
0000
0000
0000
0000
0000
0000
2000
0000
0000
0000
0000
0000
0000
0000
0000
0000
0000
0000
0000
0000
0000
0000
0000
0000
0000
0000
0000
0000
0000
3000
2000
0000
0000
0000
0000
0000
0000
0000
0000
0000
0000
0000
0000
0000
0000
0000
0000
0000
0000
0000
0000
0000
0000
0000
3002
0000
0000
0000
0000
0000
0000
0000
0000
0000
0000
0000
0000
0000
0000
0000
0000
0000
0000
0000
0000
0000
0000
0003
0002
0000
0000
0000
0000
0000
0000
0000
0000
0000
0000
0000
0000
0000
0000
0000
0000
0000
0000
0000
0000
0000
0000
0000
,
1003
0100
1000
0010
0100
0001
1000
0010
1000
0001
0100
0010
1000
0010
0100
0001
,
1000
0100
1000
0001
0010
0100
1000
0001
1000
0100
0010
0100
1000
0001
0100
0001
,
0010
0100
1000
0001
0100
0010
1000
0100
1000
0001
0100
0010
1000
0100
1000
0001
,
0010
0100
0100
1000
0002
0000
0203
0000
,
0310
1000
0001
0100
0010
1000
0100
1000
0001
0100
0010
1000
0001
0010
0100
1000
,
0001
0010
0001
0100
0010
1000
0001
1000
0200
0000
0000
0000
0010
0000
0000
0000
,
0310
0001
1000
0010
0100
0001
1000
0100
1000
0010
0100
0001
1000
0010
1000
0001
,
0100
0001
0010
0100
1000
0001
0010
0001
0100
0010
1000
0001
1000
0100
0010
0100
,
1000
0001
0100
0001
1000
0100
0010
0001
1000
0001
0100
0010
1000
0100
1000
0001
,
0010
0001
0100
0010
0100
0001
1000
0100
0010
0100
1000
0001
0100
0001
1000
0010
,
0100
0001
0100
0010
1000
0001
1000
0100
0010
0100
1000
0001
0010
0001
0100
0010
,
1000
0001
0001
0100
0020
0000
2030
0000
,
3010
0100
0001
1000
0100
1000
0001
0010
0100
1000
0001
0010
0001
0100
0010
1000
,
0001
1000
0100
0010
0001
1000
0100
1000
0010
1000
0001
0100
0001
1000
0100
0010
,
0100
1000
0001
0010
0100
1000
0001
1000
0100
0010
0001
1000
0100
1000
0010
0100
,
0001
1000
0010
1000
0100
0010
0001
1000
0100
1000
0001
0100
0010
1000
0001
1000
,
0100
0010
0100
1000
0001
0100
0001
0010
0100
1000
0001
0010
0001
1000
0100
1000
,
0001
0100
0010
1000
0100
1000
0001
0100
0010
1000
0001
0010
0001
0100
0010
1000
,
0001
1000
0100
0010
0100
1000
0001
0100
0001
0010
0100
1000
0020
0000
0000
0000
,
0000
0200
0000
0030
03M2
0000
1000
0000
,
1103
0110
0000
0000
0000
0000
0011
0101
,
0000
0000
0000
0000
,
0110
1001
0000
0000
0000
0000
1010
1010
,
0000
0000
0000
0000
0000
2000
0000
0000
,
3001
0100
0010
1000
0010
0100
0001
1000
,
0001
0100
0010
1000
0010
0100
0001
1000
,
0100
0010
0001
1000
0010
1000
0001
1000
,
0001
0100
0010
1000
0010
0100
0002
1003
,
0100
0010
0001
1000
0001
0100
0010
1000
0100
1000
0001
0100
0010
1000
0001
1000
,
0100
0010
0001
1000
0001
0100
0010
1000
0100
1000
0001
0010
0001
1000
0100
0010
,
0001
1000
0100
1000
0010
0100
0001
1000
0100
1000
0001
0010
0001
1000
0010
1000
,
0001
0100
0010
1000
0001
1000
0100
0010
0001
1000
0100
1000
0010
0100
0001
1000
,
0001
0010
0100
1000
0001
0100
0001
0010
0100
1000
0001
1000
0010
0100
0001
1000
,
0100
1000
0001
0100
0010
0100
0001
1000
0200
0000
0000
0000
0010
0000
0000
0000
,
0320
0032
2003
3002
0203
0000
0310
0010
,
0000
1000
0010
0000
0200
0000
0001
0000
,
0301
1000
0010
1000
0001
0100
0010
0100
0001
1000
0010
1000
0100
0010
0001
1000
,
0100
1000
0001
0100
0010
1000
0001
0010
0100
1000
0001
0010
0001
1000
0100
0010
,
0100
1000
0001
0100
0001
1000
0100
1000
0010
0100
0001
1000
0100
1000
0001
0010
,
0100
1000
0001
1000
0100
0010
0100
1000
0001
0010
0001
1000
0010
1000
0001
0100
,
0001
1000
0100
0010
0100
1000
0001
0010
0001
1000
0100
0010
0001
1000
0001
0100
,
0010
1000
0001
0010
0001
0100
0010
1000
0001
1000
0100
0010
0001
1000
0100
1000
,
0010
1000
0001
0100
0001
1000
0100
0010
0001
0100
0010
0100
0001
1000
0010
1000
,
0002
0100
0203
0010
,
0310
1000
0001
0100
0001
1000
0100
0010
0100
1000
0001
0010
0001
0100
0010
1000
,
0001
1000
0100
0010
0100
1000
0001
1000
0001
0100
0010
1000
0001
0010
0001
1000
,
0100
1000
0001
0100
0010
1000
0001
0010
0001
1000
0100
0010
0001
1000
0001
0100
,
0010
1000
0001
1000
0100
0010
0001
1000
0100
1000
0001
0100
0010
1000
0001
0100
,
0010
0100
0001
1000
0010
1000
0001
1000
0100
0010
0100
1000
0001
0010
0001
1000
,
0001
0100
0010
1000
0001
0010
0001
0100
0010
1000
0001
1000
0100
0010
0001
1000
,
0100
1000
0010
0100
0001
1000
0001
0100
0010
0100
0001
1000
0100
0010
0001
1000
,
0020
0100
0130
0000
0200
0000
0001
0000
,
0301
1000
0010
0100
0001
1000
0100
1000
0001
0100
0010
1000
0001
0100
0001
1000
,
0100
0010
0100
1000
0001
0100
0001
1000
0100
0010
0100
1000
0001
0010
0001
1000
,
0001
0100
0010
1000
0001
0100
0001
1000
0100
0010
0100
1000
0001
0010
0001
1000
,
0010
0100
0001
1000
0001
0100
0010
1000
0100
1000
0001
0010
0100
1000
0001
1000
,
0100
0010
0100
1000
0001
1000
0010
0100
0001
1000
0100
1000
0001
0100
0001
1000
,
0010
0100
0001
0100
0010
1000
0001
1000
0100
0010
0001
1000
0100
1000
0001
0100
,
0010
1000
0001
0010
0001
1000
0100
0010
0100
1000
0001
0100
0001
1000
0010
0100
,
0002
0203
0320
2030
3002
2003
3200
0320
,
0031
0100
0001
1000
0010
0100
0001
1000
0100
1000
0001
0010
0100
1000
0001
1000
,
0100
0010
0001
1000
0100
1000
0001
0100
0010
1000
0100
1000
0001
0010
0001
1000
,
0100
0010
0100
1000
0001
1000
0010
0100
0001
0100
0010
1000
0100
1000
0001
0100
,
0010
0100
0001
1000
0100
0010
0001
1000
0100
1000
0001
0010
0100
1000
0001
1000
,
0010
0100
0001
1000
0100
1000
0001
0010
0100
1000
0001
0100
0001
1000
0100
0010
,
0100
1000
0001
0010
0001
0100
0010
1000
0001
1000
0100
0010
0100
1000
0001
0100
,
0001
0010
0100
1000
0001
0010
0001
1000
0100
1000
0010
0100
0002
0000
0000
0000
,
0000
2000
0000
0003
3020
0000
0100
0000
,
0130
0001
1000
0100
0010
0001
1000
0100
1000
0001
0010
0001
1000
0100
0010
0100
,
1000
0001
0100
0001
1000
0010
0100
0001
0100
0010
1000
0100
1000
0001
0010
0001
,
1000
0100
0010
0100
1000
0001
0100
0001
1000
0010
0100
0001
1000
0100
1000
0001
,
0010
0001
0100
0010
1000
0001
0010
0001
1000
0100
1000
0001
0100
0010
1000
0001
,
0010
0100
1000
0001
1000
0010
0100
0001
,
1000
0001
0010
0100
1000
0100
0010
0001
,
1000
0100
1000
0001
1000
0010
1000
0001
,
0100
0001
1000
0010
0100
0001
2000
0000
,
3100
0010
0001
1000
0100
1000
0001
0100
0010
1000
0100
1000
0001
0010
0001
0100
,
0010
1000
0001
0100
0001
0010
0100
1000
0001
0010
0001
1000
0100
0010
0100
1000
,
0001
1000
0010
0100
0001
1000
0100
1000
0001
0100
0001
1000
0010
0100
0001
1000
,
0100
0010
0100
1000
0001
0010
0001
0100
0010
1000
0010
0100
0002
0000
0000
0000
,
1003
1100
0000
0110
0010
0000
0001
0011
,
0000
1001
1000
0000
0020
0000
0230
0000
,
0301
1001
0000
1010
1000
0000
0100
1100
,
0000
1001
0001
0000
1000
0100
0010
0001
,
1000
1000
0010
0100
0100
0001
1000
1000
,
0010
0100
0100
0000
0002
0000
0203
0000
,
0302
0000
0020
0003
0130
0000
2000
0000
0020
3000
0130
0000
0002
0000
0200
0003
,
0310
0000
2000
0000
0020
3000
0030
0000
2000
0000
3200
0000
0320
0000
0032
0000
,
0103
0010
1000
0001
0100
0001
1000
0010
1000
0001
0100
0010
1000
0010
0100
0001
,
1000
0100
1000
0001
0010
0100
1000
0001
1000
0100
0010
0100
1000
0001
0100
0001
,
0010
0100
1000
0001
0100
0010
1000
0100
1000
0001
0100
0010
1000
0100
1000
0001
,
0010
0100
0100
1000
0002
0000
0203
0000
,
0310
1000
0001
0100
0010
1000
0100
1000
0001
0100
0010
1000
0001
0010
0100
1000
,
0001
0010
0001
0100
0010
1000
0001
1000
0200
0000
0000
0000
0010
0000
0000
0000
,
0310
0001
1000
0010
0100
0001
1000
0100
1000
0010
0100
0001
1000
0010
1000
0001
,
0100
0001
0010
0100
1000
0001
0010
0001
0100
0010
1000
0001
1000
0100
0010
0100
,
1000
0001
0100
0001
1000
0100
0010
0001
1000
0001
0100
0010
1000
0100
1000
0001
,
0010
0001
0100
0010
0100
0001
1000
0100
0010
0100
1000
0001
0100
0001
1000
0010
,
0100
0001
0100
0010
1000
0001
1000
0100
0010
0100
1000
0001
0010
0001
0100
0010
,
1000
0001
0001
0100
0020
0000
2030
0000
,
3010
0100
0001
1000
0100
1000
0001
0010
0100
1000
0001
0010
0001
0100
0010
1000
,
0001
1000
0100
0010
0001
1000
0100
1000
0010
1000
0001
0100
0001
1000
0100
0010
,
0100
1000
0001
0010
0100
1000
0001
1000
0100
0010
0001
1000
0100
1000
0010
0100
,
0001
1000
0010
1000
0100
0010
0001
1000
0100
1000
0001
0100
0010
1000
0001
1000
,
0100
0010
0100
1000
0001
0100
0001
0010
0100
1000
0001
0010
0001
1000
0100
1000
,
0001
0100
0010
1000
0100
1000
0001
0100
0010
1000
0001
0010
0001
0100
0010
1000
,
0001
1000
0100
0010
0100
1000
0001
0100
0001
0010
0100
1000
0020
0000
0000
0000
,
0000
0200
0000
0030
03M2
0000
1000
0000
,
1003
1110
0000
0000
0000
0000
0001
0111
,
0000
0000
0000
0000
,
0100
1101
0000
0000
0000
0000
1111
1111
,
0000
0000
0000
0000
000M
2000
0000
0000
,
3001
0100
0010
1000
0010
0100
0001
1000
,
0001
0100
0010
1000
0100
0010
0001
1000
,
0100
0010
0001
1000
0010
0100
0001
1000
,
0001
0100
0010
1000
0010
0100
0002
1003
,
0100
1000
0010
0100
0001
1000
0100
1000
,
0001
0010
0001
1000
0100
0010
0100
1000
,
0001
1000
0010
0100
0001
1000
0001
0010
,
0110
0100
1000
1010
0010
0100
0101
0100
,
0001
0010
0100
1000
0001
0100
0001
0010
0100
1000
0001
1000
0010
0100
0001
1000
,
0100
1000
0001
0100
0010
0100
0001
1000
0200
0000
0000
0000
0010
0000
0000
0000
,
0310
0001
1000
0010
0100
0001
1000
0100
1000
0001
0010
0100
1000
0001
1000
0010
,
0100
0001
1000
0100
1000
0001
0100
0010
0200
0000
0000
0000
0001
0000
0000
0000
,
0301
1000
0010
1000
0001
0100
0010
0100
0001
1000
0010
1000
0100
0010
0001
1000
,
0100
1000
0001
0100
0010
1000
0001
0010
0100
1000
0001
0010
0001
1000
0100
0010
,
0100
1000
0001
0100
0001
1000
0100
1000
0010
0100
0001
1000
0100
1000
0001
0010
,
0100
1000
0001
1000
0100
0010
0100
1000
0001
0010
0001
1000
0010
1000
0001
0100
,
0001
1000
0100
0010
0100
1000
0001
0010
0001
1000
0100
0010
0001
1000
0001
0100
,
0010
1000
0001
0010
0001
0100
0010
1000
0001
1000
0100
0010
0001
1000
0100
1000
,
0010
1000
0001
0100
0001
1000
0100
0010
0001
0100
0010
0100
0001
1000
0010
1000
,
0002
0100
0203
0010
,
0310
1000
0001
0100
0001
1000
0100
0010
0100
1000
0001
0010
0001
0100
0010
1000
,
0001
1000
0100
0010
0100
1000
0001
1000
0001
0100
0010
1000
0001
0010
0001
1000
,
0100
1000
0001
0100
0010
1000
0001
0010
0001
1000
0100
0010
0001
1000
0001
0100
,
0020
0100
0230
0001
,
0301
1000
0001
0100
0010
1000
0001
1000
0100
0010
0100
1000
0001
0010
0001
1000
,
0001
0100
0010
1000
0001
0010
0001
0100
0010
1000
0001
1000
0100
0010
0001
1000
,
0100
1000
0010
0100
0001
1000
0001
0100
0010
0100
0001
1000
0100
0010
0001
1000
,
0020
0100
0130
0000
0200
0000
0001
0000
,
0301
1000
0010
0100
0001
1000
0100
1000
0001
0100
0010
1000
0001
0100
0001
1000
,
0100
0010
0100
1000
0001
0100
0001
1000
0100
0010
0100
1000
0001
0010
0001
1000
,
0001
0100
0010
1000
0001
0100
0001
1000
0100
0010
0100
1000
0001
0010
0001
1000
,
0010
0100
0001
1000
0001
0100
0010
1000
0100
1000
0001
0010
0100
1000
0001
1000
,
0100
0010
0100
1000
0001
1000
0010
0100
0001
1000
0100
1000
0001
0100
0001
1000
,
0010
0100
0001
0100
0010
1000
0001
1000
0100
0010
0001
1000
0100
1000
0001
0100
,
0010
1000
0001
0010
0001
1000
0100
0010
0100
1000
0001
0100
0001
1000
0010
0100
,
0002
1003
0010
0000
0200
0000
0001
0000
,
0301
1000
0010
0100
0001
0100
0001
1000
0100
1000
0001
0010
0100
1000
0001
1000
,
0100
0010
0001
1000
0100
1000
0001
0100
0010
1000
0100
1000
0001
0010
0001
1000
,
0100
0010
0100
1000
0001
1000
0010
0100
0001
0100
0010
1000
0100
1000
0001
0100
,
0020
1000
2030
0001
,
3001
0100
0010
1010
2000
0000
3102
0000
,
0100
0213
0000
0000
0000
0000
0000
0000
,
1320
1000
0030
2001
0000
3000
0021
0001
,
0030
2001
0000
0000
0000
0000
0000
0000
,
3010
0100
0000
0102
0000
0003
2001
0000
,
3010
0110
0102
0000
0000
0000
0000
0000
,
1003
0100
0010
0012
0000
0003
2100
0100
,
3000
2002
0000
0000
0000
0000
0000
0000
,
3003
0000
0000
0000
;
