#TITLE:Playdoh;
#SUBTITLE:;
#ARTIST:Sekty;
#TITLETRANSLIT:;
#SUBTITLETRANSLIT:;
#ARTISTTRANSLIT:;
#CREDIT:;
#BANNER:Playdoh.png;
#BACKGROUND:Playdoh-bg.png;
#LYRICSPATH:;
#CDTITLE:!DBStitle.png;
#MUSIC:Playdoh.mp3;
#OFFSET:-0.040;
#SAMPLESTART:63.303;
#SAMPLELENGTH:12.000;
#SELECTABLE:YES;
#BPMS:0.000=185.000;
#STOPS:284.000=0.980
;
#BGCHANGES:;
// cache tags:
#FIRSTBEAT:0.000;
#LASTBEAT:460.500;
#SONGFILENAME:Songs/Community Keyboard Megapack - Volume 2/(Omegix) Playdoh/Playdoh.sm;
#HASMUSIC:1;
#HASBANNER:1;
#MUSICLENGTH:155.750;
// end cache tags

//---------------dance-single - ----------------
#NOTES:
     dance-single:
     :
     Hard:
     12:
     1.000,1.000,1.000,0.321,0.504,876.000,197.000,50.000,0.000,15.000:  // measure 1
1000
0000
0000
0000
,  // measure 2
0000
0100
0000
0000
,  // measure 3
0110
0000
0001
0000
,  // measure 4
0000
0000
0000
0000
0000
0000
0000
0000
0000
0000
0000
0000
0010
0000
0100
0010
,  // measure 5
1000
0000
0000
0000
,  // measure 6
0000
0001
0000
0000
,  // measure 7
0110
0000
0000
0000
,  // measure 8
0000
0000
0000
0000
,  // measure 9
0002
0013
0100
2000
3012
0103
0001
0100
,  // measure 10
2000
3100
0020
1032
0103
0020
1030
0010
,  // measure 11
0002
0103
0010
2000
3102
0013
0100
0010
,  // measure 12
2000
0000
3012
0000
0103
0000
0021
0000
0130
0000
0102
0000
0013
0000
0001
1000
,  // measure 13
0010
0100
0010
0002
1023
0130
1000
0010
,  // measure 14
2000
3100
0002
1203
0301
0020
0130
0001
,  // measure 15
2000
3001
0100
0020
1230
0301
0100
0010
,  // measure 16
1020
0000
0130
0000
2010
0000
3100
0000
1002
0000
0103
0000
0010
0000
0100
0010
,  // measure 17
1000
0100
1000
0002
0213
0301
0010
0001
,  // measure 18
0020
0130
2000
3102
0013
0200
1300
0100
,  // measure 19
0020
0130
0010
0002
2013
3100
0010
0100
,  // measure 20
2000
0000
3012
0000
0103
0000
0021
0000
0130
0000
0102
0000
1003
0000
0010
1000
,  // measure 21
0001
0010
0100
0020
0231
0310
0100
1000
,  // measure 22
0002
0013
0200
2310
3001
0020
0130
1000
,  // measure 23
0002
1203
0301
0010
0010
0010
0010
0010
,  // measure 24
1000
0001
1000
0001
1000
0001
1000
0001
1000
0001
1000
0001
1000
0001
1000
0001
,  // measure 25
1100
0000
0000
1100
0000
0000
1100
0000
0100
0000
0101
0000
0010
0000
0100
0000
,  // measure 26
1010
0000
0100
0000
1010
0000
0110
0000
0001
0000
0110
0000
1000
0000
0100
0010
,  // measure 27
1000
0100
0010
1100
0101
0010
0100
0001
,  // measure 28
1010
0000
0100
0000
1010
0000
0110
0000
1000
0000
0110
0000
1000
0000
0010
0100
,  // measure 29
0001
0010
0100
1100
1001
0010
0100
0010
,  // measure 30
1100
0000
0010
0000
1100
0000
1001
0000
0010
0000
1001
0000
0100
0000
0100
0010
,  // measure 31
1000
0001
0100
0110
0101
1000
0100
1000
,  // measure 32
1001
0100
1000
0010
1000
0000
1001
0000
0100
0000
0010
0000
1001
0000
1000
0000
,  // measure 33
1100
0000
0100
1010
0001
0000
1001
0000
0100
0000
0010
0000
1010
0000
0000
0000
,  // measure 34
0011
0000
0000
0110
1000
0000
1100
0000
0010
0000
0100
0000
0101
0000
0010
0000
,  // measure 35
0110
0000
0001
1010
0100
0000
1001
0000
0010
0000
1000
0000
1010
0000
0000
0000
,  // measure 36
1001
0000
0100
1010
0001
0000
1100
0000
0010
0000
1000
0000
1010
0000
0100
0000
,  // measure 37
0011
0000
1000
0110
0001
0000
0101
0000
1000
0000
0001
0000
0011
0000
0000
0000
,  // measure 38
1100
0000
0000
0101
0010
0000
1001
0000
0010
0000
1000
0000
1010
0000
0001
0000
,  // measure 39
1100
0000
1000
0110
0001
0000
0101
0000
0010
0000
0100
0000
0110
0000
1000
0000
,  // measure 40
0001
0010
0100
1000
0100
0010
0001
0100
0010
0100
1000
0001
1000
0001
1000
0001
,  // measure 41
1010
0000
0001
0110
1000
0000
0101
0000
1000
0000
0010
0000
1010
0000
0000
0000
,  // measure 42
0101
0000
0000
0110
0001
0000
1010
0000
0001
0000
0100
0000
0101
0000
0010
0000
,  // measure 43
0011
0000
0001
1010
0100
0000
1100
0000
0010
0000
0100
0000
0110
0000
0000
0000
,  // measure 44
1100
0000
1000
0101
0010
0000
0011
0000
1000
0000
0010
0000
0110
0000
0001
0000
,  // measure 45
1001
0000
0001
0110
0000
0000
0101
0000
0010
0000
1000
0000
1001
0000
0000
0000
,  // measure 46
1001
0000
0000
0110
0001
0000
1010
0000
0100
0000
0001
0000
1001
0000
0100
0000
,  // measure 47
1100
0001
0010
1001
1000
0100
1010
0001
,  // measure 48
1000
0100
0010
0001
0100
0010
1000
0001
0010
0100
1000
0010
0100
0001
1000
0100
,  // measure 49
1001
0000
0000
0000
0001
0000
0000
0001
0000
0000
0001
0000
0000
0001
0000
0000
,  // measure 50
1000
0000
0000
0000
1000
0000
0000
1000
0000
0000
1000
0000
0000
1000
0000
0000
,  // measure 51
0100
0000
0000
0000
0100
0000
0000
0100
0000
0000
0100
0000
0000
0100
0000
0000
,  // measure 52
1000
0000
0000
0000
1000
0000
0000
1000
0000
0000
1000
0000
0000
1000
0000
0000
,  // measure 53
1010
0000
0000
0000
0010
0000
0000
0010
0000
0000
0010
0000
0000
0000
0010
0000
,  // measure 54
0110
0000
0000
0000
0100
0000
0000
0100
0000
0000
0100
0000
0000
0100
0000
0000
,  // measure 55
0101
0000
0000
0000
0001
0000
0000
0001
0000
0000
0001
0000
0000
0001
0000
0000
,  // measure 56
0001
0010
0100
1000
0100
0010
0001
0100
0010
1000
0001
0010
0100
1000
0010
0100
,  // measure 57
1001
0000
0000
0000
1000
0000
0000
1000
0000
0000
1000
0000
0000
1000
0000
0000
,  // measure 58
1100
0000
0000
0000
0100
0000
0000
0100
0000
0000
0100
0000
0000
0100
0000
0000
,  // measure 59
0110
0000
0000
0000
0010
0000
0000
0010
0000
0000
0010
0000
0000
0010
0000
0000
,  // measure 60
0001
0000
0100
0000
0001
0000
0100
0001
0100
0000
0001
0000
0100
0001
0100
0000
,  // measure 61
1001
0000
0000
0000
1000
0000
0000
1000
0000
0000
1000
0000
0000
1000
0000
0000
,  // measure 62
1100
0000
0000
0000
0100
0000
0000
0100
0000
0000
0100
0000
0000
0100
0000
0000
,  // measure 63
0011
0000
0000
0000
1000
0000
0000
1000
0000
0000
1000
0000
0000
1000
0000
0000
,  // measure 64
0100
0000
0000
0000
0100
0000
0000
0100
0000
0000
0100
0000
0000
0000
0100
0000
,  // measure 65
1001
0000
0000
0000
1000
0000
0000
1000
0101
0000
1000
0000
0000
1000
0000
0000
,  // measure 66
1010
0000
0000
0000
0010
0000
0000
0010
1100
0000
0010
0000
0000
0010
0000
0000
,  // measure 67
0011
0000
0000
0000
0001
0000
0000
0001
1010
0000
0001
0000
0000
0001
0000
0000
,  // measure 68
0101
0000
0000
0000
0100
0000
0000
0100
0011
0000
0100
0000
0000
0000
0100
0000
,  // measure 69
1100
0000
0000
0000
1000
0000
0000
1000
0000
0000
1000
0000
0000
1000
0000
0000
,  // measure 70
1010
0000
0000
0000
0010
0000
0000
0010
0000
0000
0010
0000
0000
0010
0000
0000
,  // measure 71
2000
0000
0000
0000
0001
0000
0000
0001
0000
0000
0001
0000
0000
0001
0000
0000
,  // measure 72
3001
0000
0000
0000
1001
0000
1000
0100
0010
0000
0010
0100
1000
0000
1000
0000
,  // measure 73
0100
0000
1000
0000
1001
0000
0100
0010
0001
0000
0001
0010
0100
0000
0100
0000
,  // measure 74
0001
0000
0100
0000
1001
0000
0100
0010
1000
0000
1000
0000
0100
0000
0010
0000
,  // measure 75
1000
0001
1100
0000
1000
0001
0010
1000
,  // measure 76
1001
0100
0001
0100
0010
0000
0010
0100
1000
0000
1000
0100
0010
0000
1000
0000
,  // measure 77
0010
0000
0100
0000
1001
0000
1000
0100
0010
0000
0010
0100
1000
0000
1000
0000
,  // measure 78
0001
0000
1000
0000
0110
0000
0010
0100
0001
0000
0100
0000
0001
0000
0010
0000
,  // measure 79
1000
0100
1001
0000
1000
0010
0100
0001
,  // measure 80
1001
0010
1000
0010
1100
0000
0100
0010
0001
0000
0001
0010
0100
0000
0100
0000
,  // measure 81
0010
0000
1000
0000
0110
0000
0010
0100
1000
0000
1000
0100
0010
0000
0010
0000
,  // measure 82
1000
0000
0010
0000
1010
0000
0010
0100
0001
0000
0010
0000
0100
0000
1000
0000
,  // measure 83
0001
1000
0011
0000
0001
1000
0001
0100
,  // measure 84
1100
0001
1000
0001
0110
0000
0010
0100
1000
0000
1000
0100
0010
0000
0010
0000
,  // measure 85
0100
0000
0010
0000
0101
0000
0100
0010
0001
0000
0001
0010
0100
0000
0100
0000
,  // measure 86
0010
0000
0100
0000
0011
0000
0010
0100
0001
0000
1000
0000
0010
0000
0100
0000
,  // measure 87
1000
0001
1100
0000
1000
0001
0100
0010
,  // measure 88
0011
1000
0001
1000
0110
0000
0010
0000
0010
0000
1010
0100
0010
0001
0010
0000
,  // measure 89
0110
0000
0010
0000
0110
0000
0010
0000
0010
0000
1010
0100
0010
0001
0010
0000
,  // measure 90
0110
0010
0020
0000
0000
0000
0000
0000
,  // measure 91
0000
0000
0000
0000
1130
0000
1000
0000
1000
0000
1001
0100
1000
0001
1000
0000
,  // measure 92
1100
0000
1000
0000
0110
0000
0010
0000
0010
0000
1010
0100
0010
0001
0010
0000
,  // measure 93
0110
0000
0010
0000
0110
0000
0010
0000
0010
0000
1010
0100
0010
0001
0010
0000
,  // measure 94
0110
0010
0020
0000
0000
0000
0000
0000
,  // measure 95
0000
0000
0000
0000
,  // measure 96
0030
0000
0000
0000
0100
0000
0100
1000
0010
0000
0100
0000
0010
0000
0001
0000
,  // measure 97
1000
0000
0001
0000
0010
0000
0010
1000
0100
0000
0001
0000
0010
0000
0001
0000
,  // measure 98
1000
0001
1100
0010
1100
0010
1100
0010
,  // measure 99
1100
0000
0010
0000
0110
0000
0100
0000
1000
0001
1000
0001
1000
0001
1000
0001
,  // measure 100
1000
0100
0010
0001
0010
0000
0010
0100
1001
0000
1000
0000
0100
0000
0001
0000
,  // measure 101
1001
0000
0100
0000
0010
0000
0010
0100
1001
0000
0001
0000
1000
0000
0001
0000
,  // measure 102
1001
0000
0010
0000
0100
0000
0100
0010
1001
0000
1000
0000
0010
0000
1000
0000
,  // measure 103
1001
0010
0100
0000
1001
0100
0010
1000
,  // measure 104
1001
0100
0001
0100
0001
0000
0001
0010
1100
0000
1000
0000
0100
0000
0110
0000
,  // measure 105
1010
0000
0110
0000
0011
0000
0011
0100
1000
0000
1000
0000
0100
0000
0010
0000
,  // measure 106
1010
0000
0100
0000
1000
0000
1000
0100
0011
0000
1000
0000
0001
0000
0100
0000
,  // measure 107
0101
0010
1000
1000
0011
1010
0101
1001
,  // measure 108
0101
0010
1000
0010
1000
0000
1000
0001
0110
0000
1000
0000
0100
0000
0010
0000
,  // measure 109
0011
0000
0110
0000
1001
0000
1000
0001
0110
0000
0001
0000
0100
0000
0010
0000
,  // measure 110
0011
0000
1000
0000
0001
0000
0001
1000
0110
0000
1000
0000
0001
0000
0100
0000
,  // measure 111
1100
0010
0001
0001
0110
0110
1010
1010
,  // measure 112
1100
0010
1000
0010
1000
0000
0100
0000
0001
0000
0100
0000
1000
0000
0100
0000
,  // measure 113
0001
1000
0100
0000
0000
0100
0000
0000
,  // measure 114
0100
0000
0001
0100
1000
0100
0001
0100
,  // measure 115
1000
0100
0001
0000
0000
0010
0000
0000
,  // measure 116
0010
0010
0000
0000
0000
0000
0000
0000
;
