#TITLE:Kingdom for a heart;
#SUBTITLE:exbios;
#ARTIST:Sonata Arctica (ecliptica);
#TITLETRANSLIT:;
#SUBTITLETRANSLIT:;
#ARTISTTRANSLIT:;
#CREDIT:;
#BANNER:bn.bmp;
#BACKGROUND:bg.jpg;
#LYRICSPATH:;
#CDTITLE:exbios-cdtitle.PNG;
#MUSIC:sonata arctica - 05 - kingdom for a heart.mp3;
#OFFSET:0.000;
#SAMPLESTART:100.000;
#SAMPLELENGTH:12.000;
#SELECTABLE:YES;
#BPMS:0.000=170.000;
#STOPS:;
#BGCHANGES:;
// cache tags:
#FIRSTBEAT:0.750;
#LASTBEAT:641.500;
#SONGFILENAME:Songs/toune 4/sonata arctica - 05 - kingdom for a heart/sonata arctica - 05 - kingdom for a heart.sm;
#HASMUSIC:1;
#HASBANNER:1;
#MUSICLENGTH:231.923;
// end cache tags

//---------------dance-single - ----------------
#NOTES:
     dance-single:
     :
     Challenge:
     13:
     1.000,1.000,0.595,1.000,1.000,1988.000,138.000,234.000,0.000,8.000:
0000
0000
0000
0110
0001
1010
0001
1100
0001
0110
0001
1010
0001
1100
0001
0110
,
0001
1010
0001
1100
0001
0110
0001
1010
0001
1000
0100
0010
0100
1000
0100
0010
,
1000
0100
0010
0100
1000
0001
0100
1000
0100
0010
0100
1000
0010
0100
1000
0010
,
0100
1000
0100
0010
0100
0000
1000
0100
0010
0100
0001
1000
0100
0001
1000
0100
,
0010
1000
0100
1000
0011
0100
1010
0100
0010
0100
0100
0001
0100
1000
0100
0010
,
0100
0010
0100
0010
0100
0110
1000
0100
0010
0100
1000
0100
0010
0100
0110
1000
,
0100
0001
0010
0100
1000
0100
0010
1000
0100
0010
0100
0010
0100
0011
0000
0102
,
0010
0000
1000
0000
0100
0000
0010
0000
0100
0000
1010
0000
0100
0000
1000
0000
0100
0000
0010
0000
1100
0000
0010
0003
0100
0000
0010
0000
1100
0000
0010
0000
,
1000
0000
0010
0000
0100
0000
1010
0000
0100
0000
0001
0000
0010
0000
1100
0000
0010
0000
0001
0000
0010
0000
1100
0000
0001
0000
0010
0000
0100
0000
0001
0110
,
0000
1000
0000
0100
0000
1000
0000
0010
0000
1100
0000
0001
0000
0010
0000
0001
0000
0010
0100
0000
0001
0000
0010
0000
0100
0000
1001
0000
0100
0000
0010
0000
,
0100
0000
1010
0000
0001
0000
0100
0000
0010
0000
1100
0000
0001
0000
0010
0000
0100
0000
0010
0000
1100
0000
0010
0000
0001
0000
0010
0000
0001
1100
0000
0010
,
0000
0001
0000
1000
0000
0100
0000
0011
0000
1000
0000
0100
0000
0010
0000
1000
0000
0101
0000
0010
0000
0100
0000
1000
0000
0010
0000
0101
0000
2000
0000
0000
,
0000
0000
0000
0000
0000
0000
0000
0000
0000
0000
0000
0000
0000
0000
0000
0000
3020
0000
0000
0000
0000
0230
0000
0000
0000
0000
0000
0000
0000
0300
0000
0000
,
1000
0100
0010
1000
0100
0010
0000
0000
0002
0000
1000
0000
0000
0100
0000
0003
0010
2000
0000
0100
0000
0000
0010
0000
0000
0001
3100
0000
0002
1000
0000
0000
,
0100
0000
0010
0000
0100
0003
0000
2010
0000
0000
0001
0000
0000
0100
0000
0010
0000
0000
3001
0000
0200
0010
0000
0000
1000
0000
0000
0001
0000
0010
0000
0301
,
0000
2000
0100
0000
0000
0010
0000
3100
0000
0020
0001
0000
0000
1000
0000
0130
0000
0002
1000
0000
0000
0100
0000
0010
0000
0100
0000
0000
1000
0000
0000
2010
,
0003
0000
0100
0000
0000
0010
0000
0001
0000
0100
3000
0000
0001
0000
0010
0000
0100
0000
0010
0000
0001
0000
0010
0000
0100
0000
0010
0000
0002
0000
0000
0000
,
0100
0000
2003
0000
0000
0000
0000
3010
0000
0002
0100
0000
0000
1000
0000
0000
0010
0000
0000
0103
0000
2000
0010
0000
0000
0001
0000
0000
3100
0000
0020
0001
,
0000
0000
0100
2000
0000
0001
0030
0000
0100
0000
0000
0010
0000
0000
0001
0000
0000
0100
0000
0010
0000
0000
0001
0000
0010
0000
3100
0000
0000
0000
0000
0110
,
0000
1001
0110
0000
0000
0000
0000
1100
1001
0110
0000
0000
0000
0000
0000
0000
,
0000
1000
0100
1000
0010
0001
0010
0100
1000
0100
0001
0010
0001
0100
1000
0100
,
0010
0000
0001
0000
0010
0000
0100
0000
1000
0000
0010
0000
0001
0000
0010
0000
2000
0000
0000
0000
0000
0000
0000
3000
0000
0002
0000
0000
0000
0000
0000
0003
,
0000
0200
0000
0000
0000
0000
0000
0300
0000
0020
0000
0000
0000
0000
0000
0000
0030
0000
2000
0000
0000
0000
0000
0000
0000
0000
0000
3000
0000
0000
0000
0000
,
0000
0011
0000
0100
0000
1000
0000
0100
0000
0010
0000
0100
0000
0010
0000
0100
0000
0001
0000
0010
0000
0001
0000
0100
0000
1000
0000
0100
0000
0010
0000
0001
,
0000
0010
0000
0100
0000
0010
0000
0001
0000
0100
0000
0010
0000
2000
0001
0000
0000
0010
0000
0000
0100
0000
0000
3010
0000
0002
0100
0000
0000
0010
0000
0000
,
0100
0000
0000
0013
0000
2000
0100
0000
0000
0010
0000
0000
0100
0000
0000
3010
0000
0002
0100
0000
0000
0010
0000
0000
0100
0000
0000
0013
0000
2000
0100
0000
,
0000
0010
0000
0000
0100
0000
0000
3010
0000
0002
0100
0000
0000
0010
0000
0000
0100
0000
0000
0013
0000
2000
0100
0000
0000
0010
0000
0000
0100
0000
0000
3010
,
0000
0002
0100
0000
0000
0010
0000
0000
0100
0000
0000
0013
0000
2000
0100
0000
0000
0010
0000
0000
0100
0000
0000
3010
0000
0002
0100
0000
0000
0010
0003
0000
,
2000
0100
0000
0000
0010
3000
0000
0102
0000
0000
0010
0000
0003
0100
2000
0000
0010
0000
0000
3100
0000
0002
0010
0000
0000
0100
0003
0000
2010
0000
0000
0100
,
3000
0000
0002
0010
0000
0100
0003
0010
2000
0100
0000
0000
3000
0100
0002
0010
0000
0100
0000
0013
0000
0000
0000
1000
0000
0100
0000
0010
0000
0001
0000
0010
,
0000
0001
0000
0010
0000
0100
0000
0002
0000
0000
0000
0003
0000
1000
0100
0010
0001
0010
0100
1000
0100
0010
0000
0001
1000
0100
0010
0100
1000
0010
0001
0010
,
0100
0001
0010
0100
0000
0000
0000
1000
0000
0100
0000
0010
0000
0100
0000
1000
0000
0100
0000
0001
0000
0010
0000
0100
0000
1000
0000
0100
0000
1000
0000
0001
,
0000
0010
0000
0100
0000
0001
0000
0010
0000
1000
0000
0100
0000
1000
0000
0001
0000
0010
0000
0100
0000
1000
0000
0100
0000
0010
0000
0100
0000
1000
0000
0001
,
0000
0010
0000
0100
0000
0010
0000
0100
0000
1000
0000
0100
0000
0010
0000
0100
0000
0001
0000
0010
0000
0100
0000
0010
0000
0100
0000
0010
0000
0001
0000
0010
,
0000
0100
0000
1000
0000
0100
0000
1000
0000
0010
0000
0001
0000
0010
0000
0100
0000
0001
0000
0010
0000
0100
0000
1000
0000
0100
0000
0010
0000
0100
0000
1000
,
0000
0010
0000
0100
0000
0001
0000
0010
0000
0100
0000
1000
0000
0100
0000
0010
0000
0100
0000
0001
0000
0010
0000
0100
0000
1000
0000
0010
0000
0100
0000
0001
,
0000
0010
0000
0100
0000
1000
0000
0100
0000
1000
0000
0100
0000
0010
0000
0001
0000
0010
0000
0100
0000
0020
0000
0000
0000
0000
1000
0000
0100
0000
0031
0000
,
0100
2000
0010
0000
0001
0000
0010
0000
0100
3000
0021
0000
0100
0000
1000
0000
0100
0000
0031
0200
1000
0000
0010
0000
0001
0000
0010
0300
1002
0000
0100
0000
,
0010
0000
0100
0000
0013
2000
0100
0000
0010
0000
0001
0000
3100
0020
1000
0000
0100
0000
0001
0000
0100
0030
2001
0000
0010
0000
0100
0000
0010
0000
3001
0020
,
0100
0000
1000
0000
0100
0000
1000
0000
0100
0032
1000
0000
0100
0000
0010
0000
0000
2000
0000
0000
0000
3003
0000
0000
0000
0000
1000
0000
0100
0000
1000
0000
,
0100
0010
0001
0010
0001
0000
0000
0000
0000
1000
0100
0010
0100
0001
0010
1000
,
0001
0000
0010
0000
0100
0000
0001
0000
1000
0000
0010
0000
0100
0000
0001
0000
0010
0000
0100
0000
2000
0000
0000
0000
0000
0000
0000
0000
0000
0000
0000
3000
,
0000
0000
0000
0000
0000
0000
0200
0000
0000
0000
0000
0000
0000
0000
0000
0301
0000
0000
2000
0000
0000
0000
0000
0000
0000
0000
3001
0000
0000
0200
0000
0000
,
0000
0310
0000
0000
0000
0000
0000
0000
0000
0000
0000
0000
0000
0000
0000
0000
0000
1000
0000
0100
0000
0001
0000
0010
0000
1000
0000
0100
0000
0001
0000
0010
,
0000
1000
0000
0100
0000
0001
0000
0010
0000
1000
0000
0100
0000
0001
0000
0010
0000
1000
0000
0100
0000
0010
0000
0100
0000
1000
0000
0100
0000
0010
0000
0002
,
0000
0000
0000
0000
0000
0003
0000
2000
0000
0000
0000
0000
0000
3000
0000
0020
0000
0000
0000
0000
0000
0030
0000
0200
0000
0000
0000
0000
0000
0000
0000
0000
,
0000
0301
0000
0000
0000
0000
0000
0000
0000
0000
0000
0000
0000
0000
0000
0000
0000
2000
0000
0000
0000
0000
0000
3000
0000
0200
0000
0310
0000
0102
0000
0010
,
0000
0000
0000
1000
0000
0100
0000
0010
0000
0100
0000
1000
0000
0103
0000
1000
0000
0100
0000
0010
0000
0001
0000
0010
0000
0000
0000
2000
0010
0000
0100
0000
,
0001
0000
0010
3000
0000
0000
0002
0100
0000
1000
0000
0100
0000
0010
0003
0000
0200
0001
0000
0010
0000
0001
0000
0310
0000
0000
0020
1000
0000
0100
0000
1030
,
0000
0000
2000
0001
0000
0010
0000
0001
0000
0100
0010
0000
0001
0010
0000
0100
0001
0000
0010
0100
0000
0001
0010
0000
0100
3001
0000
0010
0100
0000
0001
0010
,
0000
0000
0100
1000
0000
0100
0010
0000
0001
0010
0000
0100
1000
0000
0002
0000
0100
0000
1000
0000
0100
0003
0000
2000
0001
0000
0010
0000
0100
0000
0010
0000
,
3000
0000
0020
1000
0000
0100
0000
0001
0000
0100
0000
0000
0030
0000
2100
0000
0010
0000
0001
0000
0010
0000
0000
3000
0000
0000
0020
1000
0000
0000
0000
0100
,
0000
0000
0001
0000
0030
2000
0000
0000
0100
0000
0000
3000
0000
0020
0100
0000
0000
0000
0100
0030
0000
2000
0000
0000
0000
0000
3000
0000
0002
0100
0000
0000
,
0010
0000
0000
1003
0000
0200
0001
0000
0000
0010
0000
0000
0001
0000
0000
0310
0000
1000
0000
0100
0000
0010
0000
1000
0000
0001
0000
0010
0000
0100
0000
0010
,
0000
0100
0000
1000
0000
0001
0000
0100
0000
0001
0000
0010
0000
0100
0000
0001
0000
0010
0000
0100
0000
0001
0000
1000
0000
0100
0000
1000
0000
0010
0000
0001
,
0000
0100
0000
1000
0000
0010
0000
0100
0000
0001
0000
0010
0000
1000
0000
0100
0000
0010
0000
0100
0000
1000
0000
0100
0000
0010
0000
0001
0000
1000
0000
0020
,
0000
0000
0000
0000
0000
0030
0000
0002
0000
0000
0003
0000
0200
0000
0000
0000
0300
0000
0020
0000
0000
0030
0000
2000
0000
0000
0000
0000
0000
0000
0000
0000
,
0000
0000
0000
0000
0000
0000
0000
0000
0000
0000
0000
0000
0000
3001
0000
0000
0000
0000
0000
0000
0000
0000
0000
0000
0000
1100
0000
0001
0000
0010
0000
0100
,
0000
0001
0000
0010
0000
0100
0000
0010
0000
0100
0000
1000
0000
0100
0000
0010
0000
1000
0000
0100
0000
0001
0000
0010
0000
0100
0000
0000
2010
0000
0001
0000
,
0010
0100
0010
0001
0100
0010
0001
0010
0001
0010
0100
0010
0001
0010
0100
0001
,
0010
0100
0001
0010
0100
0010
0001
0010
0100
0010
0100
0001
0010
0100
0010
0001
,
0010
0000
0100
0000
0010
0000
0100
0000
0010
0000
0001
0000
0010
0000
0001
0000
0010
0000
0100
0000
0010
0000
0100
0000
0010
0000
3001
0010
0000
0100
0000
0010
,
0000
0001
0000
1000
0000
0100
0000
0001
0000
0010
0000
1000
0000
0100
0000
0010
0000
0100
0000
0010
0000
0001
0000
0100
0000
0010
0000
0100
0000
1000
0000
0100
,
0000
0001
0000
0010
0000
1000
0000
0100
0000
0001
0000
0010
0000
0100
0000
0010
0000
1000
0000
0100
0000
0010
0000
0100
0000
1000
0100
0010
0100
0000
0000
1000
,
0100
0010
0100
1000
0000
0000
0000
0000
0000
0000
0000
0100
0010
0001
0010
0100
1000
0100
0010
0001
0010
0100
1000
0100
0010
0002
0000
0000
0000
0000
0000
0000
,
0000
1003
0000
0000
0010
0000
0100
0010
0000
0001
0000
0010
0000
0100
0000
0010
0000
0100
0000
1000
0000
0100
0000
0010
0000
0001
0000
0010
0000
0100
0000
1000
,
0000
0100
0000
0010
0000
1000
0000
0100
0000
0010
0000
0001
0000
0010
0000
0100
0000
0001
0000
0010
0000
0100
0000
1000
0000
0100
0000
0002
0000
0000
0000
0000
,
0000
0000
0000
0000
0000
0003
0000
0000
0000
1000
0000
0100
0000
0010
0000
0100
0000
1000
0000
0100
0000
0010
0000
1000
0000
0100
0000
0010
0000
1000
0000
0100
,
0000
0010
0000
0100
0000
0010
0000
0001
0000
0100
0000
2000
0000
0000
0000
0000
0000
3000
0000
0100
0000
0010
0000
0002
0000
0000
0000
0000
0000
0000
0000
0000
,
0000
0000
0000
0003
0000
0000
0000
0000
0000
0000
0000
0010
0000
0100
0000
0010
0000
0001
0000
0010
0000
0100
0000
0010
0000
0100
0000
1000
0000
0010
0000
0100
,
0000
0010
0000
0100
0000
1000
0000
0002
0000
0000
0000
0000
0000
0000
0000
0000
0000
0000
0000
0000
0003
0000
0000
0000
0000
0000
0100
0000
0010
0000
0100
0000
,
0010
0000
0100
0000
1000
0000
0010
0000
0100
0000
0010
0000
0001
0010
0000
0100
0000
0010
0000
0001
0000
0010
0000
0100
0000
0010
0000
0100
0000
1000
0000
0010
,
0000
0001
0000
0010
0000
0100
0000
0010
0000
0100
0000
1000
0000
0100
0000
1000
0000
0100
0000
0010
0000
0001
0000
0010
0000
0001
0000
0010
0000
0100
0000
1000
,
0000
0100
0000
0010
0000
0001
0000
0010
0000
0100
0000
1000
0000
0001
0000
0010
0000
2000
0000
0000
0000
0000
0000
3000
0000
0002
0000
0000
0000
0000
0000
0003
,
0000
0000
0000
0200
0000
0000
0000
0000
0300
0000
0002
0000
0000
0000
0000
0000
0003
0000
0000
0000
0000
0000
0000
0000
0000
0000
0000
0000
0000
0000
1000
0000
,
0100
0000
0010
0000
1000
0000
0100
0000
0010
0000
0000
0001
0000
0010
0000
0100
0000
0001
0000
0010
0000
0100
0000
0010
0000
0100
0000
1000
0000
0100
0000
1000
,
0000
0100
0020
1000
0000
0100
0000
0001
0000
0100
0000
1030
0000
0000
0001
0000
0010
0000
0100
0000
0011
0000
0100
0000
1000
0000
0001
0000
1100
0000
0000
0010
,
0000
0001
0000
0100
0000
1010
0000
0100
0000
0011
0000
0100
0000
1010
0000
0100
0000
0010
0000
0001
0000
0020
0000
0000
0000
0030
0000
1000
0000
0100
0000
1000
,
0000
0110
0000
0001
0000
0010
0000
0100
0000
0011
0000
0100
0000
1000
0000
0010
0000
0101
0000
0010
0000
0100
0000
1000
0000
0110
0000
1000
0000
0100
0000
0010
,
0000
0002
0000
0000
0000
0000
0003
0000
0100
0000
0010
0000
0001
0000
1100
0000
0010
0000
0001
0000
0010
0000
0001
0000
1100
0000
0001
0000
0010
0000
0200
0000
,
0300
0000
0010
0000
0100
0000
0002
0000
0003
0000
1000
0000
0100
0000
0002
0000
0000
0000
0000
0003
0000
0000
0100
0000
0010
0000
0100
0000
0011
0000
1000
0000
,
0100
0010
1100
0001
0010
0100
0011
0100
0010
0101
1000
0100
0020
0030
0100
1000
,
0002
0003
0010
0100
0020
0030
1000
0100
0020
0000
0000
0002
0033
0200
0300
2000
,
3000
0000
0100
0000
0010
0000
0002
0000
0000
0000
0000
0000
0000
0000
0000
0000
0003
0000
0000
0100
0000
1000
0000
0001
0000
0110
0000
0001
0000
0010
0000
0200
,
0000
0300
0000
0001
0000
0010
0000
2000
0000
3000
0000
0100
0000
0010
0000
0002
0000
0003
0000
0100
0000
0010
0000
2000
0000
0000
0000
3000
0200
0000
0300
0020
,
0000
0030
0002
0000
0003
0000
0000
0100
0000
0010
0000
0001
0000
1100
0000
0010
0000
0001
0000
0010
0000
1100
0000
0010
0000
0001
0000
0010
0000
0200
0000
0000
,
0000
0000
0000
0000
0300
0000
0000
0001
0000
0010
0000
0100
0000
0011
0000
1000
0000
0100
0000
1000
0000
0011
0000
0000
0200
0000
0300
0020
0000
0030
0002
0000
,
0003
0020
0000
0030
0200
0000
0300
2000
0000
3000
0200
0000
0300
0020
0000
0030
0002
0003
0020
0030
0200
0300
2000
3000
0200
0300
0020
0030
0002
0003
0020
0030
,
0200
0300
2000
3000
0200
0300
0020
0030
0002
0003
0020
0030
0200
0300
2000
3000
0200
0300
0020
0030
0002
0003
0020
0030
0200
0300
2000
0000
0000
0000
0000
0000
,
0000
0000
3000
0000
0000
0100
0000
0010
0000
0001
0000
1100
0000
0010
0000
0001
0000
0010
0000
1100
0000
0010
0000
0001
0000
0010
0000
1100
0000
0000
2000
0000
,
3000
0200
0000
0300
0020
0000
0030
0000
0002
0000
0000
0000
0000
0000
0000
0000
0000
0000
0000
0000
0000
0000
0000
0000
1003
0000
0000
0200
0300
0020
0030
0002
,
0003
0020
0030
0200
0000
0000
0000
0000
0000
0000
0000
0000
0000
0000
0000
0300
0000
0011
0000
0000
0000
0000
0000
1100
0000
0000
0000
0000
0000
0101
0000
0000
,
0000
0000
0000
1100
0000
0000
0000
0000
1001
0000
0000
0000
0000
0000
0000
0000
0011
0000
0000
0000
0100
0000
0000
0011
0000
0000
0100
0000
0000
2001
0000
0000
,
0000
0000
0000
0000
0000
0000
3000
0000
0000
0100
0000
0010
0000
0100
0000
0010
0000
1100
0000
0000
0000
0000
0000
0000
0000
0000
0000
0000
0010
0000
0100
0000
,
0010
0000
0100
0000
0011
0000
0000
0000
0000
0000
0000
0000
1000
0000
0100
0000
0010
0000
0100
0000
0000
0000
0001
0000
0010
0000
0100
0010
0000
0000
1000
0000
,
0100
1000
0010
0001
1000
0100
0001
0010
0100
0010
0001
0000
0000
0000
1000
0100
,
0010
0100
1000
0001
0010
0100
0010
0001
0100
0010
0100
1000
0100
0010
0100
0010
,
0100
0000
0010
0000
0001
0010
0000
0100
0000
1000
0000
0100
0000
1000
0000
0001
0000
0010
0000
0001
0000
0100
0000
1000
0000
0100
0000
0001
0000
0010
0000
1000
,
0000
0100
0000
0001
0000
0010
0000
0100
0000
0010
0000
0100
0000
0001
0000
0010
0000
1000
0000
0100
0000
0010
0000
0100
0000
1000
0000
0001
0000
0010
0000
0100
,
0000
0001
0000
0010
0000
0100
0000
0010
0000
0100
0000
0001
0000
0010
0000
0100
0000
0010
0000
0100
0000
1000
0000
0100
0000
0010
0000
0100
0000
1000
0000
0001
,
0000
0010
0000
0100
0000
0010
0000
0100
0000
0001
0000
0010
0000
1000
0000
0102
0000
0010
0000
0000
0000
1000
0100
0013
0000
2000
0000
0000
0000
0000
0000
0010
,
0001
3100
0000
0020
0000
0000
0000
0000
0000
0001
0100
0031
0000
0200
0000
0000
0000
0000
0000
0001
0310
0001
2000
0000
0000
0000
0000
0000
0000
0001
3010
0001
,
0200
0000
0000
0000
0000
0000
0000
0010
0001
0310
0000
0020
0000
0000
0000
0000
0000
0001
0100
0031
0000
0200
0000
0000
0000
0000
0000
1000
0001
0010
0000
0000
,
0000
0000
0300
0000
0000
0100
0010
0001
0000
0000
0010
0000
0100
0000
1000
0000
0100
0000
0010
0000
0100
0000
1000
0000
0010
0000
0100
0000
0001
0000
0010
0000
,
0100
1000
0100
0010
0100
0001
0010
0100
0010
0100
1000
0200
0000
0000
0000
0000
,
0300
0000
0010
0000
0002
0000
0000
0000
0000
0000
0000
0000
0000
0000
0000
0000
0000
0000
0000
0000
0000
0000
0000
0003
0000
0000
0000
0000
0000
0000
0000
1100
,
0000
0000
0000
0101
0000
0000
0000
1010
0000
0000
0000
0000
0000
0000
0000
0000
0000
0000
0101
0000
0000
0000
0110
0000
0000
0000
1001
0000
0000
0000
0000
0000
,
0002
1000
0100
0010
0000
0100
0000
0010
0000
0100
0003
0000
0000
1100
0000
0000
0000
0010
0000
0000
0000
0101
0000
0000
0000
1010
0000
0000
0000
0100
0000
0000
,
0000
0011
0000
0000
0000
2100
0000
0000
0000
0000
3001
0000
0000
0000
0000
0000
0000
0000
0000
0000
0000
0000
0000
0000
0101
0000
0000
0000
0010
0000
0000
0000
,
0100
0000
0000
0000
0011
0000
0000
0000
2100
0000
0000
0000
0000
3001
0000
0000
0000
0000
0000
0000
0000
0000
0000
0000
0000
0000
0000
0000
0000
0000
1220
0000
,
0000
0000
0000
0000
0000
0000
0000
0000
0000
0000
0000
0000
0000
0000
0000
0030
,
0000
0000
0000
0000
,
0000
0000
0000
0000
0000
0000
0000
0000
0000
0000
0000
0000
0000
0000
0000
0000
0000
0000
0000
0000
0000
0000
0000
0300
0000
0000
0002
0000
1000
0000
0000
0000
,
0000
0000
0000
0000
0000
0000
0013
0000
0000
0100
0000
0000
0010
0000
2000
0000
0000
0000
0010
0000
0000
0000
0000
0000
0001
0000
0000
0000
0000
0000
0010
0000
,
0000
0000
0000
0000
0001
0000
0000
0000
0000
0000
0010
3000
0000
0002
0000
0000
0100
0000
0000
0000
0000
0000
1000
0000
0000
0000
0000
0000
0010
0000
0000
0000
,
0000
0000
0100
0000
0003
0000
2000
0000
0000
0000
0000
3000
0000
0100
0000
0010
0000
0002
0000
0000
0000
0000
0000
0000
0003
0000
0010
0000
0100
0000
2000
0000
,
0000
0000
0000
0000
0000
0000
0000
3000
0000
0100
0000
0010
0000
0200
0000
0000
0000
0000
0000
0300
0000
0001
0000
0010
0000
0200
0000
0000
0000
0000
0300
0000
,
0010
0000
0001
0000
2000
0000
0000
0000
0000
0000
0000
3000
0000
0010
0000
0001
0000
0200
0000
0000
0300
0000
0001
0000
0010
0000
2000
0000
0000
0000
0000
0000
,
0000
0000
0000
3000
0000
0100
0000
0010
0000
0002
0000
0000
0000
1000
0000
0000
0000
0000
0000
0100
0000
0000
0000
0000
0000
0010
0000
0000
0000
0000
0000
0100
,
0000
0000
0000
0000
0000
1000
0000
0000
0000
0000
0000
0013
0000
0000
0000
0000
0000
1000
0000
0000
0000
0000
0000
0010
0000
0000
0000
0000
0000
0100
0000
0000
,
0000
0000
0000
0001
0000
0000
0000
0000
0000
0010
0000
0000
0000
0000
0000
0210
0000
0000
0000
0000
0000
0000
0000
0300
0000
0000
0000
0000
0000
0000
0000
0000
,
0000
2000
0000
0000
0000
0000
0000
0000
3000
0000
0100
0000
0010
0000
0001
0000
1200
0000
0010
0000
0001
0000
0010
0000
1000
0000
0001
0000
0010
0000
0001
0000
,
1000
0000
0001
0000
0010
0000
0001
0000
0010
0000
1000
0000
0010
0000
0001
0000
0010
0000
0001
0000
0010
0000
0001
0010
0001
0010
0001
0300
1000
0010
0001
0000
,
1100
0000
0010
0000
1100
0000
0010
0000
0101
0000
0010
0000
1100
0000
0010
0000
0101
0000
0010
0000
1100
0000
0010
0000
0101
0000
1010
0000
0000
0001
0000
0010
,
0000
1000
0000
0100
0000
0010
0000
0100
0000
0010
0000
1000
0000
0100
0000
0001
0000
0010
0000
0100
0000
1000
0000
0100
0000
0010
0000
0100
0000
0010
0000
0001
,
0000
0010
0000
0100
0000
1000
0000
0010
0000
0100
0000
0001
0000
0010
0000
2100
0000
0010
0000
0001
0000
0010
0000
0100
0000
0010
0000
3001
0000
0000
0000
0000
,
0102
0000
0010
0000
0100
0000
1000
0000
0100
0000
0010
0000
0103
0000
0000
1000
0000
0100
0000
0010
0000
0100
0000
0001
0000
0010
0000
0100
0000
0001
0000
0010
,
0000
0100
0000
0001
0000
0010
0000
1000
0000
0100
0000
0010
0000
0100
0000
0010
0000
0100
0000
1000
0000
0001
0000
0010
0000
0100
0000
0001
0000
0010
0000
0100
,
0000
1000
0000
0100
0000
0010
0000
0100
0000
0010
0000
0001
0000
0010
0000
1000
0000
0100
0000
0010
0000
0100
0000
0001
0000
1000
0000
0100
0000
0010
0000
0100
,
0000
0001
0000
0100
0000
0010
0000
0001
0000
0010
0000
0100
0000
0010
0000
0001
0000
0010
0000
1000
0000
0100
0000
0001
0000
0100
0000
0010
0000
0001
0000
0010
,
0000
0001
0000
0010
0000
0100
0000
0010
0000
0100
0000
1000
0000
0100
0000
0010
0000
0100
0000
0010
0000
0100
0000
0001
0000
0010
0000
0100
0000
0001
0000
1000
,
0000
0100
0000
0001
0000
0010
0000
0100
0000
0001
0000
1000
0000
0100
0000
0010
0000
0100
0000
0011
0000
0000
0100
0000
2000
0000
0010
0000
0000
0000
3000
0000
,
0100
0000
0000
0000
0002
0000
1000
0000
0000
0003
0010
2000
0000
0000
0000
0000
0100
0000
0000
3000
0021
0000
0000
0000
1000
0000
0000
0000
0001
0000
0000
0000
,
1000
0001
0100
1000
0001
1130
0001
0100
,
0001
0000
0000
0000
0010
0000
2100
0000
0010
0000
0001
3000
0010
0000
0102
0000
1000
0000
0100
0000
0010
0003
1000
0200
0010
0000
0001
0000
0010
0000
1000
0000
,
0301
0000
0000
1000
0000
0100
0000
0001
0000
0010
0000
1000
0000
0100
0000
0001
0000
0010
0000
0100
0000
0001
0000
0010
0000
0100
0000
0010
0000
1000
0000
0100
,
0000
0001
0000
0010
0000
0100
0000
0001
0000
0010
0000
0100
0000
0001
0000
0010
0000
0100
0000
2001
0000
0010
0000
0100
0000
0001
0000
0010
0000
0100
0000
3001
,
0000
0020
0000
0100
0000
0030
0000
2000
0000
0001
0000
3000
0000
0102
0000
1000
0000
0100
0000
0010
0000
0103
0000
1000
0000
0100
0000
0010
0000
0100
0000
0010
,
0000
0001
0000
0100
0000
0010
0000
1000
0000
0100
0000
0010
0000
0100
0000
0001
0000
0010
0000
1000
0000
0100
0000
0010
0000
0100
0000
0001
0000
1000
0000
0100
,
0000
0010
0000
0100
0000
0001
0000
0100
0000
1000
0000
0010
0000
0100
0000
0010
0000
0001
0000
0010
0000
0100
0000
1000
0000
0010
0000
0100
0000
1002
0000
0100
,
0000
0010
0000
0100
0000
0013
0000
0100
0000
2010
0000
0001
0000
0010
0000
0100
0000
0010
0000
0001
0000
0010
0000
0100
3000
0001
0000
0010
0000
0100
0000
0010
,
0000
0001
0000
0010
0000
0100
0000
1000
0000
0100
0000
1000
0000
0001
0000
0010
0000
0100
0000
0010
0000
0001
0000
0100
0000
1000
0000
0001
0000
0010
0000
0100
,
0000
0001
0000
0010
0000
0100
0000
0010
0000
0001
0000
0100
0000
0010
0000
1000
0000
0100
0000
0000
0000
0200
0000
0311
0000
0000
0000
1000
0000
0100
0000
0010
,
0000
0100
0000
1000
0000
0001
0000
0010
0000
2000
0000
0000
0000
3100
0000
0010
0000
0002
0000
0000
0000
0003
0000
0010
0000
0100
0000
2001
0000
0010
0000
0100
,
0000
0010
0000
0001
0000
0010
0000
0001
0000
3100
0000
0001
0000
0110
0000
0001
0000
0010
0000
1100
0000
0010
0000
0001
0000
0110
0000
2000
0000
3101
0000
0000
,
0000
0010
0000
0100
0000
0010
0000
0001
0000
0010
0100
0010
0000
0001
0000
0000
0010
0100
0010
0001
0000
0010
0000
0100
0000
1000
0000
0100
0000
0010
0000
0001
,
0000
0010
0000
0100
0000
2001
0000
0010
0000
0001
0000
0010
0000
0000
0000
0000
0000
0010
0000
0001
0000
0010
0000
0001
0000
0000
0000
0000
0000
0001
0000
0010
,
0000
0001
0000
0100
0000
0000
0000
0000
0000
0010
0000
0001
0000
0010
0000
0100
0000
0000
0000
0000
0000
0001
0000
0100
0000
0010
0000
0001
0000
0000
0000
0000
,
0000
0001
0000
0010
0000
0001
0000
0010
0000
0000
0000
0000
0000
0100
0000
0010
0000
0001
0000
0010
0000
0000
0000
0000
0000
0001
0000
0010
0000
0100
0000
0010
,
0000
0000
0000
0000
0000
0001
0000
0010
0000
0001
0000
0100
0000
0000
0000
0000
0000
0010
0000
0001
0000
0010
0000
0100
0000
0000
0000
0000
0000
0010
0000
0100
,
0000
0010
0000
0001
0000
0000
0000
0000
0000
0100
0000
0010
0000
0001
0000
0010
0000
0000
0000
0000
0000
0001
0000
0100
0000
0010
0000
0100
0000
0000
0000
0000
,
0000
0010
0000
0001
0000
0010
0000
0100
0000
0000
0000
0000
0000
0001
0000
0010
0000
0001
0000
0100
0000
0000
0000
0000
0000
0010
0000
0001
0000
0010
0000
0001
,
3000
0000
0000
0000
0000
0001
0000
0010
0000
0001
0000
0020
0000
0000
0030
0000
0000
0010
0000
0100
0000
1000
0000
0200
0000
0000
0300
0000
0000
1000
0000
0100
,
0000
0010
0000
0002
0000
0000
0003
0000
0000
0010
0000
0100
0000
1000
0000
0002
0000
0000
0003
0000
0000
0010
0000
0100
0000
0001
0000
0020
0000
0000
0030
0000
,
0000
0100
0000
0010
0000
0001
0000
0020
0000
0000
0030
0000
0000
1000
0000
0100
0000
1000
0000
0002
0000
0000
0003
0000
0000
0010
0000
0100
0000
0010
0000
2000
,
0000
0000
3000
0000
0000
0001
0000
0010
0000
0100
0000
0002
0000
0000
0003
0000
0000
1000
0000
0100
0000
0001
0000
0020
0000
0000
0030
0000
0000
0100
0000
0001
,
0000
0010
0000
0200
0000
0000
0300
0000
0001
0000
0010
0000
0100
0000
0002
0000
0003
0000
0010
0000
0100
0000
1000
0000
0002
0000
0003
0000
0010
0000
0100
0000
,
1000
0000
0020
0000
0030
0000
0001
0000
0010
0000
0100
0000
2000
0000
3002
0000
0000
0000
0000
0000
0000
0000
0000
0000
0000
0003
0000
0000
0010
0000
0000
1100
,
0000
0000
0022
0000
0000
0000
0000
0000
0000
0000
0000
0000
0000
0000
0033
0000
0000
0100
0000
0000
1010
0000
0000
0202
0000
0300
0000
0000
0000
0000
0000
0000
,
0000
0000
0000
0000
0003
0000
0000
0100
0000
0000
1010
0000
0000
0202
0000
0000
0300
0000
0000
0000
0000
0000
0000
0000
0000
0000
0003
0000
0110
0000
0000
1001
,
0000
0220
0030
0000
0300
0002
0000
0013
0000
0000
0012
0000
0003
0000
0000
0000
0000
0000
0000
0000
0000
0000
0000
0000
0000
0000
0000
0000
0000
0000
0000
0000
;
