#TITLE:Maginobionics;
#SUBTITLE:;
#ARTIST:DJ Sharpnel;
#TITLETRANSLIT:;
#SUBTITLETRANSLIT:;
#ARTISTTRANSLIT:;
#CREDIT:;
#BANNER:maginobionics bn.png;
#BACKGROUND:maginobionics bg.png;
#LYRICSPATH:;
#CDTITLE:;
#MUSIC:maginobionics.ogg;
#OFFSET:-1.288;
#SAMPLESTART:84.190;
#SAMPLELENGTH:20.722;
#SELECTABLE:YES;
#DISPLAYBPM:186.000;
#BPMS:0.000=185.300;
#STOPS:;
#BGCHANGES:;
// cache tags:
#FIRSTBEAT:30.500;
#LASTBEAT:792.000;
#SONGFILENAME:Songs/SHARPNELSTREAMZ v2/Maginobionics/maginobionics.sm;
#HASMUSIC:1;
#HASBANNER:1;
#MUSICLENGTH:263.253;
// end cache tags

//---------------dance-single - 16- (TYLR)----------------
#NOTES:
     dance-single:
     16- (TYLR):
     Challenge:
     16:
     1.000,1.000,0.232,0.729,1.000,2359.000,61.000,192.000,4.000,0.000:
0000
0000
0000
0000
,
0000
0000
0000
0000
,
0000
0000
0000
0000
,
0000
0000
0000
0000
,
0000
0000
0000
0000
,
0000
0000
0000
0000
,
0000
0000
0000
0000
,
0000
0000
0000
0000
0000
0000
0000
0000
0000
0000
0000
0000
0000
0000
0000
0001
1000
0001
1000
0000
0000
0001
0010
0100
,
1000
0000
0001
0100
0010
0000
1000
0100
0010
0000
0001
1000
0010
0000
1000
0001
,
0100
0000
0010
1000
0001
0000
0010
0100
1000
0000
0001
1000
0010
0000
0100
0001
,
1000
0000
0001
1000
0100
0000
0010
0001
1000
0000
0001
1000
0010
0000
0100
0001
,
1000
0000
0001
0010
0100
0000
1000
0001
1000
0000
0001
0100
0010
0000
1000
0010
,
010M
0000
0001
0010
0100
0000
1000
0001
1000
0000
0001
1000
0010
0000
0100
0001
,
0100
0000
0010
1000
0100
0000
1000
0001
1000
0000
0001
0010
0100
0000
1000
0100
,
1000
0000
0001
1000
0010
0000
1000
0010
1000
0000
0010
0100
0001
0000
1000
0001
,
1000
0000
0000
0000
0000
0000
0001
0000
0000
0010
0000
0000
0100
0000
0000
0000
0000
0000
1000
0000
0000
0001
0000
0000
1000
0000
0000
0000
0000
0000
0001
0000
0010
0000
0100
0000
1000
0000
0000
0000
0000
0000
0001
0000
0010
0000
0100
0000
,
1000
0000
0002
0003
0011
0000
0020
0030
0001
0000
2000
3000
1010
0000
0020
0030
,
0100
0000
0002
0003
0011
0000
0020
0030
0001
0000
0200
0300
0101
0000
0002
0003
,
1000
0000
0200
0300
0110
0000
0020
0030
0001
0000
2000
3000
1001
0000
0002
0003
,
0100
0000
0020
0030
1010
0000
2000
3000
0001
0000
2000
3000
1100
0000
0200
0300
,
M011
0000
0002
0003
0101
0000
0200
0300
0010
0000
2000
3000
1100
0000
0200
0300
,
0010
0000
0002
0003
1001
0000
2000
3000
0010
0000
0200
0300
0101
0000
0002
0003
,
1000
0000
0200
0300
0110
0000
0020
0030
0001
0000
2000
3000
1010
0000
0020
0030
,
0100
0000
0000
0000
0000
0000
0002
0000
0000
0003
0000
0000
1001
0000
0000
0000
0000
0000
2000
0000
0000
3000
0000
0000
0100
0000
0000
0000
0000
0000
1000
0000
0001
0000
1000
0000
0100
0000
0000
0000
0000
0000
1000
0000
0001
0000
1000
0000
,
0100
0000
0020
0030
0011
0000
0002
0003
1000
0000
0002
0003
0101
0000
0200
0300
,
0010
0000
2000
3000
1001
0000
0002
0003
0010
0000
0200
0300
1100
0000
2000
3000
,
0001
0000
0200
0300
0101
0000
0002
0003
1000
0000
0200
0300
0110
0000
0020
0030
,
0001
0000
0020
0030
0110
0000
0200
0300
1000
0000
0002
0003
0101
0000
0200
0300
,
101M
0000
0020
0030
0110
0000
0200
0300
0001
0000
2000
3000
1100
0000
0200
0300
,
0010
0000
0002
0003
0101
0000
0200
0300
0010
0000
2000
3000
1001
0000
0002
0003
,
1000
0010
0100
0001
1000
0001
0100
0010
1000
0001
1000
0100
0010
0100
1000
0001
,
0010
0001
1000
0001
0100
0010
1000
0010
0100
0001
0010
0100
1000
0001
0100
0001
,
1000
0000
0000
1000
0000
0000
0000
0000
,
0100
0000
0000
0100
0000
0000
0000
0000
,
0010
0000
0000
0010
0000
0000
0000
0000
,
0001
0000
0000
0001
0000
0000
0000
0000
,
0100
0000
0000
0100
0000
0000
0000
0000
,
0001
0000
0000
0001
0000
0000
0000
0000
,
1000
0100
0010
0001
1000
0100
0010
0001
1000
0100
0010
0001
1000
0100
0010
0001
,
1000
0000
0000
0000
0000
0000
0000
0000
0002
0003
0200
0300
0020
0030
0000
0000
0000
0000
0000
0000
0000
0000
0000
0000
2000
3000
0002
0003
0020
0030
0000
0000
,
1100
1000
0M10
0110
0100
0001
1000
0100
,
0110
0010
0001
0011
0010
0100
1000
0001
,
0101
0100
0010
1010
1000
0001
0010
0100
,
1100
1000
0001
0101
0100
0010
1000
0001
,
0011
0010
0100
1100
1000
0001
1000
0010
,
0110
0100
0001
0101
0100
0010
1000
0001
,
1001
0000
0000
1000
0000
0000
0000
0000
,
0001
0000
0000
0001
0000
0000
0000
0000
,
2001
3001
0010
0100
0200
1300
0001
0100
,
0020
0130
0001
1000
2000
3100
0010
0001
,
0200
0301
0020
0130
2000
3001
0200
0320
,
1030
0000
0001
0000
0010
0000
0100
0000
0010
0000
0001
0000
1000
0010
0100
0001
,
2000
3100
0010
0020
0031
0200
0301
1000
,
0020
0230
0302
2003
3100
0010
0001
1000
,
0020
0130
0001
2000
3100
0020
0130
2000
,
3001
0000
0000
0000
0000
0000
0010
0000
0000
0100
0000
0000
1000
0000
0000
0001
0000
0000
0100
0000
0000
0010
0000
0000
1000
0000
0000
0001
0000
0000
1000
0000
0100
0000
0010
0000
0001
0000
0000
0000
0000
0000
1000
0000
0100
0000
0010
0000
,
0001
1000
1010
0010
0100
0001
1001
1000
,
0100
0010
0011
0001
1000
0010
0110
0100
,
0001
1000
1100
0100
0010
0001
1001
1000
,
0010
0100
0101
0001
0010
0100
1100
1000
,
2001
3001
0100
0210
0310
1000
2100
3100
,
0220
0330
0022
0033
0202
0303
0220
0330
,
1000
0010
0100
0001
1000
0001
0100
0010
1000
0001
0010
0001
1000
0010
0100
0001
,
0010
0001
0100
0010
1000
0100
0010
0001
0100
0001
0010
0100
2000
0000
3000
0000
,
0001
1000
0001
0010
0100
1000
0010
0100
0001
0100
0010
1000
0001
1000
0100
0010
,
0001
0010
0100
1000
0010
1000
0001
0100
0010
0100
0001
1000
0001
0100
0010
1000
,
0100
0010
0100
1000
0001
0100
0001
1000
0010
0100
0010
1000
0001
0010
0001
1000
,
0010
0100
0001
1000
0001
0100
0010
1000
0001
1000
0100
0010
0100
1000
0010
0100
,
0010
1000
0001
1000
0010
0100
0001
0010
0001
1000
0010
0100
0001
0100
0010
1000
,
0001
1000
0001
1000
0100
0010
0001
1000
0001
0100
0010
0100
0001
1000
0100
0010
,
0001
0010
0100
1000
0001
0010
0001
1000
0001
0010
0100
1000
0001
1000
0100
1000
,
0010
0000
0000
0100
0000
0000
0001
0000
0000
0100
0000
0000
0010
0000
0000
1000
0000
0000
0001
0000
0000
0010
0000
0000
0100
0000
0000
0000
0000
0000
1000
0000
0001
0000
1000
0000
0100
0000
0000
0000
0000
0000
1000
0000
0001
0000
1000
0000
,
0100
0010
0001
0010
0100
1000
0010
0100
0001
0100
0010
1000
0001
1000
0100
0010
,
0001
0010
0100
1000
0010
1000
0001
0100
0010
0100
0001
1000
0001
0100
0010
1000
,
0100
0010
0100
1000
0001
0100
0001
1000
0010
0100
0010
1000
0001
0010
0001
1000
,
0100
0010
0100
1000
0001
0100
0001
1000
0100
0010
0001
0100
0001
1000
0100
0010
,
0100
1000
0001
0010
0001
0100
0010
0100
0001
1000
0010
0100
0001
0100
0010
1000
,
0001
1000
0001
1000
0100
0010
0001
1000
0001
0100
0010
0100
0001
1000
0100
0010
,
0001
0010
0100
1000
0001
0010
0001
1000
0001
0010
0100
1000
0001
1000
0100
1000
,
0010
0000
0000
0100
0000
0000
0001
0000
0000
0100
0000
0000
0010
0000
0000
1000
0000
0000
0001
0000
0000
1000
0000
0000
0100
0000
0000
0000
0000
0000
0010
0000
0001
0000
1000
0000
0100
0000
0000
0000
0000
0000
0010
0000
0001
0000
1000
0000
,
0100
0010
0100
1000
0001
1000
0010
0100
0001
0100
0010
1000
0001
1000
0100
0010
,
0001
0010
0100
1000
0010
1000
0001
0100
0010
0100
0001
1000
0001
0100
0010
1000
,
0100
0010
0100
1000
0001
0100
0001
1000
0010
0100
0010
1000
0001
0010
0001
1000
,
0010
0100
0001
1000
0001
0100
0010
1000
0001
1000
0100
0010
0100
1000
0010
0100
,
0010
1000
0001
1000
0010
0100
0001
0010
0001
1000
0010
0100
0001
0100
0010
1000
,
0001
1000
0001
1000
0100
0010
0001
1000
0001
0100
0010
0100
0001
1000
0100
0010
,
0001
0010
0100
1000
0001
0010
0001
1000
0001
0010
0100
1000
0001
1000
0100
1000
,
0010
0000
0000
0100
0000
0000
0001
0000
0000
0100
0000
0000
0010
0000
0000
1000
0000
0000
0001
0000
0000
1000
0000
0000
0100
0000
0000
0000
0000
0000
0010
0000
0001
0000
1000
0000
0001
0000
0000
0000
0000
0000
0010
0000
0001
0000
1000
0000
,
0001
0010
0100
0010
0001
1000
0010
0100
0001
0100
0010
1000
0001
1000
0100
0010
,
0001
0010
0100
1000
0010
1000
0001
0100
0010
0100
0001
1000
0001
0100
0010
1000
,
0100
0010
0100
1000
0001
0100
0001
1000
0010
0100
0010
1000
0001
0010
0001
1000
,
0100
0010
0100
1000
0001
0100
0001
0100
0010
1000
0001
0010
0001
1000
0001
0100
,
0010
1000
0001
1000
0100
0010
0001
1000
0001
1000
0001
0100
0010
1000
0100
0010
,
0100
1000
0001
0010
0001
1000
0010
0100
0001
1000
0100
0010
0100
1000
0001
1000
,
0001
0100
0010
1000
0001
1000
0100
0010
0100
0010
0001
0010
0100
1000
0010
0100
,
0010
0000
0000
0100
0000
0000
0001
0000
0000
1000
0000
0000
0001
0000
0000
1000
0000
0000
0100
0000
0000
0010
0000
0000
0001
0000
0000
0000
0000
0000
1000
0000
0100
0000
0010
0000
0001
0000
0000
0000
0000
0000
1000
0000
0100
0000
0010
0000
,
0001
0010
0001
0010
0100
1000
0001
0100
0001
0100
0010
1000
0100
0010
0100
1000
,
0001
0100
0001
0100
0010
1000
0010
1000
0100
0010
0100
1000
0001
0100
0010
1000
,
0001
0010
0100
1000
0001
0010
0100
1000
0001
0010
0100
1000
0001
0010
0100
1000
,
0001
0100
0010
1000
0001
0100
0010
1000
0001
0100
0010
1000
0001
0100
0010
1000
,
0001
1000
0001
0010
0100
1000
0010
0100
0001
0100
0010
1000
0001
1000
0100
0010
,
0001
0010
0100
1000
0010
1000
0001
0100
0010
0100
0001
1000
0001
0100
0010
1000
,
0100
0010
0100
1000
0001
0100
0001
1000
0010
0100
0010
1000
0001
0010
0001
1000
,
0010
0100
0001
1000
0001
0100
0010
1000
0001
1000
0100
0010
0100
1000
0010
0100
,
0010
1000
0001
1000
0010
0100
0001
0010
0001
1000
0010
0100
0001
0100
0010
1000
,
0001
1000
0001
1000
0100
0010
0001
1000
0001
0100
0010
0100
0001
1000
0100
0010
,
0001
0010
0100
1000
0001
0010
0001
1000
0001
0010
0100
1000
0001
1000
0100
1000
,
0010
0000
0000
0100
0000
0000
0001
0000
0000
0100
0000
0000
0010
0000
0000
1000
0000
0000
0001
0000
0000
1000
0000
0000
0100
0000
0000
0000
0000
0000
0010
0000
0001
0000
0010
0000
0100
0000
0000
0000
0000
0000
0010
0000
0001
0000
0010
0000
,
0100
1000
0001
0010
0100
1000
0010
0100
0001
0100
0010
1000
0001
1000
0100
0010
,
0001
0010
0100
1000
0010
1000
0001
0100
0010
0100
0001
1000
0001
0100
0010
1000
,
0100
0010
0100
1000
0001
0100
0001
1000
0010
0100
0010
1000
0001
0010
0001
1000
,
0100
0010
0100
1000
0001
1000
0100
0010
0100
1000
0001
0100
0001
1000
0001
0010
,
0100
1000
0001
1000
0010
0100
0001
1000
0001
1000
0001
0010
0100
1000
0010
0100
,
0010
1000
0001
0100
0001
1000
0100
0010
0001
1000
0010
0100
0010
1000
0001
1000
,
0001
0010
0100
1000
0001
1000
0010
0100
0010
0100
0001
0100
0010
1000
0100
0010
,
0100
0000
0000
0010
0000
0000
0001
0000
0000
0010
0000
0000
0100
0000
0000
1000
0000
0000
0001
0000
0000
1000
0000
0000
0010
0000
0000
0000
0000
0000
1000
0000
0010
0000
0100
0000
0001
0000
0000
0000
0000
0000
1000
0000
0010
0000
0100
0000
,
0001
1000
0001
0100
0010
1000
0001
0010
0001
0010
0100
1000
0010
0100
0010
1000
,
0001
0010
0001
0010
0100
1000
0100
1000
0010
0100
0010
1000
0001
0010
0100
1000
,
0001
0100
0010
1000
0001
0100
0010
1000
0001
0100
0010
1000
0001
0100
0010
1000
,
0001
1000
0001
1000
0001
1000
0001
1000
0001
1000
0001
1000
0001
0000
0000
1000
0000
0000
0001
0000
0000
0000
0000
0000
,
2001
3000
0200
0300
0020
0030
0002
0000
0000
0003
2000
0000
0000
3000
0020
0030
,
0200
0300
0002
0003
0020
0030
0200
0000
0000
0300
2000
3000
0200
0300
0020
0030
,
0002
0000
0000
0003
2000
0000
0000
3000
0020
0000
0000
0030
0200
0000
0000
0300
,
0002
0003
2000
3000
2000
3000
2000
3000
0200
0300
0000
0020
0030
0000
0002
0000
,
0000
0000
0000
0000
0000
0003
0200
0000
0000
0300
0002
0003
0002
0003
0002
0003
,
2000
0000
0000
3000
0200
0300
2000
0000
0000
3000
0020
0000
0000
0030
0200
0000
,
0000
0000
0000
0300
0002
0003
0200
0300
0002
0000
0003
0000
0000
0000
2000
3000
,
0200
0300
0200
0300
2000
3000
0002
0000
0003
0000
0200
0000
0300
0000
0000
0000
,
0020
0030
0020
0030
2000
3000
0200
0000
0000
0300
0020
0000
0000
0030
0002
0003
,
2000
3000
0002
0003
0200
0300
0020
0000
0000
0030
2000
3000
0020
0030
0200
0300
,
0002
0000
0000
0003
2000
0000
0000
3000
0200
0000
0000
0300
0020
0000
0000
0030
,
0002
0000
0000
0003
2000
3000
0002
0000
0000
0003
0200
0000
0000
0300
0000
0000
,
0020
0030
2000
3000
0200
0300
0020
0000
0000
0030
0200
0300
2000
3000
0020
0000
,
0000
0030
0200
0300
0002
0003
2000
3000
0002
0003
0200
0300
0020
0030
0000
0000
,
2000
3000
0200
0300
0020
0030
0002
0000
0000
0003
0200
0300
0020
0030
2000
0000
,
0000
3000
0002
0003
2000
3000
0200
0300
0020
0030
0002
0003
0000
0000
0000
0000
,
2000
0000
0000
0000
0000
3000
0020
0000
0000
0000
0000
0030
0200
0000
0000
0300
,
0002
0000
0003
0000
0000
0000
0000
0000
0020
0030
0200
0300
2000
3000
0002
0000
,
1000
1000
1000
1000
,
4000
0000
0000
0000
3003
0000
2002
3003
,
1000
0001
1000
0100
0010
0001
0100
0010
1000
0010
0100
0001
1000
0001
0010
0100
,
1000
0100
0010
0001
0100
0001
1000
0010
0100
0010
1000
0001
1000
0010
0100
0001
,
0010
0100
0010
0001
1000
0010
1000
0001
0100
0010
0100
0001
1000
0100
1000
0001
,
0100
0010
1000
0001
1000
0010
0100
0001
1000
0001
0010
0100
0010
0001
0100
0010
,
0100
0001
1000
0001
0100
0010
1000
0100
1000
0001
0100
0010
1000
0010
0100
0001
,
1000
0001
1000
0001
0010
0100
1000
0001
1000
0010
0100
0010
1000
0001
0010
0100
,
1000
0100
0010
0001
1000
0100
1000
0001
1000
0100
0010
0001
1000
0001
0010
0001
,
0100
0000
0000
0010
0000
0000
1000
0000
0000
0010
0000
0000
0100
0000
0000
0001
0000
0000
1000
0000
0000
0100
0000
0000
0010
0000
0000
0000
0000
0000
0001
0000
1000
0000
0001
0000
0010
0000
0000
0000
0000
0000
0001
0000
1000
0000
0001
0000
,
0010
0100
1000
0100
0010
0001
0100
0010
1000
0010
0100
0001
1000
0001
0010
0100
,
1000
0100
0010
0001
0100
0001
1000
0010
0100
0010
1000
0001
1000
0010
0100
0001
,
0010
0100
0010
0001
1000
0010
1000
0001
0100
0010
0100
0001
1000
0100
1000
0001
,
0010
0100
0010
0001
1000
0010
1000
0001
0010
0100
1000
0010
1000
0001
0010
0100
,
0010
0001
1000
0100
1000
0010
0100
0010
1000
0001
0100
0010
1000
0010
0100
0001
,
1000
0001
1000
0001
0010
0100
1000
0001
1000
0010
0100
0010
1000
0001
0010
0100
,
1000
0100
0010
0001
1000
0100
1000
0001
1000
0100
0010
0001
1000
0001
0010
0001
,
0100
0000
0000
0010
0000
0000
1000
0000
0000
0010
0000
0000
0100
0000
0000
0001
0000
0000
1000
0000
0000
0001
0000
0000
0010
0000
0000
0000
0000
0000
0100
0000
1000
0000
0001
0000
0010
0000
0000
0000
0000
0000
0100
0000
1000
0000
0001
0000
,
0010
0100
0010
0001
1000
0001
0100
0010
1000
0010
0100
0001
1000
0001
0010
0100
,
1000
0100
0010
0001
0100
0001
1000
0010
0100
0010
1000
0001
1000
0010
0100
0001
,
0010
0100
0010
0001
1000
0010
1000
0001
0100
0010
0100
0001
1000
0100
1000
0001
,
0100
0010
1000
0001
1000
0010
0100
0001
1000
0001
0010
0100
0010
0001
0100
0010
,
0100
0001
1000
0001
0100
0010
1000
0100
1000
0001
0100
0010
1000
0010
0100
0001
,
1000
0001
1000
0001
0010
0100
1000
0001
1000
0010
0100
0010
1000
0001
0010
0100
,
1000
0100
0010
0001
1000
0100
1000
0001
1000
0100
0010
0001
1000
0001
0010
0001
,
0100
0000
0000
0010
0000
0000
1000
0000
0000
0010
0000
0000
0100
0000
0000
0001
0000
0000
1000
0000
0000
0001
0000
0000
0010
0000
0000
0000
0000
0000
0100
0000
1000
0000
0001
0000
1000
0000
0000
0000
0000
0000
0100
0000
1000
0000
0001
0000
,
1000
0100
0010
0100
1000
0001
0100
0010
1000
0010
0100
0001
1000
0001
0010
0100
,
1000
0100
0010
0001
0100
0001
1000
0010
0100
0010
1000
0001
1000
0010
0100
0001
,
0010
0100
0010
0001
1000
0010
1000
0001
0100
0010
0100
0001
1000
0100
1000
0001
,
0010
0100
0010
0001
1000
0010
0100
0001
0100
0010
1000
0001
1000
0100
0010
0001
,
0100
0001
1000
0001
0010
0100
1000
0001
1000
0001
1000
0010
0100
0001
0010
0100
,
0010
0001
1000
0100
1000
0001
0100
0010
1000
0001
0010
0100
0010
0001
1000
0001
,
1000
0010
0100
0001
1000
0001
0010
0100
0010
0100
1000
0100
0010
0001
0100
0010
,
0100
0000
0000
0010
0000
0000
1000
0000
0000
0001
0000
0000
1000
0000
0000
0001
0000
0000
0010
0000
0000
0100
0000
0000
1000
0000
0000
0000
0000
0000
0001
0000
0010
0000
0100
0000
1000
0000
0000
0000
0000
0000
0001
0000
0010
0000
0100
0000
,
1000
0100
1000
0100
0010
0001
1000
0010
1000
0010
0100
0001
0010
0100
0010
0001
,
1000
0010
1000
0010
0100
0001
0100
0001
0010
0100
0010
0001
1000
0010
0100
0001
,
1000
0100
0010
0001
1000
0100
0010
0001
1000
0100
0010
0001
1000
0100
0010
0001
,
1000
0010
0100
0001
1000
0010
0100
0001
1000
0010
0100
0001
1000
0010
0100
0001
,
1000
0100
0010
0001
0010
0100
1000
0001
1000
0100
0010
0001
0010
0100
1000
0001
,
1000
0010
0100
0001
0100
0010
1000
0001
1000
0010
0100
0001
0100
0010
1000
0001
,
0010
0001
1000
0010
1000
0001
0010
0100
0010
0001
1000
0010
1000
0001
0010
0001
,
0100
0010
1000
0100
0010
0001
0100
0010
0100
0001
0010
0100
1000
0010
0100
0001
,
1000
0100
0010
0001
0010
0100
1000
0001
1000
0100
0010
0001
0010
0100
1000
0001
,
0100
0010
1000
0001
1000
0010
0100
0001
0100
0010
1000
0001
1000
0010
0100
0001
,
0010
0100
1000
0001
1000
0100
0010
0001
0010
0100
1000
0001
1000
0100
0010
0001
,
0100
0000
0000
0001
0000
0000
1000
0000
0000
0100
0000
0000
1000
0000
0000
0001
0000
0000
0100
0000
0000
0001
0000
0000
0010
0000
0000
0000
0000
0000
0001
0000
0100
0000
0001
0000
1000
0000
0000
0000
0000
0000
0001
0000
0100
0000
0001
0000
,
1000
0010
0100
0001
0100
0010
1000
0001
1000
0010
0100
0001
0100
0010
1000
0001
,
1000
0100
0010
0001
0010
0100
1000
0001
1000
0100
0010
0001
0010
0100
1000
0001
,
0100
0001
1000
0100
1000
0001
0100
0010
0100
0001
1000
0100
1000
0001
0100
0001
,
0010
0100
1000
0010
0100
0001
0010
0100
0010
0001
0100
0010
1000
0100
0010
0001
,
1000
0010
0100
0001
0100
0010
1000
0001
1000
0100
0010
0001
0010
0100
1000
0001
,
0100
0010
1000
0001
1000
0010
0100
0001
0010
0100
1000
0001
1000
0100
0010
0001
,
0100
0010
1000
0001
1000
0010
0100
0001
0010
0100
1000
0001
1000
0100
0010
0001
,
0010
0000
0000
0100
0000
0000
1000
0000
0000
0001
0000
0000
1000
0000
0000
0100
0000
0000
0010
0000
0000
0001
0000
0000
0100
0000
0000
0000
0000
0000
0001
0000
0010
0000
0001
0000
1000
0000
0000
0000
0000
0000
0001
0000
0010
0000
0001
0000
,
1000
0001
0010
0100
0010
0001
1000
0001
,
0100
0010
1000
0001
1000
0010
0100
0001
,
1000
0100
1000
0010
0100
0001
0010
0100
0010
0001
0100
0010
1000
0100
0010
0001
,
0100
0001
0010
0100
1000
0010
0100
0001
0010
0000
0001
0000
1000
0000
0000
0000
,
2002
0000
0000
0000
,
0000
0000
0000
0000
,
3003
0000
0000
0000
;

//---------------dance-single - 15- (TYLR)----------------
#NOTES:
     dance-single:
     15- (TYLR):
     Hard:
     15:
     1.000,1.000,0.129,1.000,1.000,2102.000,34.000,296.000,4.000,0.000:
0000
0000
0000
0000
,
0000
0000
0000
0000
,
0000
0000
0000
0000
,
0000
0000
0000
0000
,
0000
0000
0000
0000
,
0000
0000
0000
0000
,
0000
0000
0000
0000
,
0000
0000
0000
0000
0000
0000
0000
0000
0000
0000
0000
0000
0000
0000
0000
0001
1000
0001
1000
0000
0000
0001
0010
0100
,
1000
0000
0001
0100
0010
0000
1000
0100
0010
0000
0001
1000
0010
0000
1000
0001
,
0100
0000
0010
1000
0001
0000
0010
0100
1000
0000
0001
1000
0010
0000
0100
0001
,
1000
0000
0001
1000
0100
0000
0010
0001
1000
0000
0001
1000
0010
0000
0100
0001
,
1000
0000
0001
0010
0100
0000
1000
0001
1000
0000
0001
0100
0010
0000
1000
0010
,
010M
0000
0001
0010
0100
0000
1000
0001
1000
0000
0001
1000
0010
0000
0100
0001
,
0100
0000
0010
1000
0001
0000
1000
0001
1000
0000
0001
0010
0100
0000
1000
0100
,
1000
0000
0001
1000
0010
0000
1000
0010
1000
0000
0010
0100
0001
0000
1000
0001
,
1000
0000
0001
0010
0100
0000
1000
0001
1000
0000
0040
0130
0001
0000
0040
0130
,
1000
0002
0013
0002
1003
0020
0130
0020
,
1030
0200
0310
0200
1300
0002
0013
0002
,
1003
0020
0130
0002
1003
0200
0310
0200
,
1300
0020
0130
0002
0013
0200
1300
0002
,
M103
0020
1030
0002
1003
0200
0310
0002
,
0103
0020
1030
0002
0013
0200
1300
0002
,
0103
0020
1030
0002
0013
0200
1300
0002
,
0103
0000
0020
0000
1030
0000
0002
0000
0013
0000
0400
1300
0001
0000
0400
0301
,
1000
0200
0310
0200
1300
0002
0103
0002
,
1003
0020
0130
0020
1030
0002
0013
0002
,
0103
0020
1030
0200
1300
0002
0103
0020
,
0130
0002
1003
0200
0310
0002
1003
0020
,
M130
0002
0013
0002
0103
0020
1030
0200
,
0310
0002
0103
0002
0013
0200
1300
0002
,
1003
0010
0100
0001
1000
0001
0100
0010
1000
0001
1000
0100
0010
0100
1000
0001
,
0010
0001
1000
0001
0100
0010
1000
0010
0100
0001
0010
0100
1000
0001
0100
0001
,
2000
0000
3000
0000
0000
0000
2000
3000
0000
0000
0000
0000
0000
0000
0000
0000
,
0200
0000
0300
0000
0000
0000
0200
0300
0000
0000
0000
0000
0000
0000
0000
0000
,
0020
0000
0030
0000
0000
0000
0020
0030
0000
0000
0000
0000
0000
0000
0000
0000
,
0002
0000
0003
0000
0000
0000
0002
0003
0000
0000
0000
0000
0000
0000
0000
0000
,
0200
0000
0300
0000
0000
0000
0200
0300
0000
0000
0000
0000
0000
0000
0000
0000
,
0002
0000
0003
0000
0000
0000
0002
0003
0000
0000
0000
0000
0000
0000
0000
0000
,
1000
0100
0010
0001
1000
0100
0010
0001
1000
0100
0010
0001
1000
0100
0010
0001
,
1000
0000
0000
0000
0000
0000
0000
0000
0002
0003
0200
0300
0020
0030
0000
0000
0000
0000
0000
0000
0000
0000
0000
0000
2000
3000
0002
0003
0020
0030
0000
0000
,
0100
1000
101M
0010
0100
0001
1000
0100
,
1000
0001
0100
0010
1000
0001
0010
0100
,
1000
0001
0100
0010
1000
0001
0010
0100
,
1000
0001
1000
0010
0100
0001
0100
0010
,
1000
0001
0010
0100
1000
0001
0100
0001
,
1000
0100
0010
0001
1000
0001
0010
0100
,
1000
0000
0000
0001
0000
0000
0000
0000
,
0010
0000
0000
0100
0000
0000
0000
0000
,
2001
3001
0010
0100
0200
1300
0001
0100
,
0020
0130
0001
1000
2000
3100
0010
0001
,
0200
0301
0020
0130
2000
3001
0200
0320
,
1030
0000
0001
0000
0010
0000
0100
0000
0010
0000
0001
0000
1000
0010
0100
0001
,
2000
3100
0010
0020
0031
0200
0301
1000
,
0020
0230
0302
2003
3100
0010
0001
1000
,
0020
0130
0001
2000
3100
0020
0130
2000
,
3001
0000
0010
0100
1000
0001
0100
0010
1000
0001
0040
0130
1000
0000
0040
0130
,
0001
1000
1010
0010
0100
0001
1001
1000
,
0100
0010
0011
0001
1000
0010
0110
0100
,
0001
1000
1100
0100
0010
0001
1001
1000
,
0010
0100
0101
0001
0010
0100
1100
1000
,
2001
3001
0100
0210
0310
1000
2100
3100
,
0220
0330
0022
0033
0202
0303
0220
0330
,
1000
0010
0100
0001
1000
0001
0100
0010
1000
0001
0010
0001
1000
0010
0100
0001
,
0010
0001
0100
0010
1000
0100
0010
0001
0100
0001
0010
0100
2000
0000
3000
0000
,
0001
1000
0001
0010
0100
1000
0010
0100
0001
0100
0010
1000
0001
1000
0100
0010
,
0001
0010
0100
1000
0010
1000
0001
0100
0010
0100
0001
1000
0001
0100
0010
1000
,
0100
0010
0100
1000
0001
0100
0001
1000
0010
0100
0010
1000
0001
0010
0001
1000
,
0010
0100
0001
1000
0001
0100
0010
1000
0001
1000
0100
0010
0100
1000
0010
0100
,
0010
1000
0001
1000
0010
0100
0001
0010
0001
1000
0010
0100
0001
0100
0010
1000
,
0001
1000
0001
1000
0100
0010
0001
1000
0001
0100
0010
0100
0001
1000
0100
0010
,
0001
0010
0100
1000
0001
0010
0001
1000
0001
0010
0100
1000
0001
1000
0100
1000
,
0010
0100
0001
0100
0010
1000
0001
0010
0100
1000
0010
0100
0001
0100
0010
1000
,
0100
0010
0001
0010
0100
1000
0010
0100
0001
0100
0010
1000
0001
1000
0100
0010
,
0001
0010
0100
1000
0010
1000
0001
0100
0010
0100
0001
1000
0001
0100
0010
1000
,
0100
0010
0100
1000
0001
0100
0001
1000
0010
0100
0010
1000
0001
0010
0001
1000
,
0100
0010
0100
1000
0001
0100
0001
1000
0100
0010
0001
0100
0001
1000
0100
0010
,
0100
1000
0001
0010
0001
0100
0010
0100
0001
1000
0010
0100
0001
0100
0010
1000
,
0001
1000
0001
1000
0100
0010
0001
1000
0001
0100
0010
0100
0001
1000
0100
0010
,
0001
0010
0100
1000
0001
0010
0001
1000
0001
0010
0100
1000
0001
1000
0100
1000
,
0010
0100
0001
0100
0010
1000
0001
1000
0100
0010
0001
0100
0010
0100
0001
0010
,
0100
1000
0100
0010
0001
1000
0010
0100
0001
0100
0010
1000
0001
1000
0100
0010
,
0001
0010
0100
1000
0010
1000
0001
0100
0010
0100
0001
1000
0001
0100
0010
1000
,
0100
0010
0100
1000
0001
0100
0001
1000
0010
0100
0010
1000
0001
0010
0001
1000
,
0010
0100
0001
1000
0001
0100
0010
1000
0001
1000
0100
0010
0100
1000
0010
0100
,
0010
1000
0001
1000
0010
0100
0001
0010
0001
1000
0010
0100
0001
0100
0010
1000
,
0001
1000
0001
1000
0100
0010
0001
1000
0001
0100
0010
0100
0001
1000
0100
0010
,
0001
0010
0100
1000
0001
0010
0001
1000
0001
0010
0100
1000
0001
1000
0100
1000
,
0010
0100
0001
0100
0010
1000
0001
1000
0100
0010
0001
1000
0010
1000
0001
0010
,
0100
1000
0100
0010
0001
1000
0010
0100
0001
0100
0010
1000
0001
1000
0100
0010
,
0001
0010
0100
1000
0010
1000
0001
0100
0010
0100
0001
1000
0001
0100
0010
1000
,
0100
0010
0100
1000
0001
0100
0001
1000
0010
0100
0010
1000
0001
0010
0001
1000
,
0100
0010
0100
1000
0001
0100
0001
0100
0010
1000
0001
0010
0001
1000
0001
0100
,
0010
1000
0001
1000
0100
0010
0001
1000
0001
1000
0001
0100
0010
1000
0100
0010
,
0100
1000
0001
0010
0001
1000
0010
0100
0001
1000
0100
0010
0100
1000
0001
1000
,
0001
0100
0010
1000
0001
1000
0100
0010
0100
0010
0001
0010
0100
1000
0010
0100
,
0010
0100
0001
1000
0001
1000
0100
0010
0001
1000
0010
0100
0001
0100
0010
1000
,
0001
0010
0001
0010
0100
1000
0001
0100
0001
0100
0010
1000
0100
0010
0100
1000
,
0001
0100
0001
0100
0010
1000
0010
1000
0100
0010
0100
1000
0001
0100
0010
1000
,
0001
0010
0100
1000
0001
0010
0100
1000
0001
0010
0100
1000
0001
0010
0100
1000
,
0001
0100
0010
1000
0001
0100
0010
1000
0001
0100
0010
1000
0001
0100
0010
1000
,
0002
0023
0230
2300
3001
0200
0301
2000
,
3200
0320
0032
2003
3001
0200
0320
2030
,
3200
0310
0002
1003
0020
0130
0002
1003
,
0200
0000
0320
0000
0032
0000
0023
0000
0230
0000
1300
0002
0103
0000
0020
0000
,
1030
0010
0100
0002
1003
0200
0320
0230
,
2300
3001
0200
0302
0013
0200
1300
0002
,
0103
0010
2000
3002
2003
3010
0100
0002
,
0023
0000
0130
0000
2000
0000
3002
0000
1003
0000
0040
0130
0001
0000
0040
0130
,
2000
3200
0320
0032
1003
0020
1030
0002
,
0023
0230
2300
3002
1003
0020
0230
0302
,
0023
0130
2000
3001
0200
0310
2000
3001
,
0020
0031
2000
3020
0130
0002
1003
1000
,
0200
0320
0032
0203
0301
0020
0230
2300
,
3001
0200
0302
0023
0032
1003
0020
1030
,
0200
0320
0032
0203
0301
2000
3200
0320
,
0031
0000
2000
0000
3002
0000
2003
0000
3020
0000
0430
0301
1000
0000
0400
0310
,
0002
0103
0001
0020
0130
0010
0002
1003
,
0020
0130
0010
0100
0002
0203
0320
2030
,
3001
0010
0100
1000
0001
0010
0100
1000
0001
0010
0100
1000
0001
0010
0100
1000
,
0001
0100
0010
1000
0100
1000
0010
0100
0001
0000
1000
0000
0001
0000
0000
0000
,
2001
3000
0200
0300
0020
0030
0002
0000
0000
0003
2000
0000
0000
3000
0020
0030
,
0200
0300
0002
0003
0020
0030
0200
0000
0000
0300
2000
3000
0200
0300
0020
0030
,
0002
0000
0000
0003
2000
0000
0000
3000
0020
0000
0000
0030
0200
0000
0000
0300
,
0002
0003
2000
3000
2000
3000
2000
3000
0200
0300
0000
0020
0030
0000
0002
0000
,
0000
0000
0000
0000
0000
0003
0200
0000
0000
0300
0002
0003
0002
0003
0002
0003
,
2000
0000
0000
3000
0200
0300
2000
0000
0000
3000
0020
0000
0000
0030
0200
0000
,
0000
0000
0000
0300
0002
0003
0200
0300
0002
0000
0003
0000
0000
0000
2000
3000
,
0200
0300
0200
0300
2000
3000
0002
0000
0003
0000
0200
0000
0300
0000
0000
0000
,
0020
0030
0020
0030
2000
3000
0200
0000
0000
0300
0020
0000
0000
0030
0002
0003
,
2000
3000
0002
0003
0200
0300
0020
0000
0000
0030
2000
3000
0020
0030
0200
0300
,
0002
0000
0000
0003
2000
0000
0000
3000
0200
0000
0000
0300
0020
0000
0000
0030
,
0002
0000
0000
0003
2000
3000
0002
0000
0000
0003
0200
0000
0000
0300
0000
0000
,
0020
0030
2000
3000
0200
0300
0020
0000
0000
0030
0200
0300
2000
3000
0020
0000
,
0000
0030
0200
0300
0002
0003
2000
3000
0002
0003
0200
0300
0020
0030
0000
0000
,
2000
3000
0200
0300
0020
0030
0002
0000
0000
0003
0200
0300
0020
0030
2000
0000
,
0000
3000
0002
0003
2000
3000
0200
0300
0020
0030
0002
0003
0000
0000
0000
0000
,
2000
0000
0000
0000
0000
3000
0020
0000
0000
0000
0000
0030
0200
0000
0000
0300
,
0002
0000
0003
0000
0000
0000
0000
0000
0020
0030
0200
0300
2000
3000
0002
0000
,
1000
1000
1000
1000
,
4000
0000
0000
0000
3003
0000
2002
3003
,
1000
0001
1000
0100
0010
0001
0100
0010
1000
0010
0100
0001
1000
0001
0010
0100
,
1000
0100
0010
0001
0100
0001
1000
0010
0100
0010
1000
0001
1000
0010
0100
0001
,
0010
0100
0010
0001
1000
0010
1000
0001
0100
0010
0100
0001
1000
0100
1000
0001
,
0100
0010
1000
0001
1000
0010
0100
0001
1000
0001
0010
0100
0010
0001
0100
0010
,
0100
0001
1000
0001
0100
0010
1000
0100
1000
0001
0100
0010
1000
0010
0100
0001
,
1000
0001
1000
0001
0010
0100
1000
0001
1000
0010
0100
0010
1000
0001
0010
0100
,
1000
0100
0010
0001
1000
0100
1000
0001
1000
0100
0010
0001
1000
0001
0010
0001
,
0100
0010
1000
0010
0100
0001
1000
0100
0010
0001
0100
0010
1000
0010
0100
0001
,
0010
0100
1000
0100
0010
0001
0100
0010
1000
0010
0100
0001
1000
0001
0010
0100
,
1000
0100
0010
0001
0100
0001
1000
0010
0100
0010
1000
0001
1000
0010
0100
0001
,
0010
0100
0010
0001
1000
0010
1000
0001
0100
0010
0100
0001
1000
0100
1000
0001
,
0010
0100
0010
0001
1000
0010
1000
0001
0010
0100
1000
0010
1000
0001
0010
0100
,
0010
0001
1000
0100
1000
0010
0100
0010
1000
0001
0100
0010
1000
0010
0100
0001
,
1000
0001
1000
0001
0010
0100
1000
0001
1000
0010
0100
0010
1000
0001
0010
0100
,
1000
0100
0010
0001
1000
0100
1000
0001
1000
0100
0010
0001
1000
0001
0010
0001
,
0100
0010
1000
0010
0100
0001
1000
0001
0010
0100
1000
0010
0100
0010
1000
0100
,
0010
0001
0010
0100
1000
0001
0100
0010
1000
0010
0100
0001
1000
0001
0010
0100
,
1000
0100
0010
0001
0100
0001
1000
0010
0100
0010
1000
0001
1000
0010
0100
0001
,
0010
0100
0010
0001
1000
0010
1000
0001
0100
0010
0100
0001
1000
0100
1000
0001
,
0100
0010
1000
0001
1000
0010
0100
0001
1000
0001
0010
0100
0010
0001
0100
0010
,
0100
0001
1000
0001
0100
0010
1000
0100
1000
0001
0100
0010
1000
0010
0100
0001
,
1000
0001
1000
0001
0010
0100
1000
0001
1000
0010
0100
0010
1000
0001
0010
0100
,
1000
0100
0010
0001
1000
0100
1000
0001
1000
0100
0010
0001
1000
0001
0010
0001
,
0100
0010
1000
0010
0100
0001
1000
0001
0010
0100
1000
0010
0100
0001
0010
0100
,
1000
0001
0010
0001
1000
0001
0100
0010
1000
0010
0100
0001
1000
0001
0010
0100
,
1000
0100
0010
0001
0100
0001
1000
0010
0100
0010
1000
0001
1000
0010
0100
0001
,
0010
0100
0010
0001
1000
0010
1000
0001
0100
0010
0100
0001
1000
0100
1000
0001
,
0010
0100
0010
0001
1000
0010
0100
0001
0100
0010
1000
0001
1000
0100
0010
0001
,
0100
0001
1000
0001
0010
0100
1000
0001
1000
0001
1000
0010
0100
0001
0010
0100
,
0010
0001
1000
0100
1000
0001
0100
0010
1000
0001
0010
0100
0010
0001
1000
0001
,
1000
0010
0100
0001
1000
0001
0010
0100
0010
0100
1000
0100
0010
0001
0100
0010
,
0100
0010
1000
0001
1000
0001
0010
0100
1000
0010
0100
0001
1000
0010
0100
0001
,
1000
0100
1000
0100
0010
0001
1000
0010
1000
0010
0100
0001
0010
0100
0010
0001
,
1000
0010
1000
0010
0100
0001
0100
0001
0010
0100
0010
0001
1000
0010
0100
0001
,
1000
0100
0010
0001
1000
0100
0010
0001
1000
0100
0010
0001
1000
0100
0010
0001
,
1000
0010
0100
0001
1000
0010
0100
0001
1000
0010
0100
0001
1000
0010
0100
0001
,
1000
0000
0001
0010
0000
0001
1000
0000
0001
0000
0010
0001
0000
1000
0001
0000
,
0100
0000
0010
1000
0000
0001
1000
0000
0010
0000
0100
0001
0000
0100
0010
0000
,
1000
0000
0100
0010
0000
0100
1000
0000
0001
0000
0010
0100
0000
0010
0001
0000
,
0100
0000
0010
1000
0000
0001
1000
0000
0100
0000
0010
0001
0000
0010
0100
0000
,
1000
0000
0001
0100
0000
0001
1000
0000
0001
0000
0100
0001
0000
1000
0001
0000
,
0010
0000
0001
1000
0000
0100
1000
0000
0001
0000
1000
0100
0000
0010
0001
0000
,
0100
0000
0010
1000
0000
0001
1000
0000
0010
0000
0100
0001
0000
1000
0001
0000
,
0010
0000
0100
1000
0000
0100
0010
0000
0001
0000
0400
0310
1000
0000
0400
0310
,
0001
0000
1000
0100
0000
1000
0001
0000
1000
0000
0100
1000
0000
0001
1000
0000
,
0010
0000
0100
0001
0000
1000
0001
0000
0100
0000
0010
1000
0000
0010
0100
0000
,
0001
0000
0010
0100
0000
0010
0001
0000
1000
0000
0100
0010
0000
0100
1000
0000
,
0010
0000
0100
0001
0000
1000
0001
0000
0010
0000
0100
1000
0000
0100
0010
0000
,
0001
0000
1000
0001
0000
0010
0001
0000
0100
0000
0001
1000
0000
0001
0100
0000
,
0010
0000
1000
0001
0000
1000
0100
0000
0010
0000
0001
1000
0000
0001
0010
0000
,
0100
0000
1000
0001
0000
0100
0001
0000
0010
0000
0100
1000
0000
0100
0010
0000
,
0001
0000
0100
0010
0000
0100
0001
0000
0010
0000
0400
1300
0010
0000
0400
0301
,
1000
0001
0010
0100
0010
0001
1000
0001
,
0100
0010
1000
0001
1000
0010
0100
0001
,
1000
0100
1000
0010
0100
0001
0010
0100
0010
0001
0100
0010
1000
0100
0010
0001
,
0100
0010
1000
0100
0010
0100
1000
0010
0100
0000
0001
0000
1000
0000
0000
0000
,
2002
0000
0000
0000
,
0000
0000
0000
0000
,
3003
0000
0000
0000
;

//---------------dance-single - 14 (ConTYLR)----------------
#NOTES:
     dance-single:
     14 (ConTYLR):
     Medium:
     14:
     1.000,1.000,0.182,1.000,1.000,1878.000,48.000,360.000,3.000,0.000:
0000
0000
0000
0000
,
0000
0000
0000
0000
,
0000
0000
0000
0000
,
0000
0000
0000
0000
,
0000
0000
0000
0000
,
0000
0000
0000
0000
,
0000
0000
0000
0000
,
0000
0000
0000
0000
0000
0004
1003
0004
,
1003
0100
0010
0100
0010
0001
1000
0010
,
0100
0001
1000
0100
0010
0100
1000
0001
,
1000
0100
0010
0001
0100
0001
0010
0001
,
1000
0100
0010
0100
0010
0001
1000
0010
,
1000
0100
1000
0001
0100
0010
1000
0100
,
0010
0001
0010
0100
0010
0001
0100
0010
,
1000
0001
0100
0001
1000
0100
0010
0100
,
1000
0100
0010
0001
1000
0040
0130
0040
,
1030
0002
0013
0002
1003
0020
0130
0020
,
1030
0200
0310
0200
1300
0002
0013
0002
,
1003
0020
0130
0002
1003
0200
0310
0200
,
1300
0020
0130
0002
0013
0200
1300
0002
,
M103
0020
1030
0002
1003
0200
0310
0002
,
0103
0020
1030
0002
0013
0200
1300
0002
,
0103
0020
1030
0002
0013
0200
1300
0002
,
0103
0020
1030
0002
0013
0400
1300
0040
,
1030
0200
0310
0200
1300
0002
0103
0002
,
1003
0020
0130
0020
1030
0002
0013
0002
,
0103
0020
1030
0200
1300
0002
0103
0020
,
0130
0002
1003
0200
0310
0002
1003
0020
,
M130
0002
0013
0002
0103
0020
1030
0200
,
0310
0002
0103
0002
0013
0200
1300
0002
,
1003
0010
0100
0001
1000
0001
0100
0010
1000
0001
1000
0100
0010
0100
1000
0001
,
0010
0001
1000
0001
0100
0010
1000
0010
0100
0001
0010
0100
1000
0001
0100
0001
,
2000
0000
3000
0000
0000
0000
2000
3000
0000
0000
0000
0000
0000
0000
0000
0000
,
0200
0000
0300
0000
0000
0000
0200
0300
0000
0000
0000
0000
0000
0000
0000
0000
,
0020
0000
0030
0000
0000
0000
0020
0030
0000
0000
0000
0000
0000
0000
0000
0000
,
0002
0000
0003
0000
0000
0000
0002
0003
0000
0000
0000
0000
0000
0000
0000
0000
,
0200
0000
0300
0000
0000
0000
0200
0300
0000
0000
0000
0000
0000
0000
0000
0000
,
0002
0000
0003
0000
0000
0000
0002
0003
0000
0000
0000
0000
0000
0000
0000
0000
,
1000
0100
0010
0001
1000
0100
0010
0001
1000
0100
0010
0001
1000
0100
0010
0001
,
1000
0000
0000
0000
0000
0000
0000
0000
0002
0003
0200
0300
0020
0030
0000
0000
0000
0000
0000
0000
0000
0000
0000
0000
2000
3000
0002
0003
0020
0030
0000
0000
,
0100
1000
101M
0010
0100
0001
1000
0100
,
1000
0001
0100
0010
1000
0001
0010
0100
,
1000
0001
0100
0010
1000
0001
0010
0100
,
1000
0001
1000
0010
0100
0001
0100
0010
,
1000
0001
0010
0100
1000
0001
0100
0001
,
1000
0100
0010
0001
1000
0001
0010
0100
,
1000
0000
0000
0001
0000
0000
0000
0000
,
0010
0000
0000
0100
0000
0000
0000
0000
,
2001
3001
0010
0100
0200
1300
0001
0100
,
0020
0130
0001
1000
2000
3100
0010
0001
,
0200
0301
0020
0130
2000
3001
0200
0320
,
1030
0001
0010
0100
0010
0001
2000
3020
,
2030
3100
0010
0020
0031
0200
0301
1000
,
0020
0230
0302
2003
3100
0010
0001
1000
,
0020
0130
0001
2000
3100
0020
0130
2000
,
3001
0000
0010
0100
1000
0001
0100
0010
1000
0001
0040
0000
0130
0000
0040
0000
,
0031
1000
1010
0010
0100
0001
1001
1000
,
0100
0010
0011
0001
1000
0010
0110
0100
,
0001
1000
1100
0100
0010
0001
1001
1000
,
0010
0100
0101
0001
0010
0100
1100
1000
,
2001
3001
0100
0210
0310
1000
2100
3100
,
0220
0330
0022
0033
0202
0303
0220
0330
,
1000
0010
0100
0001
1000
0001
0100
0010
1000
0001
0010
0001
1000
0010
0100
0001
,
0010
0001
0100
0010
1000
0100
0010
0001
0100
0001
0010
0100
2000
0000
3000
0000
,
0001
1000
0001
0010
0100
1000
0010
0100
0001
0100
0010
1000
0001
1000
0100
0010
,
0001
0010
0100
1000
0010
1000
0001
0100
0010
0100
0001
1000
0001
0100
0010
1000
,
0100
0010
0100
1000
0001
0100
0001
1000
0010
0100
0010
1000
0001
0010
0001
1000
,
0010
0100
0001
1000
0001
0100
0010
1000
0001
1000
0100
0010
0100
1000
0010
0100
,
0010
1000
0001
1000
0010
0100
0001
0010
0001
1000
0010
0100
0001
0100
0010
1000
,
0001
1000
0001
1000
0100
0010
0001
1000
0001
0100
0010
0100
0001
1000
0100
0010
,
0001
1000
0020
0230
0302
1003
0100
0020
,
0032
0023
0032
2003
3010
0400
0301
4000
,
3001
0010
0001
0010
0100
1000
0010
0100
0001
0100
0010
1000
0001
1000
0100
0010
,
0001
0010
0100
1000
0010
1000
0001
0100
0010
0100
0001
1000
0001
0100
0010
1000
,
0100
0010
0100
1000
0001
0100
0001
1000
0010
0100
0010
1000
0001
0010
0001
1000
,
0100
0010
0100
1000
0001
0100
0001
1000
0100
0010
0001
0100
0001
1000
0100
0010
,
0100
1000
0001
0010
0001
0100
0010
0100
0001
1000
0010
0100
0001
0100
0010
1000
,
0001
1000
0001
1000
0100
0010
0001
1000
0001
0100
0010
0100
0001
1000
0100
0010
,
0001
0100
0002
0023
0032
0103
0010
2000
,
3200
0310
0002
0203
0310
4000
3001
0400
,
0301
1000
0100
0010
0001
1000
0010
0100
0001
0100
0010
1000
0001
1000
0100
0010
,
0001
0010
0100
1000
0010
1000
0001
0100
0010
0100
0001
1000
0001
0100
0010
1000
,
0100
0010
0100
1000
0001
0100
0001
1000
0010
0100
0010
1000
0001
0010
0001
1000
,
0010
0100
0001
1000
0001
0100
0010
1000
0001
1000
0100
0010
0100
1000
0010
0100
,
0010
1000
0001
1000
0010
0100
0001
0010
0001
1000
0010
0100
0001
0100
0010
1000
,
0001
1000
0001
1000
0100
0010
0001
1000
0001
0100
0010
0100
0001
1000
0100
0010
,
0001
1000
0020
0230
0302
1003
0100
0020
,
0032
0023
0032
2003
3010
0400
0301
4000
,
3001
1000
0100
0010
0001
1000
0010
0100
0001
0100
0010
1000
0001
1000
0100
0010
,
0001
0010
0100
1000
0010
1000
0001
0100
0010
0100
0001
1000
0001
0100
0010
1000
,
0100
0010
0100
1000
0001
0100
0001
1000
0010
0100
0010
1000
0001
0010
0001
1000
,
0100
0010
0100
1000
0001
0100
0001
0100
0010
1000
0001
0010
0001
1000
0001
0100
,
0010
1000
0001
1000
0100
0010
0001
1000
0001
1000
0001
0100
0010
1000
0100
0010
,
0100
1000
0001
0010
0001
1000
0010
0100
0001
1000
0100
0010
0100
1000
0001
1000
,
0001
0100
0010
1000
0001
1000
0100
0010
0100
0010
0001
0010
0100
1000
0010
0100
,
0010
0100
0001
1000
0001
1000
0100
0010
0001
1000
0010
0100
0001
0100
0010
1000
,
0002
0010
0013
0200
1000
1300
0002
1003
,
0020
0130
0001
1000
0200
0320
0032
2003
,
3001
0010
0100
0010
0001
1000
0010
0100
,
0001
1000
0100
0010
0100
1000
0001
0100
,
0002
0023
0230
2300
3001
0200
0301
2000
,
3200
0320
0032
2003
3001
0200
0320
2030
,
3200
0310
0002
1003
0020
0130
0002
1003
,
0200
0000
0320
0000
0032
0000
0023
0000
0230
0000
1300
0002
0103
0000
0020
0000
,
1030
0010
0100
0002
1003
0200
0320
0230
,
2300
3001
0200
0302
0013
0200
1300
0002
,
0103
0010
2000
3002
2003
3010
0100
0002
,
0023
0130
2000
3002
1003
0040
0130
0040
,
2030
3200
0320
0032
1003
0020
1030
0002
,
0023
0230
2300
3002
1003
0020
0230
0302
,
0023
0130
2000
3001
0200
0310
2000
3001
,
0020
0031
2000
3020
0130
0002
1003
1000
,
0200
0320
0032
0203
0301
0020
0230
2300
,
3001
0200
0302
0023
0032
1003
0020
1030
,
0200
0320
0032
0203
0301
2000
3200
0320
,
0031
2000
3002
2003
3020
0430
0301
4000
,
3002
0103
0001
0020
0130
0010
0002
1003
,
0020
0130
0010
0100
0002
0203
0320
2030
,
3001
0010
0100
1000
0001
0010
0100
1000
0001
0010
0100
1000
0001
0010
0100
1000
,
0001
0100
0010
1000
0100
1000
0010
0100
0001
0000
1000
0000
0001
0000
0000
0000
,
2001
3000
0200
0300
0020
0030
0002
0000
0000
0003
2000
0000
0000
3000
0020
0030
,
0200
0300
0002
0003
0020
0030
0200
0000
0000
0300
2000
3000
0200
0300
0020
0030
,
0002
0000
0000
0003
2000
0000
0000
3000
0020
0000
0000
0030
0200
0000
0000
0300
,
0002
0003
2000
3000
2000
3000
2000
3000
0200
0300
0000
0020
0030
0000
0002
0000
,
0000
0000
0000
0000
0000
0003
0200
0000
0000
0300
0002
0003
0002
0003
0002
0003
,
2000
0000
0000
3000
0200
0300
2000
0000
0000
3000
0020
0000
0000
0030
0200
0000
,
0000
0000
0000
0300
0002
0003
0200
0300
0002
0000
0003
0000
0000
0000
2000
3000
,
0200
0300
0200
0300
2000
3000
0002
0000
0003
0000
0200
0000
0300
0000
0000
0000
,
0020
0030
0020
0030
2000
3000
0200
0000
0000
0300
0020
0000
0000
0030
0002
0003
,
2000
3000
0002
0003
0200
0300
0020
0000
0000
0030
2000
3000
0020
0030
0200
0300
,
0002
0000
0000
0003
2000
0000
0000
3000
0200
0000
0000
0300
0020
0000
0000
0030
,
0002
0000
0000
0003
2000
3000
0002
0000
0000
0003
0200
0000
0000
0300
0000
0000
,
0020
0030
2000
3000
0200
0300
0020
0000
0000
0030
0200
0300
2000
3000
0020
0000
,
0000
0030
0200
0300
0002
0003
2000
3000
0002
0003
0200
0300
0020
0030
0000
0000
,
2000
3000
0200
0300
0020
0030
0002
0000
0000
0003
0200
0300
0020
0030
2000
0000
,
0000
3000
0002
0003
2000
3000
0200
0300
0020
0030
0002
0003
0000
0000
0000
0000
,
2000
0000
0000
0000
0000
3000
0020
0000
0000
0000
0000
0030
0200
0000
0000
0300
,
0002
0000
0003
0000
0000
0000
0000
0000
0020
0030
0200
0300
2000
3000
0002
0000
,
1000
1000
1000
1000
,
4000
0000
0000
0000
3003
0000
2002
3003
,
1000
0001
1000
0100
0010
0001
0100
0010
1000
0010
0100
0001
1000
0001
0010
0100
,
1000
0100
0010
0001
0100
0001
1000
0010
0100
0010
1000
0001
1000
0010
0100
0001
,
0010
0100
0010
0001
1000
0010
1000
0001
0100
0010
0100
0001
1000
0100
1000
0001
,
0100
0010
1000
0001
1000
0010
0100
0001
1000
0001
0010
0100
0010
0001
0100
0010
,
0100
0001
1000
0001
0100
0010
1000
0100
1000
0001
0100
0010
1000
0010
0100
0001
,
1000
0001
1000
0001
0010
0100
1000
0001
1000
0010
0100
0010
1000
0001
0010
0100
,
1000
0001
0200
0320
2030
3001
0010
0200
,
2300
3200
2300
3002
0103
0040
1030
0004
,
1003
0100
1000
0100
0010
0001
0100
0010
1000
0010
0100
0001
1000
0001
0010
0100
,
1000
0100
0010
0001
0100
0001
1000
0010
0100
0010
1000
0001
1000
0010
0100
0001
,
0010
0100
0010
0001
1000
0010
1000
0001
0100
0010
0100
0001
1000
0100
1000
0001
,
0010
0100
0010
0001
1000
0010
1000
0001
0010
0100
1000
0010
1000
0001
0010
0100
,
0010
0001
1000
0100
1000
0010
0100
0010
1000
0001
0100
0010
1000
0010
0100
0001
,
1000
0001
1000
0001
0010
0100
1000
0001
1000
0010
0100
0010
1000
0001
0010
0100
,
1000
0010
2000
3200
2300
3010
0100
0002
,
0023
0130
2000
3020
0130
0004
1003
0040
,
1030
0001
0010
0100
1000
0001
0100
0010
1000
0010
0100
0001
1000
0001
0010
0100
,
1000
0100
0010
0001
0100
0001
1000
0010
0100
0010
1000
0001
1000
0010
0100
0001
,
0010
0100
0010
0001
1000
0010
1000
0001
0100
0010
0100
0001
1000
0100
1000
0001
,
0100
0010
1000
0001
1000
0010
0100
0001
1000
0001
0010
0100
0010
0001
0100
0010
,
0100
0001
1000
0001
0100
0010
1000
0100
1000
0001
0100
0010
1000
0010
0100
0001
,
1000
0001
1000
0001
0010
0100
1000
0001
1000
0010
0100
0010
1000
0001
0010
0100
,
1000
0001
0200
0320
2030
3001
0010
0200
,
2300
3200
2300
3002
0103
0040
1030
0004
,
1003
0001
0010
0100
1000
0001
0100
0010
1000
0010
0100
0001
1000
0001
0010
0100
,
1000
0100
0010
0001
0100
0001
1000
0010
0100
0010
1000
0001
1000
0010
0100
0001
,
0010
0100
0010
0001
1000
0010
1000
0001
0100
0010
0100
0001
1000
0100
1000
0001
,
0010
0100
0010
0001
1000
0010
1000
0010
0100
0001
1000
0100
1000
0001
1000
0010
,
0100
0001
1000
0001
0010
0100
1000
0001
1000
0001
1000
0010
0100
0001
0010
0100
,
0010
0001
1000
0100
1000
0001
0100
0010
1000
0001
0010
0100
0010
0001
1000
0001
,
1000
0010
0100
0001
1000
0001
0010
0100
0010
0100
1000
0100
0010
0001
0100
0010
,
0100
0010
1000
0001
1000
0001
0010
0100
1000
0001
0100
0010
1000
0010
0100
0001
,
2000
0100
3100
0020
0001
0031
2000
3001
,
0200
0310
1000
0001
0020
0230
2300
3002
,
1003
0100
0010
0100
1000
0001
0100
0010
,
1000
0001
0010
0100
0010
0001
1000
0010
,
1000
0000
0001
0010
0000
0001
1000
0000
0001
0000
0010
0001
0000
1000
0001
0000
,
0100
0000
0010
1000
0000
0001
1000
0000
0010
0000
0100
0001
0000
0100
0010
0000
,
1000
0000
0100
0010
0000
0100
1000
0000
0001
0000
0010
0100
0000
0010
0001
0000
,
0100
0000
0010
1000
0000
0001
1000
0000
0100
0000
0010
0001
0000
0010
0100
0000
,
1000
0000
0001
0100
0000
0001
1000
0000
0001
0000
0100
0001
0000
1000
0001
0000
,
0010
0000
0001
1000
0000
0100
1000
0000
0001
0000
1000
0100
0000
0010
0001
0000
,
0100
0000
0010
1000
0000
0001
1000
0000
0010
0000
0100
0001
0000
1000
0001
0000
,
0010
0000
0100
1000
0000
0100
0010
0000
0001
0000
0400
0000
0310
0000
0400
0000
,
0301
0000
1000
0100
0000
1000
0001
0000
1000
0000
0100
1000
0000
0001
1000
0000
,
0010
0000
0100
0001
0000
1000
0001
0000
0100
0000
0010
1000
0000
0010
0100
0000
,
0001
0000
0010
0100
0000
0010
0001
0000
1000
0000
0100
0010
0000
0100
1000
0000
,
0010
0000
0100
0001
0000
1000
0001
0000
0010
0000
0100
1000
0000
0100
0010
0000
,
0001
0000
1000
0001
0000
0010
0001
0000
0100
0000
0001
1000
0000
0001
0100
0000
,
0010
0000
1000
0001
0000
1000
0100
0000
0010
0000
0001
1000
0000
0001
0010
0000
,
0100
0000
1000
0001
0000
0100
0001
0000
0010
0000
0100
1000
0000
0100
0010
0000
,
0001
0000
0100
0010
0000
0100
0001
0000
0010
0000
0400
0000
0310
0000
0400
0000
,
1300
0001
0010
0100
0010
0001
1000
0001
,
0100
0010
1000
0001
1000
0010
0100
0001
,
1000
0100
1000
0010
0100
0001
0010
0100
0010
0001
0100
0010
1000
0100
0010
0001
,
0100
0010
1000
0100
0010
0100
1000
0010
0100
0000
0001
0000
1000
0000
0000
0000
,
2002
0000
0000
0000
,
0000
0000
0000
0000
,
3003
0000
0000
0000
;
