#TITLE:Bokura No 16Bits Warz;
#SUBTITLE:EXoduz Violation II;
#ARTIST:sasakure.UK;
#TITLETRANSLIT:;
#SUBTITLETRANSLIT:;
#ARTISTTRANSLIT:;
#CREDIT:;
#BANNER:../Banner.png;
#BACKGROUND:../Background.png;
#LYRICSPATH:;
#CDTITLE:;
#MUSIC:Bokura No 16Bits Warz.ogg;
#OFFSET:-2.336;
#SAMPLESTART:96.135;
#SAMPLELENGTH:12.000;
#SELECTABLE:YES;
#DISPLAYBPM:244.000;
#BPMS:0.000=244.000;
#STOPS:;
#BGCHANGES:;
// cache tags:
#FIRSTBEAT:4.000;
#LASTBEAT:944.500;
#SONGFILENAME:Songs/EXoduz Violation II/Bokura No 16Bits Warz - [Ov3rHell3XoduZ]/sm.sm;
#HASMUSIC:1;
#HASBANNER:1;
#MUSICLENGTH:240.149;
// end cache tags

//---------------dance-single - ----------------
#NOTES:
     dance-single:
     :
     Beginner:
     13:
     1.000,1.000,0.246,1.000,0.737,1459.000,59.000,508.000,0.000,0.000:
0000
0000
0000
0000
,
1000
0001
1000
0010
0100
0001
0010
0200
,
0000
2300
0000
3010
0100
0001
0010
0100
,
1000
0001
0100
0002
0000
0203
0000
0301
,
1000
0010
0100
0001
0010
0100
1000
0200
,
0000
0320
0000
0031
1000
0010
0100
0001
,
0010
0100
1000
0002
0000
2003
0000
3010
,
0200
0301
0010
0100
1000
0001
0100
0002
,
0000
2003
0000
3010
0200
0301
0010
0100
,
1000
0001
0100
0002
0000
2003
0000
3010
,
0200
0301
0010
0100
1000
0001
1000
0020
,
0000
0000
0230
0000
0000
0000
0301
0000
0020
0000
0130
1000
0010
0000
0100
0000
,
0001
0010
0001
0000
1000
0000
0100
0000
0010
0000
0001
1000
0010
0000
0100
0000
,
0002
0013
0100
1000
0001
0100
0001
0020
,
0000
0230
0000
1300
0020
0130
0001
1000
,
0100
1000
0001
0020
0000
0230
0000
1300
,
0020
0130
0001
1000
0001
0010
0100
2000
,
0000
3002
0000
0103
0020
1030
0001
0010
,
0001
0000
1000
0000
0100
0000
0020
0000
0000
0000
0032
0000
0000
0000
0103
0010
,
2000
3100
0010
0001
1000
0001
0010
0200
,
0000
2300
0000
3010
0200
0301
0010
0100
,
1000
0001
0100
0002
0000
0023
0000
0130
,
2000
3001
0100
0001
0010
0100
1000
0020
,
0000
0230
0000
0301
0020
0130
1000
0100
,
0010
0000
0001
0000
1000
0000
0100
0010
0001
0000
1000
0000
0010
0000
0100
0001
,
0010
0000
0100
0000
1000
0000
0010
0000
0100
0000
0002
0003
0000
0000
0020
0030
,
0000
0000
0200
0300
2000
3000
0020
0030
0200
0300
0002
0003
0000
0000
0220
0330
,
0000
0000
2200
3300
0000
0000
2000
3000
0020
0030
0200
0300
0000
0000
0002
0003
,
0020
0030
0200
0300
2000
3000
0020
0030
0200
0300
0002
0023
0230
0300
2000
3000
,
0000
0000
0020
0030
0200
0300
0002
0003
0020
0230
2300
3000
0002
0003
0200
0300
,
0020
0030
2200
3300
0000
0000
0200
0300
0020
0030
0002
0003
2000
3000
0020
0030
,
0200
0300
0022
0033
0000
0000
0020
0030
0200
0300
2000
3002
0203
0300
0020
0030
,
2000
3000
0200
0300
0020
0030
0002
0003
2000
3000
0020
0230
0302
0003
0020
0030
,
0200
1300
0010
0100
0001
0010
0100
2000
,
0000
3002
0000
1003
0020
0130
0001
0010
,
0100
0010
0001
0200
0000
0320
0000
1030
,
0002
0103
0001
1000
0100
1000
0001
0020
,
0000
0230
0000
1300
0002
1003
0100
0010
,
0001
0000
1000
0000
0010
0000
0200
0000
0000
0000
0302
0000
0000
0000
0013
0100
,
1000
0000
0001
0000
0100
0000
0001
0000
0020
0030
0200
0300
2000
3000
0002
0003
,
0200
0300
0002
0003
0020
0030
0200
0300
2000
3000
0220
0330
0000
0000
0202
0303
,
0000
0000
0002
0003
0020
0030
0200
0300
2000
3000
0002
0003
0200
0300
0002
0003
,
2000
3000
0200
0300
0020
0030
0002
0003
2000
3000
0000
0000
0020
0030
0200
0300
,
0002
0003
2000
3000
0000
0000
0002
0003
0020
0030
0200
0300
2000
3000
0002
0003
,
0200
0300
0000
0000
0000
0000
0020
0030
2000
3000
0200
0300
2000
3000
0020
0030
,
0200
0300
0002
0003
0000
0000
0020
0030
0200
0300
2000
3000
0002
0003
0200
0300
,
0002
0023
0230
0300
2000
3000
0020
0030
0200
0300
0002
2003
3002
0003
0200
0300
,
0020
1030
0100
0010
0001
1000
0010
0200
,
0000
0302
0000
0013
0200
1300
0001
0100
,
0001
0010
0100
2000
0000
3020
0000
0130
,
0002
0013
0100
1000
0001
0100
0001
2000
,
0000
3200
0000
0310
0002
1003
0010
0100
,
0001
0010
0100
2000
0000
3020
0000
0230
,
0000
0000
0302
0000
0000
0000
0023
0000
0000
0000
0031
1000
0001
1000
0001
1000
,
0002
0000
0000
0000
0013
0200
0000
1300
,
0010
0100
0001
0010
0100
1000
0010
0100
,
0001
0010
0100
1000
0010
0100
0002
0000
,
0000
0013
0100
1000
0001
0100
0001
0010
,
0200
0000
1300
0010
0100
0001
0010
0100
,
1000
0001
1000
0100
0020
0000
0031
1000
,
0010
0100
0001
0010
0100
1000
0001
0100
,
0010
2000
0000
3100
0010
0001
1000
0010
,
0100
0001
0020
0000
0000
0000
0000
0000
,
0000
0230
0000
0000
,
0000
0000
0000
0000
,
2300
0000
0000
0000
0000
0000
0000
0000
0000
0000
0000
0000
0000
0000
0000
0000
0000
0000
0000
0000
0000
0000
0000
0000
0000
0000
0000
0000
0000
0000
0000
0010
3200
0000
0000
0000
0000
0000
0000
0000
0000
0000
0000
0000
0000
0000
0000
0000
0000
0000
0000
0000
0000
0000
0000
0000
0000
0000
0000
0000
0000
0000
0000
0000
,
0000
0000
0000
0000
,
0302
0003
0000
0000
0020
0030
0200
0300
0000
0000
2002
3003
0000
0000
0220
0330
,
0000
0000
0000
0000
0000
0000
0000
0000
0000
0000
0000
0000
0000
0000
0000
0000
0000
0000
0000
0000
0000
0000
0000
0000
0000
0000
0000
0000
0000
0000
0000
0100
0002
0000
0000
0000
0000
0000
0000
0000
0000
0000
0000
0000
0000
0000
0000
0000
0000
0000
0000
0000
0000
0000
0000
0000
0000
0000
0000
0000
0000
0000
0000
0000
,
0000
0000
0000
0000
,
0013
0000
0100
0000
1000
0000
0010
0000
0100
0000
0001
0000
0010
0000
0100
1000
,
0001
0000
0000
0000
0000
0000
0000
0000
1000
0000
0000
0000
0000
0000
0000
0000
0010
0000
0000
0000
0000
0000
0000
0000
0100
0000
0000
0000
0000
0000
0000
0000
0002
0000
0000
0000
0000
0000
0000
0000
0000
0000
0000
0000
0000
0000
0000
0000
0000
0000
0000
0000
0000
0000
0000
0000
0000
0000
0000
0000
0000
0000
0000
0010
,
0203
0000
0000
0000
,
0000
0000
0000
0000
0000
0000
0000
0000
2300
3000
0000
0000
2000
3000
0020
0030
,
0000
0000
0200
0300
0000
0000
0002
0003
0010
0000
0100
0000
1000
0000
0020
0000
,
0000
0000
0130
0001
0010
0200
0000
0000
,
1300
0000
0010
0000
0100
0000
0002
0000
0003
0000
0220
0330
0000
0000
2200
3300
,
0000
0000
2002
3003
0000
0000
2020
3030
0000
0000
0220
0330
0000
0000
0202
0303
,
0000
0020
0230
0300
0000
2020
0000
0000
,
3030
0000
0000
0000
0100
0001
0010
0100
2000
0000
0000
0000
0000
0000
3010
0000
,
0100
0001
0010
0100
1000
0001
0200
0000
,
0320
0000
1030
0100
0010
0001
1000
0010
,
1000
0100
0020
0000
0000
0000
0000
0000
,
0031
1000
0010
0100
0022
0033
0200
0300
,
0220
0330
1000
0010
0100
0001
0010
0100
,
2000
3000
2002
3003
1000
0010
0100
0001
,
0010
0000
0100
0000
2000
0000
3000
0000
0220
0000
0330
0000
0100
0001
0100
0000
,
0001
0010
0100
1000
0001
0100
0002
0000
,
0000
0000
0000
0000
0000
0000
0000
0000
0000
0000
0000
0000
0000
0000
0000
0010
0203
0000
0000
0000
0000
0000
0000
0000
0000
0000
0000
0000
0000
0000
0000
0000
0000
0000
0000
0000
0000
0000
0000
0000
0000
0000
0000
0000
0000
0000
0000
0000
0000
0000
0000
0000
0000
0000
0000
0000
0000
0000
0000
0000
0000
0000
0000
0000
,
0000
0000
0000
2300
,
0000
0000
0000
3020
,
0000
0000
0000
0000
0000
0000
0000
0000
0000
0000
0000
0000
0000
0000
0000
0100
0032
0000
0000
0000
0000
0000
0000
0000
0000
0000
0000
0000
0000
0000
0000
0000
0000
0000
0000
0000
0000
0000
0000
0000
0000
0000
0000
0000
0000
0000
0000
0000
0000
0000
0000
0000
0000
0000
0000
0000
0000
0000
0000
0000
0000
0000
0000
0000
,
0000
0000
0000
0023
,
0000
0000
0000
0000
0000
0000
0130
1000
,
0010
0200
0000
0000
0301
0010
0100
2000
,
0000
0000
0000
0000
3010
0100
0001
0010
0100
1000
0001
0100
0020
0000
0000
0000
,
0000
2030
0000
0000
3200
0000
0320
0000
,
0000
0032
0000
2003
,
0000
3020
0000
0000
0230
0000
0302
0000
,
0000
0023
0000
0000
0230
0000
2300
0000
,
3000
0020
0000
0000
0230
0000
0302
0000
,
0000
0023
0230
2300
,
0000
3020
0000
0000
0230
0000
0302
0000
,
2003
3200
0000
2300
3200
0000
0320
0000
,
0000
0032
0000
0000
2003
0000
3020
0000
,
0000
0230
0302
0023
,
0000
0230
0000
0000
2300
0000
3020
0000
,
0000
0230
0000
0000
0302
0000
0023
0000
,
0230
2300
0000
0000
3002
0000
2003
0000
,
3020
0230
0000
0000
0302
0023
0230
0000
,
2300
3020
0000
0230
0000
0302
0000
0000
,
0023
0230
0000
2300
,
0000
3020
0000
0000
0230
0000
0302
0000
,
0000
0023
0000
0230
,
0000
2300
0000
0000
3020
0000
0230
0000
,
0000
0302
0000
0000
0023
0000
0230
0000
,
0000
2300
0000
0000
3020
0000
0230
0000
,
0000
0302
0023
0230
,
0000
2300
0000
0000
3020
0000
0230
0000
,
0302
0023
0000
0000
0000
0000
0230
0000
,
0000
2300
0000
0000
3020
0000
0230
0000
,
0000
0302
0023
0230
,
0000
2300
0000
0000
3020
0000
0230
0000
,
0000
0302
0000
0000
0023
0000
0230
0000
,
2300
3020
0000
0000
0230
0000
0302
0000
,
0023
0230
0000
0000
2300
3020
0230
0000
,
0302
0023
0000
0230
0000
2300
0000
0000
,
0000
0000
0000
3010
0100
0001
0020
0000
,
0000
0000
0000
0000
,
0000
0000
0000
0000
0000
0230
0300
2020
,
3030
0202
0303
0000
0200
0000
0000
0302
,
0000
0023
0000
0230
2300
0000
3010
0000
,
0202
0000
0000
0303
0000
0000
0000
0000
0000
0000
0000
0000
0022
0000
0000
0033
0000
0000
0000
0000
0000
0000
0000
0000
0000
0000
0000
0000
0000
0000
0000
0000
0000
0000
0000
0000
1000
0000
0000
0000
0010
0000
0000
0000
0100
0000
0000
0000
,
0001
0000
0010
0000
0100
0000
1000
0000
0010
0000
0100
0000
0001
0000
0000
0010
0000
0000
0100
0000
0000
2000
0000
0000
,
0000
3002
0000
0000
0000
0000
0000
0000
,
0000
0000
0000
0000
0000
0000
0103
0001
,
0020
0000
0030
0000
2200
3300
0000
0000
0000
0000
2002
3003
0000
0000
0000
0000
,
2000
0000
0000
3010
0100
0001
0010
0100
1000
0001
0100
0001
,
1000
0000
0001
0000
0100
0000
0010
0000
1000
0000
0100
0000
0010
0000
0000
0001
0000
0000
1000
0000
0000
0010
0000
0000
,
0100
0002
0000
0000
0103
0001
0010
0200
,
0000
0000
1300
0001
1000
0100
0020
0031
,
1000
0010
0100
0001
0010
0100
1000
0001
,
1000
0100
0010
0001
1000
0010
1000
0100
,
0010
0001
0100
0001
0010
0100
1000
0001
,
1000
0100
1000
0001
0010
0100
1000
0000
,
0001
1000
0010
0100
0000
0001
0010
0100
,
1000
0000
0010
0000
0100
0000
0001
0000
0000
0000
0010
0100
1000
0100
1000
0000
,
0001
0000
0100
0000
0001
0010
0100
0000
1000
0000
0010
0000
0100
0000
0001
1000
,
0001
0000
0000
1000
0000
0000
0010
0000
0100
0000
0001
0000
0010
0000
0100
0000
1000
0000
0001
0000
0100
0000
0001
0000
,
1000
0100
0010
0001
1000
0010
1000
0001
0010
0100
1000
0001
,
0100
0001
1000
0100
0010
0001
1000
0001
0010
0100
1000
0010
,
0100
0001
1000
0100
1000
0001
0010
0001
1000
0010
0100
0001
,
0010
0001
1000
0100
0010
0001
1000
0010
1000
0100
0010
0001
,
0100
0000
0000
0000
0001
0000
0000
0000
0010
0000
0000
0000
0100
0000
0000
0000
1000
0000
0000
0000
0001
0000
0000
0000
0100
0000
0000
0000
0000
0000
0220
0000
0000
0330
0000
0000
0000
0000
0000
0000
0000
0000
2200
0000
0000
3300
0000
0000
,
0000
0000
0022
0033
0000
0000
2020
3030
0000
0000
0202
0303
0000
0000
2010
3000
,
0010
0100
0102
0000
0000
0000
0000
0000
,
0013
0100
1000
0010
0200
0000
0302
0000
,
0023
0000
0130
1000
0010
0100
0001
1000
,
0200
0000
0000
0000
0000
0000
0310
0001
,
1000
0010
0100
0000
0011
0000
0010
0100
,
1000
0010
0100
0001
1000
0100
0020
0000
,
0031
1000
0010
0100
0001
0010
0100
1000
,
0001
0000
0000
0000
2000
0000
0000
0000
0000
0000
3100
0010
0001
0000
1000
0000
,
0010
0000
0000
0100
0000
0000
0001
0000
0000
0010
0000
0000
0100
0000
1000
0000
0001
0000
0100
0000
0001
0000
0010
0000
,
0200
1300
0010
0100
0001
0010
0001
1000
0100
0010
0001
1000
,
0010
1000
0001
0010
0001
1000
0200
0310
0001
1000
0001
0100
,
0010
1000
0100
1000
0001
0010
0100
1000
0001
0100
0001
0010
,
0200
1300
0010
0100
0001
1000
0100
1000
0001
0100
0010
1000
,
0100
1000
0001
0100
0001
0010
0200
1300
0010
0100
0001
1000
,
0100
0000
1000
0000
0001
0000
0010
0000
0100
0000
1000
0000
0010
0000
0000
0100
0000
0000
0001
0000
0000
0020
0000
0000
,
0000
0000
0130
1000
0010
0200
0000
0000
,
0301
0000
0000
0010
0000
0000
0100
0000
0000
1000
0000
0000
0001
0000
0000
0100
0000
0000
0010
0000
0000
1000
0000
0000
0100
0000
0000
0000
0010
0000
0000
0000
0001
0000
0000
0000
1000
0000
0000
0000
0010
0000
0000
0000
0100
0000
0000
0000
,
0001
0010
0100
1000
0001
0100
0020
0000
0000
0000
0000
0000
,
2030
0000
0000
0000
3200
0000
0000
0320
,
0000
0000
0000
0000
0000
0000
0031
0000
1000
0000
0010
0000
0200
0000
0000
0000
0000
0000
0000
0000
0000
0302
0000
0000
,
0000
0000
0000
0000
0000
0000
0013
0000
0100
0000
1000
0000
0002
0000
0000
0000
0000
0000
0000
0000
0000
0203
0000
0000
,
0000
0320
2030
0000
,
3100
0000
0010
0000
0001
0000
1000
0000
0010
0000
0100
0000
0002
0000
0000
0000
0000
0000
0000
0000
0000
0023
0000
0000
,
0000
0000
0230
0000
2300
0000
3020
0230
,
0000
0320
0230
0000
0302
0000
0000
0023
,
0000
0000
0000
0000
0130
1000
0010
0100
0002
0000
0000
0000
0000
0000
0000
0000
,
0023
0000
0230
0000
2300
0000
0000
3020
,
0000
0000
0000
0130
0001
0010
0200
0000
0000
0000
0000
0000
,
2300
0000
0000
0000
0000
0000
0000
0000
3020
0000
0030
0000
0220
0330
0001
0000
,
0000
0000
0220
0330
2100
0000
0000
0000
3000
0000
2000
3000
0200
0300
0020
0030
,
0000
0000
0000
0000
0001
0000
1000
0000
0010
0000
0000
0000
0100
0000
0002
0003
,
0000
0000
0020
0030
0000
0000
0200
0300
0000
0000
0000
0000
0100
1000
0001
0000
,
0100
0000
0000
0000
0000
0000
0010
0000
0000
0100
0000
0000
0001
0000
0000
0000
0000
0000
0010
0000
0000
0000
0000
0000
0100
0000
0000
0000
1000
0000
0000
0000
0010
0000
0000
0000
0100
0000
0000
0000
0001
0000
0000
0000
1000
0000
0000
0000
,
0100
0010
0001
1000
0010
1000
0100
0010
0001
0100
0001
1000
,
0100
1000
0001
0010
0100
1000
0010
0100
0001
0010
0001
1000
,
0100
0010
0001
1000
0010
0100
0001
0010
0001
1000
0100
0010
,
0001
1000
0001
0010
0100
1000
0010
0100
0001
0010
0001
1000
,
0100
0010
0001
1000
0010
1000
0100
0010
0001
0100
0001
0010
,
0100
1000
0001
0100
0001
0010
0100
1000
0010
0100
0001
1000
,
0100
0010
0100
1000
0001
0100
0001
1000
0100
0010
0001
1000
,
0001
0010
0100
1000
0010
0100
0001
0010
0001
1000
0100
0010
,
0001
1000
0010
1000
0100
0010
0001
0100
0001
1000
0100
0010
,
0001
1000
0001
0010
0100
1000
0010
0100
0001
0010
0001
1000
,
0100
0010
0001
1000
0010
1000
0100
0010
0001
0100
0001
1000
,
0100
0010
0001
1000
0001
0010
0100
1000
0010
0100
0001
1000
,
0100
0000
0010
0000
0001
0000
1000
0000
0010
0000
0100
0000
0001
0000
0010
0000
0100
0000
1000
0000
0000
0002
0000
0000
,
0000
0000
0103
0010
2000
0000
3200
0320
,
0000
0032
0000
0203
0000
0000
0000
0000
,
0000
0000
0000
0000
0310
1000
0100
0010
0002
0000
0000
0000
0003
0000
2002
0000
,
0000
0000
3003
0000
2020
3030
0000
0000
0202
0000
0000
0000
0000
0000
0303
0000
,
2200
0000
0000
3300
0020
0000
0000
0032
,
0000
0000
0000
0000
2003
3000
0000
0000
0020
0030
0000
0000
0000
0000
0200
0000
,
0000
0000
0302
0000
0023
0000
0000
0230
,
0000
0300
1100
0000
2002
0000
0000
3000
,
0023
0000
0000
0000
0230
0000
0000
0300
0022
0000
0033
0000
0000
0000
0220
0330
,
0000
0000
0000
0000
2200
3300
0000
0000
1001
0000
0000
0000
0020
0000
0230
0000
,
0000
0000
0310
0000
0100
0002
0013
0000
0200
0000
0000
0000
0000
0000
2300
3000
,
0000
0110
0101
0000
,
2000
0000
3200
0000
0320
0000
0000
0032
,
0000
0000
2003
0000
3020
0000
0030
0102
,
0000
0000
0000
0000
2003
0000
3002
0023
,
0000
0230
2300
0000
3020
0030
0101
0110
,
0000
0110
0100
0011
0020
0000
0130
1100
,
0000
0020
0000
0230
0000
0000
0000
0000
,
0000
0000
0000
0000
0302
0000
0003
0021
,
0000
0000
0230
0300
2200
0000
0000
3300
,
2020
0000
0000
3030
0200
0000
0300
0102
,
0000
0000
0023
0030
0210
0000
0000
0000
,
1300
0010
0100
0001
1000
0100
0010
0001
1000
0010
1000
0100
,
0010
0001
0100
0001
0010
0100
1000
0001
0100
0001
1000
0100
,
0010
0001
1000
0001
0010
0100
1000
0010
0100
0001
0010
0001
,
1000
0100
0010
0001
1000
0010
0100
0001
0010
0100
1000
0001
,
0100
0001
1000
0100
0010
0001
1000
0010
0100
0001
0010
0001
,
1000
0100
0010
0001
1000
0010
0100
0001
0010
0100
1000
0001
,
0100
0001
1000
0100
0010
0001
1000
0010
1000
0001
0010
0100
,
1000
0001
0100
0001
1000
0100
0010
0001
1000
0001
0100
0010
,
1000
0100
0010
0001
1000
0010
0100
0001
0010
0001
1000
0100
,
0010
0000
0001
0000
1000
0000
0010
0000
0100
0000
0001
0000
0010
0000
0000
0100
0000
0000
1000
0000
0000
0020
0000
0000
,
0000
0000
0130
0001
0010
0200
0000
0000
,
1300
0010
0100
0002
0000
0000
0013
0100
,
1000
0000
0001
0000
1000
0000
0100
0000
0010
0000
0001
0000
1000
0010
0100
0001
,
0010
0100
1000
0000
0000
0000
0000
0000
0000
0000
0000
0000
0000
0000
0000
0000
;

//---------------dance-single - ----------------
#NOTES:
     dance-single:
     :
     Easy:
     14:
     1.000,1.000,0.250,1.000,1.000,1807.000,60.000,418.000,0.000,0.000:
0000
0000
0000
0000
,
1000
0001
1000
0010
0100
0001
0010
0200
,
0000
2300
0000
3010
0100
0001
0010
0100
,
1000
0001
0100
0002
0000
0203
0000
0301
,
1000
0010
0100
0001
0010
0100
1000
0200
,
0000
0320
0000
0031
1000
0010
0100
0001
,
0010
0100
1000
0002
0000
2003
0000
3010
,
0200
0301
0010
0100
1000
0001
0100
0002
,
0000
2003
0000
3010
0200
0301
0010
0100
,
1000
0001
0100
0002
0000
2003
0000
3010
,
0200
0301
0010
0100
1000
0001
1000
0020
,
0000
0000
0230
0000
0000
0000
0301
0000
0020
0000
0130
1000
0010
0000
0100
0000
,
0001
0010
0001
0000
1000
0000
0100
0000
0010
0000
0001
1000
0010
0000
0100
0000
,
0002
0013
0100
1000
0001
0100
0001
0020
,
0000
0230
0000
1300
0020
0130
0001
1000
,
0100
1000
0001
0020
0000
0230
0000
1300
,
0020
0130
0001
1000
0001
0010
0100
2000
,
0000
3002
0000
0103
0020
1030
0001
0010
,
0001
0000
1000
0000
0100
0000
0020
0000
0000
0000
0032
0000
0000
0000
0103
0010
,
2000
3100
0010
0001
1000
0001
0010
0200
,
0000
2300
0000
3010
0200
0301
0010
0100
,
1000
0001
0100
0002
0000
0023
0000
0130
,
2000
3001
0100
0001
0010
0100
1000
0020
,
0000
0230
0000
0301
0020
0130
1000
0100
,
0010
0000
0001
0000
1000
0000
0100
0010
0001
0000
1000
0000
0010
0000
0100
0001
,
0010
0000
0100
0000
1000
0000
0010
0000
0100
0000
0002
0003
0000
0000
0020
0030
,
0000
0000
0200
0300
2000
3000
0020
0030
0200
0300
0002
0003
0000
0000
0220
0330
,
0000
0000
2200
3300
0000
0000
2000
3000
0020
0030
0200
0300
0000
0000
0002
0003
,
0020
0030
0200
0300
2000
3000
0020
0030
0200
0300
0002
0023
0230
0300
2000
3000
,
0000
0000
0020
0030
0200
0300
0002
0003
0020
0230
2300
3000
0002
0003
0200
0300
,
0020
0030
2200
3300
0000
0000
0200
0300
0020
0030
0002
0003
2000
3000
0020
0030
,
0200
0300
0022
0033
0000
0000
0020
0030
0200
0300
2000
3002
0203
0300
0020
0030
,
2000
3000
0200
0300
0020
0030
0002
0003
2000
3000
0020
0230
0302
0003
0020
0030
,
0200
1300
0010
0100
0001
0010
0100
2000
,
0000
3002
0000
1003
0020
0130
0001
0010
,
0100
0010
0001
0200
0000
0320
0000
1030
,
0002
0103
0001
1000
0100
1000
0001
0020
,
0000
0230
0000
1300
0002
1003
0100
0010
,
0001
0000
1000
0000
0010
0000
0200
0000
0000
0000
0302
0000
0000
0000
0013
0100
,
1000
0000
0001
0000
0100
0000
0001
0000
0020
0030
0200
0300
2000
3000
0002
0003
,
0200
0300
0002
0003
0020
0030
0200
0300
2000
3000
0220
0330
0000
0000
0202
0303
,
0000
0000
0002
0003
0020
0030
0200
0300
2000
3000
0002
0003
0200
0300
0002
0003
,
2000
3000
0200
0300
0020
0030
0002
0003
2000
3000
0000
0000
0020
0030
0200
0300
,
0002
0003
2000
3000
0000
0000
0002
0003
0020
0030
0200
0300
2000
3000
0002
0003
,
0200
0300
0000
0000
0000
0000
0020
0030
2000
3000
0200
0300
2000
3000
0020
0030
,
0200
0300
0002
0003
0000
0000
0020
0030
0200
0300
2000
3000
0002
0003
0200
0300
,
0002
0023
0230
0300
2000
3000
0020
0030
0200
0300
0002
2003
3002
0003
0200
0300
,
0020
1030
0100
0010
0001
1000
0010
0200
,
0000
0302
0000
0013
0200
1300
0001
0100
,
0001
0010
0100
2000
0000
3020
0000
0130
,
0002
0013
0100
1000
0001
0100
0001
2000
,
0000
3200
0000
0310
0002
1003
0010
0100
,
0001
0010
0100
2000
0000
3020
0000
0230
,
0000
0000
0302
0000
0000
0000
0023
0000
0000
0000
0031
1000
0001
1000
0001
1000
,
0002
0000
0000
0000
0013
0200
0000
1300
,
0010
0100
0001
0010
0100
1000
0010
0100
,
0001
0010
0100
1000
0010
0100
0002
0000
,
0000
0013
0100
1000
0001
0100
0001
0010
,
0200
0000
1300
0010
0100
0001
0010
0100
,
1000
0001
1000
0100
0020
0000
0031
1000
,
0010
0100
0001
0010
0100
1000
0001
0100
,
0010
2000
0000
3100
0010
0001
1000
0010
,
0100
0001
0020
0000
0000
0000
0000
0000
,
0000
0230
0000
0000
,
0000
0000
0000
0000
,
2300
0000
0000
0000
0000
0000
0000
0000
0000
0000
0000
0000
0000
0000
0000
0000
0000
0000
0000
0000
0000
0000
0000
0000
0000
0000
0000
0000
0000
0000
0000
0010
3200
0000
0000
0000
0000
0000
0000
0000
0000
0000
0000
0000
0000
0000
0000
0000
0000
0000
0000
0000
0000
0000
0000
0000
0000
0000
0000
0000
0000
0000
0000
0000
,
0000
0000
0000
0000
,
0302
0003
0000
0000
0020
0030
0200
0300
0000
0000
2002
3003
0000
0000
0220
0330
,
0000
0000
0000
0000
0000
0000
0000
0000
0000
0000
0000
0000
0000
0000
0000
0000
0000
0000
0000
0000
0000
0000
0000
0000
0000
0000
0000
0000
0000
0000
0000
0100
0002
0000
0000
0000
0000
0000
0000
0000
0000
0000
0000
0000
0000
0000
0000
0000
0000
0000
0000
0000
0000
0000
0000
0000
0000
0000
0000
0000
0000
0000
0000
0000
,
0000
0000
0000
0000
,
0013
0000
0100
0000
1000
0000
0010
0000
0100
0000
0001
0000
0010
0000
0100
1000
,
0001
0000
0000
0000
0000
0000
0000
0000
1000
0000
0000
0000
0000
0000
0000
0000
0010
0000
0000
0000
0000
0000
0000
0000
0100
0000
0000
0000
0000
0000
0000
0000
0002
0000
0000
0000
0000
0000
0000
0000
0000
0000
0000
0000
0000
0000
0000
0000
0000
0000
0000
0000
0000
0000
0000
0000
0000
0000
0000
0000
0000
0000
0000
0010
,
0203
0000
0000
0000
,
0000
0000
0000
0000
0000
0000
0000
0000
2300
3000
0000
0000
2000
3000
0020
0030
,
0000
0000
0200
0300
0000
0000
0002
0003
0010
0000
0100
0000
1000
0000
0020
0000
,
0000
0000
0130
0001
0010
0200
0000
0000
,
1300
0000
0010
0000
0100
0000
0002
0000
0003
0000
0220
0330
0000
0000
2200
3300
,
0000
0000
2002
3003
0000
0000
2020
3030
0000
0000
0220
0330
0000
0000
0202
0303
,
0000
0020
0230
0300
0000
2020
0000
0000
,
3030
0000
0000
0000
0100
0001
0010
0100
2000
0000
0000
0000
0000
0000
3010
0000
,
0100
0001
0010
0100
1000
0001
0200
0000
,
0320
0000
1030
0100
0010
0001
1000
0010
,
1000
0100
0020
0000
0000
0000
0000
0000
,
0031
1000
0010
0100
0022
0033
0200
0300
,
0220
0330
1000
0010
0100
0001
0010
0100
,
2000
3000
2002
3003
1000
0010
0100
0001
,
0010
0000
0100
0000
2000
0000
3000
0000
0220
0000
0330
0000
0100
0001
0100
0000
,
0001
0010
0100
1000
0001
0100
0002
0000
,
0000
0000
0000
0000
0000
0000
0000
0000
0000
0000
0000
0000
0000
0000
0000
0010
0203
0000
0000
0000
0000
0000
0000
0000
0000
0000
0000
0000
0000
0000
0000
0000
0000
0000
0000
0000
0000
0000
0000
0000
0000
0000
0000
0000
0000
0000
0000
0000
0000
0000
0000
0000
0000
0000
0000
0000
0000
0000
0000
0000
0000
0000
0000
0000
,
0000
0000
0000
2300
,
0000
0000
0000
3020
,
0000
0000
0000
0000
0000
0000
0000
0000
0000
0000
0000
0000
0000
0000
0000
0100
0032
0000
0000
0000
0000
0000
0000
0000
0000
0000
0000
0000
0000
0000
0000
0000
0000
0000
0000
0000
0000
0000
0000
0000
0000
0000
0000
0000
0000
0000
0000
0000
0000
0000
0000
0000
0000
0000
0000
0000
0000
0000
0000
0000
0000
0000
0000
0000
,
0000
0000
0000
0023
,
0000
0000
0000
0000
0000
0000
0130
1000
,
0010
0200
0000
0000
0301
0010
0100
2000
,
0000
0000
0000
0000
0000
0000
0000
0000
0000
0000
0000
0000
3010
0000
0000
0100
0000
0000
0001
0000
0000
0010
0000
0000
0100
0000
0000
1000
0000
0000
0001
0000
0000
0100
0000
0000
0010
0000
0000
0000
1000
0000
0000
0000
0100
0000
0000
0000
,
0010
0001
1000
0001
0100
0010
1000
0100
0010
0001
1000
0010
,
1000
0100
0010
0001
0100
0001
0010
0100
1000
0001
0100
0001
,
1000
0100
0010
0001
1000
0010
0100
0001
0010
0100
1000
0001
,
0100
0001
0010
0100
0010
0001
0100
0001
0010
0100
1000
0001
,
0100
0001
0010
0100
1000
0010
0100
0010
1000
0100
0010
0100
,
1000
0010
0100
0001
0010
0001
1000
0010
0100
0010
1000
0100
,
0010
0001
1000
0010
1000
0001
0100
0010
1000
0100
0010
0001
,
0010
0100
1000
0001
0100
0001
1000
0100
0010
0001
1000
0010
,
0100
0001
0010
0100
1000
0001
0100
0001
1000
0100
0010
0001
,
1000
0010
0100
0001
0010
0001
1000
0100
0010
0001
1000
0010
,
0100
0001
0010
0100
1000
0001
0100
0001
1000
0100
0010
0001
,
1000
0010
0100
0001
0010
0100
1000
0001
0100
0001
1000
0100
,
0010
0001
1000
0010
0100
0001
0010
0001
1000
0100
0010
0001
,
1000
0010
0100
0001
0010
0100
1000
0001
0100
0001
1000
0100
,
0010
0001
1000
0010
0100
0001
0010
0100
1000
0001
0100
0001
,
0010
0000
0100
0000
1000
0000
0010
0000
0100
0000
0001
0000
0010
0000
0100
0000
1000
0000
0002
0000
0000
1003
0000
0000
,
0010
0200
0301
0010
0200
1300
0020
0130
,
0001
0010
0200
1300
0001
0100
0020
1030
,
0100
0020
0031
1000
0020
0130
0002
0013
,
0100
2000
3010
0100
0002
0013
0200
1300
,
0001
0200
0301
0010
0200
1300
0002
0103
,
0010
1000
0200
0310
0002
1003
0020
0130
,
0001
2000
3100
0010
0002
1003
0020
0130
,
0002
0023
0130
1000
0001
0100
0002
0013
,
0100
2000
3010
0100
0002
1003
0002
1003
,
0010
0100
0002
0013
0200
1300
0020
0130
,
0001
2000
3100
0020
0031
1000
0020
0130
,
0001
0020
0130
1000
0002
1003
0020
0130
,
0002
0023
0130
1000
0002
1003
0020
0130
,
0002
0023
0130
1000
0002
2003
3020
0130
,
0002
0023
0130
2000
3010
0200
0301
0010
,
0100
1000
0010
0100
0001
0010
0200
0000
,
0000
0000
0000
0000
,
0000
0000
0000
0000
0300
0200
0300
2020
,
3030
0202
0303
0000
0200
0000
0000
0302
,
0000
0023
0000
0230
2300
0000
3010
0000
,
0202
0303
0000
0000
0022
0033
0000
0000
0000
0000
0000
0000
1000
0001
1000
0010
,
0100
0001
0010
0100
1000
0001
0100
0010
1000
0000
0010
0000
0100
0000
0002
0000
,
0000
2003
0000
0000
0000
0000
0000
0000
,
0000
0000
0000
0000
0000
0000
3100
0010
,
0002
0000
0003
0000
2200
3300
0000
0000
0000
0000
2002
3003
0000
0000
0000
0000
,
2000
0000
0000
3010
0100
0001
0010
0100
1000
0001
0100
0001
,
1000
0000
0001
0000
0100
0000
0010
0000
1000
0000
0100
0000
0010
0000
0000
0001
0000
0000
1000
0000
0000
0010
0000
0000
,
0100
0002
0000
0000
0103
0001
0010
0200
,
0000
0000
0000
0000
0000
0000
1300
0000
0000
0001
0000
0000
1000
0000
0000
0100
0000
0000
0020
0000
0031
0000
1000
0000
,
0010
0100
0001
0010
0100
1000
0001
0100
0001
1000
0100
0010
,
0001
1000
0010
0100
0001
0010
0100
1000
0001
0100
0001
1000
,
0100
0010
0001
1000
0010
0100
0001
0010
0001
1000
0100
0010
,
0001
1000
0010
0100
0001
0010
0100
1000
0001
0200
0000
0000
,
0310
0000
0000
1000
0000
0000
0100
0000
0000
0020
0000
0000
0000
0000
0000
0031
0000
1000
0000
0010
0000
0100
0000
0001
,
0000
0000
0010
0000
0000
0000
0100
0000
0000
0000
1000
0000
0000
0000
0001
0000
0000
0000
0100
0000
0000
0000
0000
0000
0000
0000
0000
0000
0000
0000
0010
0000
0000
1000
0000
0000
0100
0000
0000
0010
0000
0000
0001
0000
0000
0000
0000
0000
,
0001
0000
0100
0000
0001
0010
0100
0000
1000
0000
0010
0000
0100
0000
0001
1000
,
0001
0000
0000
1000
0000
0000
0010
0000
0100
0000
0001
0000
0010
0000
0100
0000
1000
0000
0001
0000
0100
0000
0001
0000
,
1000
0100
0010
0001
1000
0010
1000
0001
0010
0100
1000
0001
,
0100
0001
1000
0100
0010
0001
1000
0001
0010
0100
1000
0010
,
0100
0001
1000
0100
1000
0001
0010
0001
1000
0010
0100
0001
,
0010
0001
1000
0100
0010
0001
1000
0010
1000
0100
0010
0001
,
0100
0000
0000
0000
0001
0000
0000
0000
0010
0000
0000
0000
0100
0000
0000
0000
1000
0000
0000
0000
0001
0000
0000
0000
0100
0000
0000
0000
0000
0000
0220
0000
0000
0330
0000
0000
0000
0000
0000
0000
0000
0000
2200
0000
0000
3300
0000
0000
,
0000
0000
0022
0033
0000
0000
2020
3030
0000
0000
0202
0303
0000
0000
2010
3000
,
0010
0100
0102
0000
0000
0000
0000
0000
,
0013
0100
1000
0010
0200
0000
0302
0000
,
0023
0000
0130
1000
0010
0100
0001
1000
,
0200
0000
0000
0000
0000
0000
0310
0101
,
1010
1100
0110
0000
0011
0000
0010
0100
,
1000
0010
0100
0001
1000
0100
0020
0000
,
0031
1000
0010
0100
0001
0010
0100
1000
,
0001
0000
0000
0000
2000
0000
0000
0000
0000
0000
3100
0010
0001
0000
1000
0000
,
0010
0000
0000
0100
0000
0000
0001
0000
0000
0010
0000
0000
0100
0000
1000
0000
0001
0000
0100
0000
0001
0000
0010
0000
,
0200
1300
0010
0100
0001
0010
0001
1000
0100
0010
0001
1000
,
0010
1000
0001
0010
0001
1000
0200
0310
0001
1000
0001
0100
,
0010
1000
0100
1000
0001
0010
0100
1000
0001
0100
0001
0010
,
0200
1300
0010
0100
0001
1000
0100
1000
0001
0100
0010
1000
,
0100
1000
0001
0100
0001
0010
0200
1300
0010
0100
0001
1000
,
0100
0000
1000
0000
0001
0000
0010
0000
0100
0000
1000
0000
0010
0000
0000
0100
0000
0000
0001
0000
0000
0020
0000
0000
,
0000
0000
0130
1000
0010
0200
0000
0000
,
0301
0000
0000
0010
0000
0000
0100
0000
0000
1000
0000
0000
0001
0000
0000
0100
0000
0000
0010
0000
0000
1000
0000
0000
0100
0000
0000
0000
0010
0000
0000
0000
0001
0000
0000
0000
1000
0000
0000
0000
0010
0000
0000
0000
0100
0000
0000
0000
,
0001
0010
0100
1000
0001
0100
0010
1000
0100
0010
0001
1000
,
0010
0100
0001
0010
0100
1000
0001
0100
0001
1000
0100
0010
,
0001
1000
0010
0100
0010
1000
0100
0010
0100
1000
0010
0100
,
0001
0010
0100
0010
0001
0100
0001
0010
0100
1000
0010
0100
,
0001
0010
0100
0010
0001
1000
0010
0100
0001
0010
0100
1000
,
0001
0100
0001
1000
0100
0010
0100
1000
0010
0100
0001
0010
,
0100
0010
0001
1000
0010
0100
0001
0010
0100
1000
0010
0100
,
0001
1000
0100
0010
0100
1000
0010
0100
0010
1000
0100
0010
,
0001
0100
0001
0010
0100
0010
0001
0100
0010
1000
0001
1000
,
0100
0010
0001
1000
0010
0100
0001
0010
0100
1000
0010
0100
,
0010
1000
0100
0010
0001
0100
0010
1000
0100
0010
0100
1000
,
0010
0100
0001
0010
0100
1000
0010
0100
0010
1000
0100
0010
,
0001
1000
0010
0100
0010
1000
0100
0010
0001
0100
0010
0100
,
0001
0010
0100
1000
0010
0100
0010
1000
0100
0010
0001
0100
,
0010
0100
0001
0010
0100
1000
0001
0100
0001
1000
0010
0100
,
0001
0010
0001
1000
0100
0010
0001
1000
0010
1000
0100
0010
,
0001
1000
0010
1000
0100
0010
0001
1000
0010
1000
0100
0010
,
0001
0100
0010
0100
0001
0010
0100
1000
0001
0100
0001
1000
,
0100
1000
0001
0010
0001
1000
0010
1000
0001
0100
0001
0010
,
0001
1000
0100
1000
0010
1000
0100
0010
0001
0100
0001
0010
,
0100
1000
0010
0100
0001
0010
0100
0010
0001
1000
0010
0100
,
0001
0010
0100
1000
0010
0100
0001
1000
0100
0010
0100
1000
,
0001
0010
0100
1000
0010
0100
0010
1000
0100
0010
0001
1000
,
0010
1000
0100
0010
0001
0100
0001
0010
0100
1000
0010
0100
,
0001
0010
0001
1000
0100
0010
0001
1000
0010
1000
0100
0010
,
0001
0100
0001
0010
0100
1000
0010
0100
0001
0010
0100
0010
,
0001
1000
0010
0100
0001
0010
0100
1000
0001
0100
0001
1000
,
0100
0010
0001
1000
0010
0100
0010
1000
0100
0010
0001
1000
,
0010
0000
1000
0000
0100
0000
0010
0000
0001
0000
0100
0000
0001
0000
0010
0000
0100
0000
1000
0000
0000
0002
0000
0000
,
0000
0000
0103
0010
2000
0000
3200
0320
,
0000
0032
0000
0203
0000
0000
0000
0000
,
0000
0000
0000
0000
0310
1000
0100
0010
0002
0000
0000
0000
0003
0000
2002
0000
,
0000
0000
3003
0000
2020
3030
0000
0000
0202
0000
0000
0000
0000
0000
0303
0000
,
2200
0000
0000
3300
0020
0000
0000
0032
,
0000
0000
0000
0000
2003
3000
0000
0000
0020
0030
0000
0000
0000
0000
0200
0000
,
0000
0000
0302
0000
0023
0000
0000
0230
,
0000
0300
1100
0000
2002
0000
0000
3000
,
0023
0000
0000
0000
0230
0000
0000
0300
0022
0000
0033
0000
0000
0000
0220
0330
,
0000
0000
0000
0000
2200
3300
0000
0000
1001
0000
0000
0000
0020
0000
0230
0000
,
0000
0000
0310
0000
0100
0002
0013
0000
0200
0000
0000
0000
0000
0000
2300
3000
,
0000
0110
0101
0000
,
2000
0000
3200
0000
0320
0000
0000
0032
,
0000
0000
2003
0000
3020
0000
0030
0102
,
0000
0000
0000
0000
2003
0000
3002
0023
,
0000
0230
2300
0000
3020
0030
0101
0110
,
0000
0110
0100
0011
0020
0000
0130
1100
,
0000
0020
0000
0230
0000
0000
0000
0000
,
0000
0000
0000
0000
0302
0000
0003
0021
,
0000
0000
0230
0300
2200
0000
0000
3300
,
2020
0000
0000
3030
0200
0000
0300
0102
,
0000
0000
0023
0030
0210
0000
0000
0000
,
1300
0010
0100
0001
1000
0100
0010
0001
1000
0010
1000
0100
,
0010
0001
0100
0001
0010
0100
1000
0001
0100
0001
1000
0100
,
0010
0001
1000
0001
0010
0100
1000
0010
0100
0001
0010
0001
,
1000
0100
0010
0001
1000
0010
0100
0001
0010
0100
1000
0001
,
0100
0001
1000
0100
0010
0001
1000
0010
0100
0001
0010
0001
,
1000
0100
0010
0001
1000
0010
0100
0001
0010
0100
1000
0001
,
0100
0001
1000
0100
0010
0001
1000
0010
1000
0001
0010
0100
,
1000
0001
0100
0001
1000
0100
0010
0001
1000
0001
0100
0010
,
1000
0100
0010
0001
1000
0010
0100
0001
0010
0001
1000
0100
,
0010
0000
0001
0000
1000
0000
0010
0000
0100
0000
0001
0000
0010
0000
0000
0100
0000
0000
1000
0000
0000
0020
0000
0000
,
0000
0000
0130
0001
0010
0200
0000
0000
,
1300
0010
0100
0002
0000
0000
0013
0100
,
1000
0000
0001
0000
1000
0000
0100
0000
0010
0000
0001
0000
1000
0010
0100
0001
,
0010
0100
1000
0000
0000
0000
0000
0000
0000
0000
0000
0000
0000
0000
0000
0000
;

//---------------dance-single - ----------------
#NOTES:
     dance-single:
     :
     Medium:
     15:
     1.000,1.000,0.167,1.000,1.000,2159.000,40.000,375.000,0.000,0.000:
0000
0000
0000
0000
,
1000
0001
1000
0010
0100
0001
0010
0200
,
1300
0020
0130
0001
0010
0100
1000
0001
,
0100
0001
1000
0200
0310
0002
1003
0010
,
0100
0001
0010
0100
1000
0001
0100
0002
,
1003
0020
0130
0001
0010
0100
1000
0001
,
0100
0001
1000
0200
0310
0002
1003
0020
,
0230
0301
0010
0100
1000
0001
0100
0002
,
1003
0020
0130
0001
0020
0130
1000
0001
,
0100
0001
1000
0200
0310
0002
1003
0010
,
0200
0301
0010
0100
1000
0001
1000
0020
,
0130
0000
0002
0000
0013
0000
0100
0000
2000
0000
3010
0100
0001
0000
0010
0000
,
0100
1000
0001
0000
1000
0000
0010
0000
0100
0000
0001
0010
0100
0000
1000
0000
,
0002
0013
0100
1000
0001
0100
0001
0020
,
0130
2000
3010
0100
0002
0013
0100
1000
,
0001
0100
0001
2000
3100
0020
0031
1000
,
0020
0130
0001
1000
0001
0010
0100
2000
,
3001
0200
0310
1000
0200
0310
0001
1000
,
0010
0000
1000
0000
0100
0000
0020
0000
0031
0000
2000
0000
3010
0000
0100
0001
,
0020
0130
1000
0010
0100
0001
1000
0200
,
0310
0002
1003
0010
0200
0301
0010
0100
,
1000
0001
0100
0002
0013
0200
1300
0010
,
0200
0301
0010
0100
1000
0001
0100
0002
,
1003
0020
0130
0001
0020
0130
1000
0100
,
0010
0000
0001
0000
1000
0000
0100
0010
0001
0000
1000
0000
0010
0000
0100
0001
,
0010
0000
0100
0000
1000
0000
0010
0000
0100
0000
0002
0003
0000
0000
0020
0030
,
0000
0000
0200
0300
2000
3000
0020
0030
0200
0300
0002
0003
0000
0000
0220
0330
,
0000
0000
2200
3300
0000
0000
2000
3000
0020
0030
0200
0300
0000
0000
0002
0003
,
0020
0030
0200
0300
2000
3000
0020
0030
0200
0300
0002
0023
0230
0300
2000
3000
,
0000
0000
0020
0030
0200
0300
0002
0003
0020
0230
2300
3000
0002
0003
0200
0300
,
0020
0030
2200
3300
0000
0000
0200
0300
0020
0030
0002
0003
2000
3000
0020
0030
,
0200
0300
0022
0033
0000
0000
0020
0030
0200
0300
2000
3002
0203
0300
0020
0030
,
2000
3000
0200
0300
0020
0030
0002
0003
2000
3000
0020
0230
0302
0023
0230
2300
,
3200
1300
0010
0100
0001
0010
0100
2000
,
0000
3002
0000
1003
0020
0130
0001
0010
,
0100
0010
0001
0200
0000
0320
0000
1030
,
0002
0103
0001
1000
0100
1000
0001
0020
,
0000
0230
0000
1300
0002
1003
0100
0010
,
0001
0000
1000
0000
0010
0000
0200
0000
0000
0000
0302
0000
0000
0000
0013
0100
,
1000
0001
0100
0001
1000
0100
0010
0001
0020
0030
0200
0300
2000
3000
0002
0003
,
0200
0300
0002
0003
0020
0030
0200
0300
2000
3000
0220
0330
0000
0000
0202
0303
,
0000
0000
0002
0003
0020
0030
0200
0300
2000
3000
0002
0003
0200
0300
0002
0003
,
2000
3000
0200
0300
0020
0030
0002
0003
2000
3000
0000
0000
0020
0030
0200
0300
,
0002
0003
2000
3000
0000
0000
0002
0003
0020
0030
0200
0300
2000
3000
0002
0003
,
0200
0300
0000
0000
0000
0000
0020
0030
2000
3000
0200
0300
2000
3000
0020
0030
,
0200
0300
0002
0003
0000
0000
0020
0030
0200
0300
2000
3000
0002
0003
0200
0300
,
0002
0023
0230
0300
2000
3000
0020
0030
0200
0300
0002
2003
3002
0203
0320
2030
,
3020
1030
0100
0010
0001
1000
0010
0200
,
0000
0302
0000
0013
0200
1300
0001
0100
,
0001
0010
0100
2000
0000
3020
0000
0130
,
0002
0013
0100
1000
0001
0100
0001
2000
,
0000
3200
0000
0310
0002
1003
0010
0100
,
0001
0010
0100
2000
0000
3020
0000
0230
,
0000
0000
0302
0000
0000
0000
0023
0000
0000
0000
0031
1000
0010
0100
0001
1000
,
0002
0000
0000
0000
0013
0200
0000
1300
,
0010
0100
0001
0010
0100
1000
0010
0100
,
0001
0010
0100
1000
0010
0100
0002
0000
,
0000
0013
0100
1000
0001
0100
0001
0010
,
0200
0000
1300
0010
0100
0001
0010
0100
,
1000
0001
1000
0100
0020
0000
0031
1000
,
0010
0100
0001
0010
0100
1000
0001
0100
,
0010
2000
0000
3100
0010
0001
1000
0010
,
0100
0000
0000
0001
0000
0000
0020
0000
0130
0000
1000
0000
0001
0000
0010
0000
0100
0000
1000
0000
0010
0000
0100
0000
,
0001
1000
0100
1000
0001
0010
0100
1000
0010
0100
0001
1000
,
0200
0310
0001
1000
0010
1000
0100
0010
0001
0100
0001
0010
,
0200
1300
0010
0100
0001
0010
0200
1300
0001
0100
0001
1000
,
0100
0010
0001
1000
0010
0100
0001
0010
0100
1000
0001
0100
,
0002
1003
0010
0100
0001
0010
0100
1000
0001
0100
0001
1000
,
0100
0010
0001
1000
0010
1000
0002
0103
0010
1000
0100
0010
,
0001
1000
0001
0010
0100
1000
0010
0100
0001
0010
0100
1000
,
0020
0000
0000
0000
0230
0000
0000
0000
0302
0000
0000
0000
0023
0000
0000
0000
0230
0000
0000
0000
2300
0000
0000
0000
3002
0000
0000
0000
0203
0000
0000
0000
0302
0000
0000
0000
2003
0000
0000
0000
3000
0000
0100
0000
0000
0010
0000
0000
,
0001
1000
0010
0100
0001
0010
0200
1300
0010
0100
0001
1000
,
0200
0310
0001
1000
0001
0010
0100
1000
0001
0100
0001
1000
,
0010
0100
0001
0010
0100
1000
0002
0013
0100
1000
0010
0100
,
0001
0000
1000
0000
0100
0000
0010
0000
0001
0000
0010
0000
0100
0000
0000
1000
0000
0000
0010
0000
0000
0200
0000
0000
,
0000
0300
0100
0001
0010
0200
0000
0000
,
1300
0000
0010
0000
0100
0000
0002
0000
0003
0000
0220
0330
0000
0000
2200
3300
,
0000
0000
2002
3003
0000
0000
2020
3030
0000
0000
0220
0330
0000
0000
0202
0303
,
0000
0020
0230
0300
0000
2020
0000
0000
,
3030
0000
0000
0000
0100
0001
0010
0100
2000
0000
0000
0000
0000
0000
3010
0000
,
0100
0001
0010
0100
1000
0001
0200
0000
,
0320
0000
1030
0100
0010
0001
1000
0010
,
1000
0100
0020
0000
0000
0000
0000
0000
,
0031
1000
0010
0100
0022
0033
0200
0300
,
0220
0330
1000
0010
0100
0001
0010
0100
,
2000
3000
2002
3003
1000
0010
0100
0001
,
0010
0000
0100
0000
2000
0000
3000
0000
0220
0000
0330
0000
0100
0001
0100
0000
,
0001
0000
0000
0010
0000
0000
0100
0000
0000
1000
0000
0000
0001
0000
0000
0100
0000
0000
0002
0000
0013
0000
0100
0000
,
1000
0010
0100
0002
0013
0100
1000
0001
0100
0001
1000
0100
,
0010
0001
1000
0010
1000
0001
0100
0001
0010
0200
1300
0010
,
0100
0001
1000
0100
1000
0010
0100
0001
0010
0200
1300
0001
,
0100
0001
0010
0200
1300
0001
0100
0001
1000
0100
0010
0001
,
1000
0010
1000
0001
0100
0001
0010
0100
1000
0002
1003
0100
,
1000
0000
0010
0000
0100
0000
0001
0000
0010
0000
0100
0000
1000
0000
0001
0000
0100
0000
0001
0000
0000
1000
0000
0000
,
0010
0200
0000
0000
0301
0010
0100
2000
,
0000
0000
0000
0000
0000
0000
0000
0000
0000
0000
0000
0000
3010
0000
0000
0100
0000
0000
0001
0000
0000
0010
0000
0000
0100
0000
0000
1000
0000
0000
0001
0000
0000
0100
0000
0000
0010
0000
0000
0000
1000
0000
0000
0000
0100
0000
0000
0000
,
0010
0001
1000
0001
0100
0010
1000
0100
0010
0001
1000
0010
,
1000
0100
0010
0001
0100
0001
0010
0100
1000
0001
0100
0001
,
1000
0100
0010
0001
1000
0010
0100
0001
0010
0100
1000
0001
,
0100
0001
0010
0100
0010
0001
0100
0001
0010
0100
1000
0001
,
0100
0001
0010
0100
1000
0010
0100
0010
1000
0100
0010
0100
,
1000
0010
0100
0001
0010
0001
1000
0010
0100
0010
1000
0100
,
0010
0001
1000
0010
1000
0001
0100
0010
1000
0100
0010
0001
,
0010
0100
1000
0001
0100
0001
1000
0100
0010
0001
1000
0010
,
0100
0001
0010
0100
1000
0001
0100
0001
1000
0100
0010
0001
,
1000
0010
0100
0001
0010
0001
1000
0100
0010
0001
1000
0010
,
0100
0001
0010
0100
1000
0001
0100
0001
1000
0100
0010
0001
,
1000
0010
0100
0001
0010
0100
1000
0001
0100
0001
1000
0100
,
0010
0001
1000
0010
0100
0001
0010
0001
1000
0100
0010
0001
,
1000
0010
0100
0001
0010
0100
1000
0001
0100
0001
1000
0100
,
0010
0001
1000
0010
0100
0001
0010
0100
1000
0001
0100
0001
,
0010
0000
0100
0000
1000
0000
0010
0000
0100
0000
0001
0000
0010
0000
0100
0000
1000
0000
0002
0000
0000
1003
0000
0000
,
0010
0200
0301
0010
0200
1300
0020
0130
,
0001
0010
0200
1300
0001
0100
0020
1030
,
0100
0020
0031
1000
0020
0130
0002
0013
,
0100
2000
3010
0100
0002
0013
0200
1300
,
0001
0200
0301
0010
0200
1300
0002
0103
,
0010
1000
0200
0310
0002
1003
0020
0130
,
0001
2000
3100
0010
0002
1003
0020
0130
,
0002
0023
0130
1000
0001
0100
0002
0013
,
0100
2000
3010
0100
0002
1003
0002
1003
,
0010
0100
0002
0013
0200
1300
0020
0130
,
0001
2000
3100
0020
0031
1000
0020
0130
,
0001
0020
0130
1000
0002
1003
0020
0130
,
0002
0023
0130
1000
0002
1003
0020
0130
,
0002
0023
0130
1000
0002
2003
3020
0130
,
0002
0023
0130
2000
3010
0200
0301
0010
,
0100
1000
0010
0100
0001
0010
0200
0000
,
0000
0000
0000
0000
,
0000
0000
0000
0000
0300
0200
0300
2020
,
3030
0202
0303
0000
0200
0000
0000
0302
,
0000
0023
0000
0230
2300
0000
3010
0000
,
0202
0303
0000
0000
0022
0033
0000
0000
0000
0000
0000
0000
1000
0001
1000
0010
,
0100
0001
0010
0100
1000
0001
0100
0010
1000
0000
0010
0000
0100
0000
0002
0000
,
0000
2003
0000
0000
0000
0000
0000
0000
,
0000
0000
0000
0000
0000
0000
3100
0010
,
0002
0000
0003
0000
2200
3300
0000
0000
0000
0000
2002
3003
0000
0000
0000
0000
,
2000
0000
0000
3010
0100
0001
0010
0100
1000
0001
0100
0001
,
1000
0000
0001
0000
0100
0000
0010
0000
1000
0000
0100
0000
0010
0000
0000
0001
0000
0000
1000
0000
0000
0010
0000
0000
,
0100
0002
0000
0000
0103
0001
0010
0200
,
0000
0000
0000
0000
0000
0000
1300
0000
0000
0001
0000
0000
1000
0000
0000
0100
0000
0000
0020
0000
0031
0000
1000
0000
,
0010
0100
0001
0010
0100
1000
0001
0100
0001
1000
0100
0010
,
0001
1000
0010
0100
0001
0010
0100
1000
0001
0100
0001
1000
,
0100
0010
0001
1000
0010
0100
0001
0010
0001
1000
0100
0010
,
0001
1000
0010
0100
0001
0010
0100
1000
0001
0200
0000
0000
,
0310
0000
0000
1000
0000
0000
0100
0000
0000
0020
0000
0000
0000
0000
0000
0031
0000
1000
0000
0010
0000
0100
0000
0001
,
0000
0000
0010
0000
0000
0000
0100
0000
0000
0000
1000
0000
0000
0000
0001
0000
0000
0000
0100
0000
0000
0000
0000
0000
0000
0000
0000
0000
0000
0000
0010
0000
0000
1000
0000
0000
0100
0000
0000
0010
0000
0000
0001
0000
0000
0000
0000
0000
,
0001
0000
0100
0000
0001
0010
0100
0000
1000
0000
0010
0000
0100
0000
0001
1000
,
0001
0000
0000
1000
0000
0000
0010
0000
0100
0000
0001
0000
0010
0000
0100
0000
1000
0000
0001
0000
0100
0000
0001
0000
,
1000
0100
0010
0001
1000
0010
1000
0001
0010
0100
1000
0001
,
0100
0001
1000
0100
0010
0001
1000
0001
0010
0100
1000
0010
,
0100
0001
1000
0100
1000
0001
0010
0001
1000
0010
0100
0001
,
0010
0001
1000
0100
0010
0001
1000
0010
1000
0100
0010
0001
,
0100
0000
0000
0000
0001
0000
0000
0000
0010
0000
0000
0000
0100
0000
0000
0000
1000
0000
0000
0000
0001
0000
0000
0000
0100
0000
0000
0000
0000
0000
0220
0000
0000
0330
0000
0000
0000
0000
0000
0000
0000
0000
2200
0000
0000
3300
0000
0000
,
0000
0000
0022
0033
0000
0000
2020
3030
0000
0000
0202
0303
0000
0000
2010
3000
,
0010
0100
0102
0000
0000
0000
0000
0000
,
0013
0100
1000
0010
0200
0000
0302
0000
,
0023
0000
0130
1000
0010
0100
0001
1000
,
0200
0000
0000
0000
0000
0000
0310
0101
,
1010
1100
0110
0000
0011
0000
0010
0100
,
1000
0010
0100
0001
1000
0100
0020
0000
,
0031
1000
0010
0100
0001
0010
0100
1000
,
0001
0000
0000
0000
2000
0000
0000
0000
0000
0000
3100
0010
0001
0000
1000
0000
,
0010
0000
0000
0100
0000
0000
0001
0000
0000
0010
0000
0000
0100
0000
1000
0000
0001
0000
0100
0000
0001
0000
0010
0000
,
0200
1300
0010
0100
0001
0010
0001
1000
0100
0010
0001
1000
,
0010
1000
0001
0010
0001
1000
0200
0310
0001
1000
0001
0100
,
0010
1000
0100
1000
0001
0010
0100
1000
0001
0100
0001
0010
,
0200
1300
0010
0100
0001
1000
0100
1000
0001
0100
0010
1000
,
0100
1000
0001
0100
0001
0010
0200
1300
0010
0100
0001
1000
,
0100
0000
1000
0000
0001
0000
0010
0000
0100
0000
1000
0000
0010
0000
0000
0100
0000
0000
0001
0000
0000
0020
0000
0000
,
0000
0000
0130
1000
0010
0200
0000
0000
,
0301
0000
0000
0010
0000
0000
0100
0000
0000
1000
0000
0000
0001
0000
0000
0100
0000
0000
0010
0000
0000
1000
0000
0000
0100
0000
0000
0000
0010
0000
0000
0000
0001
0000
0000
0000
1000
0000
0000
0000
0010
0000
0000
0000
0100
0000
0000
0000
,
0001
0010
0100
1000
0001
0100
0010
1000
0100
0010
0001
1000
,
0010
0100
0001
0010
0100
1000
0001
0100
0001
1000
0100
0010
,
0001
1000
0010
0100
0010
1000
0100
0010
0100
1000
0010
0100
,
0001
0010
0100
0010
0001
0100
0001
0010
0100
1000
0010
0100
,
0001
0010
0100
0010
0001
1000
0010
0100
0001
0010
0100
1000
,
0001
0100
0001
1000
0100
0010
0100
1000
0010
0100
0001
0010
,
0100
0010
0001
1000
0010
0100
0001
0010
0100
1000
0010
0100
,
0001
1000
0100
0010
0100
1000
0010
0100
0010
1000
0100
0010
,
0001
0100
0001
0010
0100
0010
0001
0100
0010
1000
0001
1000
,
0100
0010
0001
1000
0010
0100
0001
0010
0100
1000
0010
0100
,
0010
1000
0100
0010
0001
0100
0010
1000
0100
0010
0100
1000
,
0010
0100
0001
0010
0100
1000
0010
0100
0010
1000
0100
0010
,
0001
1000
0010
0100
0010
1000
0100
0010
0001
0100
0010
0100
,
0001
0010
0100
1000
0010
0100
0010
1000
0100
0010
0001
0100
,
0010
0100
0001
0010
0100
1000
0001
0100
0001
1000
0010
0100
,
0001
0010
0001
1000
0100
0010
0001
1000
0010
1000
0100
0010
,
0001
1000
0010
1000
0100
0010
0001
1000
0010
1000
0100
0010
,
0001
0100
0010
0100
0001
0010
0100
1000
0001
0100
0001
1000
,
0100
1000
0001
0010
0001
1000
0010
1000
0001
0100
0001
0010
,
0001
1000
0100
1000
0010
1000
0100
0010
0001
0100
0001
0010
,
0100
1000
0010
0100
0001
0010
0100
0010
0001
1000
0010
0100
,
0001
0010
0100
1000
0010
0100
0001
1000
0100
0010
0100
1000
,
0001
0010
0100
1000
0010
0100
0010
1000
0100
0010
0001
1000
,
0010
1000
0100
0010
0001
0100
0001
0010
0100
1000
0010
0100
,
0001
0010
0001
1000
0100
0010
0001
1000
0010
1000
0100
0010
,
0001
0100
0001
0010
0100
1000
0010
0100
0001
0010
0100
0010
,
0001
1000
0010
0100
0001
0010
0100
1000
0001
0100
0001
1000
,
0100
0010
0001
1000
0010
0100
0010
1000
0100
0010
0001
1000
,
0010
0000
1000
0000
0100
0000
0010
0000
0001
0000
0100
0000
0001
0000
0010
0000
0100
0000
1000
0000
0000
0002
0000
0000
,
0000
0000
0103
0010
2000
0000
3200
0320
,
0000
0032
0000
0203
0000
0000
0000
0000
,
0000
0000
0000
0000
0000
0000
0000
0000
0000
0000
0000
0000
0310
0000
0000
1000
0000
0000
0100
0000
0000
0010
0000
0000
0001
0000
0000
0000
1000
0000
0000
0000
0010
0000
0000
0000
0100
0000
0000
0000
0001
0000
0000
0000
0010
0000
0000
0000
,
0100
1000
0001
0100
0001
1000
0100
0010
0001
1000
0010
0100
,
0001
0010
0001
1000
0100
0010
0001
1000
0010
1000
0001
0100
,
0010
1000
0100
0010
0001
1000
0100
0010
0100
1000
0001
0100
,
0001
1000
0100
0010
0001
1000
0001
0010
0100
1000
0010
0100
,
0001
0010
0001
1000
0100
0010
0100
1000
0010
0100
0001
0010
,
0100
0010
0001
1000
0001
0010
0100
1000
0010
0100
0001
1000
,
0100
1000
0001
0010
0100
1000
0010
0100
0001
0010
0001
1000
,
0100
0010
0001
1000
0001
0010
0100
1000
0010
0100
0001
0010
,
0001
1000
0100
0010
0001
1000
0010
1000
0001
0100
0010
1000
,
0100
0010
0001
1000
0001
0100
0001
0010
0100
1000
0001
1000
,
0100
1000
0010
1000
0100
0010
0001
1000
0001
0100
0010
1000
,
0100
0010
0001
0010
0100
0010
0001
0100
0001
0010
0100
1000
,
0010
0100
0001
1000
0100
1000
0001
0010
0100
1000
0010
0100
,
0001
0010
0001
1000
0100
0010
0001
1000
0001
0010
0100
1000
,
0010
0100
0001
0010
0001
1000
0100
1000
0001
0010
0100
1000
,
0001
0000
0100
0000
0010
0000
1000
0000
0100
0000
0010
0000
0002
0000
0000
0000
0000
0000
0003
0000
0000
0021
0000
0000
,
0000
0000
0230
0300
2200
0000
0000
3300
,
2020
0000
0000
3030
0200
0000
0300
0102
,
0000
0000
0023
0030
0210
0000
0000
0000
,
1300
0010
0100
0001
1000
0100
0010
0001
1000
0010
1000
0100
,
0010
0001
0100
0001
0010
0100
1000
0001
0100
0001
1000
0100
,
0010
0001
1000
0001
0010
0100
1000
0010
0100
0001
0010
0001
,
1000
0100
0010
0001
1000
0010
0100
0001
0010
0100
1000
0001
,
0100
0001
1000
0100
0010
0001
1000
0010
0100
0001
0010
0001
,
1000
0100
0010
0001
1000
0010
0100
0001
0010
0100
1000
0001
,
0100
0001
1000
0100
0010
0001
1000
0010
1000
0001
0010
0100
,
1000
0001
0100
0001
1000
0100
0010
0001
1000
0001
0100
0010
,
1000
0100
0010
0001
1000
0010
0100
0001
0010
0001
1000
0100
,
0010
0000
0001
0000
1000
0000
0010
0000
0100
0000
0001
0000
0010
0000
0000
0100
0000
0000
1000
0000
0000
0020
0000
0000
,
0000
0000
0130
0001
0010
0200
0000
0000
,
1300
0010
0100
0002
0000
0000
0013
0100
,
1000
0000
0001
0000
1000
0000
0100
0000
0010
0000
0001
0000
1000
0010
0100
0001
,
0010
0100
1000
0000
0000
0000
0000
0000
0000
0000
0000
0000
0000
0000
0000
0000
;

//---------------dance-single - ----------------
#NOTES:
     dance-single:
     :
     Hard:
     19:
     1.000,1.000,0.187,1.000,1.000,2529.000,45.000,327.000,0.000,0.000:
0000
0000
0000
0000
,
1000
0001
1000
0010
0100
0001
0010
0200
,
1300
0020
0130
0001
0010
0100
1000
0001
,
0100
0001
1000
0200
0310
0002
1003
0010
,
0100
0001
0010
0100
1000
0001
0100
0002
,
1003
0020
0130
0001
0010
0100
1000
0001
,
0100
0001
1000
0200
0310
0002
1003
0020
,
0230
0301
0010
0100
1000
0001
0100
0002
,
1003
0020
0130
0001
0020
0130
1000
0001
,
0100
0001
1000
0200
0310
0002
1003
0010
,
0200
0301
0010
0100
1000
0001
1000
0020
,
0130
0000
0002
0000
0013
0000
0100
0000
2000
0000
3010
0100
0001
0000
0010
0000
,
0100
1000
0001
0000
1000
0000
0010
0000
0100
0000
0001
0010
0100
0000
1000
0000
,
0002
0013
0100
1000
0001
0100
0001
0020
,
0130
2000
3010
0100
0002
0013
0100
1000
,
0001
0100
0001
2000
3100
0020
0031
1000
,
0020
0130
0001
1000
0001
0010
0100
2000
,
3001
0200
0310
1000
0200
0310
0001
1000
,
0010
0000
1000
0000
0100
0000
0020
0000
0031
0000
2000
0000
3010
0000
0100
0001
,
0020
0130
1000
0010
0100
0001
1000
0200
,
0310
0002
1003
0010
0200
0301
0010
0100
,
1000
0001
0100
0002
0013
0200
1300
0010
,
0200
0301
0010
0100
1000
0001
0100
0002
,
1003
0020
0130
0001
0020
0130
1000
0100
,
0010
0000
0001
0000
1000
0000
0100
0010
0001
0000
1000
0000
0010
0000
0100
0001
,
0010
0000
0100
0000
1000
0000
0010
0000
0100
0000
0022
0033
0000
0000
0220
0330
,
0000
0000
0200
0300
2000
3000
0020
0030
0200
0300
0002
0003
0000
0000
0220
0330
,
0000
0000
2200
3300
0000
0000
2000
3000
0020
0030
0202
0303
0000
0000
0002
0003
,
0020
0030
0200
0300
2000
3000
0020
0030
0200
0300
0002
0023
0230
0300
2000
3000
,
0000
0000
0020
0030
0200
0300
0002
0003
0020
0230
2300
3000
0002
0003
0200
0300
,
0020
0030
2200
3300
0000
0000
0200
0300
0020
0030
0002
0003
2000
3000
0020
0030
,
0200
0300
0022
0033
0000
0000
0020
0030
0200
0300
2000
3002
0203
0300
0020
0030
,
2000
3000
0200
0300
0020
0030
0002
0003
2000
3000
0020
0230
0302
0023
0230
2300
,
3200
1300
0010
0100
0001
0010
0100
2000
,
3010
0200
0301
0010
0200
1300
0001
0010
,
0100
0010
0001
0200
0301
0020
0130
1000
,
0002
0103
0001
1000
0100
1000
0001
0020
,
0130
2000
3001
1000
0002
1003
0100
0010
,
0001
0000
1000
0000
0010
0000
0200
0000
0301
0000
0020
0000
0130
0000
0010
0100
,
1000
0001
0100
0001
1000
0100
0010
0001
0020
0030
0200
0300
2000
3000
0002
0003
,
0200
0300
0002
0003
0020
0030
0200
0300
2000
3000
0220
0330
0000
0000
0202
0303
,
0000
0000
0002
0003
0020
0030
0200
0300
2000
3000
0002
0003
0200
0300
0002
0003
,
2000
3000
0200
0300
0020
0030
0002
0003
2000
3000
0000
0000
0020
0030
0200
0300
,
0002
0003
2000
3000
0000
0000
0002
0003
0020
0030
0200
0300
2000
3000
0002
0003
,
0200
0300
0000
0000
0000
0000
0020
0030
2000
3000
0200
0300
2000
3000
0020
0030
,
0200
0300
0002
0003
0000
0000
0020
0030
0200
0300
2000
3000
0002
0003
0200
0300
,
0002
0023
0230
0300
2000
3000
0020
0030
0200
0300
0002
2003
3002
0203
0320
2030
,
3020
1030
0100
0010
0001
1000
0010
0200
,
0301
0020
0130
1000
0002
1003
0001
0100
,
0001
0010
0100
2000
3010
0200
0301
0010
,
0200
1300
0100
1000
0001
0100
0001
2000
,
3100
0020
0031
0010
0002
1003
0010
0100
,
0001
0010
0100
2000
3001
0200
0310
2000
,
3100
0000
0020
0000
0031
0000
2000
0000
3010
0000
0100
0001
0010
0100
1000
0001
,
0200
0000
0000
0000
0310
2000
0000
3100
,
0010
0001
1000
0001
0010
0100
1000
0001
,
0100
0001
1000
0100
0010
0001
1002
0000
,
0000
0013
0100
1000
0001
0100
0001
0010
,
0200
0000
1300
0010
0100
0001
0010
0100
,
1000
0001
1000
0100
0021
0000
0031
1000
,
0010
0100
0001
0010
0100
1000
0001
0100
,
0010
2000
0000
3100
0010
0001
1000
0010
,
0100
0000
0000
0001
0000
0000
0020
0000
0130
0000
1000
0000
0001
0000
0010
0000
0100
0000
1000
0000
0010
0000
0100
0000
,
0001
1000
0100
1000
0001
0010
0100
1000
0010
0100
0001
1000
,
0200
0310
0001
1000
0010
1000
0100
0010
0001
0100
0001
0010
,
0200
1300
0010
0100
0001
0010
0200
1300
0001
0100
0001
1000
,
0100
0010
0001
1000
0010
0100
0001
0010
0100
1000
0001
0100
,
0002
1003
0010
0100
0001
0010
0100
1000
0001
0100
0001
1000
,
0100
0010
0001
1000
0010
1000
0002
0103
0010
1000
0100
0010
,
0001
1000
0001
0010
0100
1000
0010
0100
0001
0010
0100
1000
,
0020
0000
0000
0000
0230
0000
0000
0000
0302
0000
0000
0000
0023
0000
0000
0000
0230
0000
0000
0000
2300
0000
0000
0000
3002
0000
0000
0000
0203
0000
0000
0000
0302
0000
0000
0000
2003
0000
0000
0000
3000
0000
0100
0000
0000
0010
0000
0000
,
0001
1000
0010
0100
0001
0010
0200
1300
0010
0100
0001
1000
,
0200
0310
0001
1000
0001
0010
0100
1000
0001
0100
0001
1000
,
0010
0100
0001
0010
0100
1000
0002
0013
0100
1000
0010
0100
,
0001
0000
1000
0000
0100
0000
0010
0000
0001
0000
0010
0000
0100
0000
0000
1000
0000
0000
0010
0000
0000
0200
0000
0000
,
0000
0300
0100
0001
0010
0200
0000
0000
,
1300
0000
0010
0000
0100
0000
0002
0000
0003
0000
0220
0330
0000
0000
2200
3300
,
0000
0000
2002
3003
0000
0000
2020
3030
0000
0000
0220
0330
0000
0000
0202
0303
,
0000
0020
0230
0300
0000
2020
0000
0000
,
3030
0000
0000
0000
0100
0001
0010
0100
2000
0000
0000
0000
0000
0000
3010
0000
,
0100
0001
0010
0100
1000
0001
0200
0000
,
0320
0000
1030
0100
0010
0001
1000
0010
,
1000
0100
0020
0000
0000
0000
0000
0000
,
0031
1000
0010
0100
0022
0033
0200
0300
,
0220
0330
1000
0010
0100
0001
0010
0100
,
2000
3000
2002
3003
1000
0010
0100
0001
,
0010
0000
0100
0000
2000
0000
3000
0000
0220
0000
0330
0000
0100
0001
0100
0000
,
0001
0000
0000
0010
0000
0000
0100
0000
0000
1000
0000
0000
0001
0000
0000
0100
0000
0000
0002
0000
0013
0000
0100
0000
,
1000
0010
0100
0002
0013
0100
1000
0001
0100
0001
1000
0100
,
0010
0001
1000
0010
1000
0001
0100
0001
0010
0200
1300
0010
,
0100
0001
1000
0100
1000
0010
0100
0001
0010
0200
1300
0001
,
0100
0001
0010
0200
1300
0001
0100
0001
1000
0100
0010
0001
,
1000
0010
1000
0001
0100
0001
0010
0100
1000
0002
1003
0100
,
1000
0000
0010
0000
0100
0000
0001
0000
0010
0000
0100
0000
1000
0000
0001
0000
0100
0000
0001
0000
0000
1000
0000
0000
,
0010
0200
0000
0000
0301
0010
0100
2000
,
0000
0000
0000
0000
3010
0100
0001
0010
0100
1000
0001
0100
0020
1030
0100
0010
,
0001
0100
0001
1000
0100
0010
0001
1000
0001
0010
0100
1000
0010
0100
0010
1000
,
0100
0010
0100
1000
0001
0100
0001
1000
0100
0010
0001
0100
0010
0100
0001
0010
,
0100
1000
0001
0100
0001
1000
0100
0010
0001
1000
0001
0010
0100
1000
0010
0100
,
0001
0010
0001
1000
0100
0010
0001
1000
0001
0010
0100
1000
0010
0100
0001
0010
,
0001
1000
0100
0010
0001
1000
0010
1000
0100
0010
0001
0100
0001
0010
0100
1000
,
0001
0100
0001
1000
0100
1000
0001
0010
0100
1000
0100
0010
0001
1000
0010
1000
,
0100
0010
0001
0100
0001
0010
0100
1000
0001
0100
0001
1000
0100
0010
0001
1000
,
0001
0010
0100
1000
0010
0100
0001
0010
0001
1000
0100
0010
0100
1000
0001
0100
,
0001
1000
0100
0010
0100
1000
0001
0100
0001
0010
0100
1000
0010
0100
0001
0010
,
0001
1000
0100
1000
0010
0100
0001
0010
0100
1000
0001
0100
0001
1000
0100
0010
,
0001
1000
0001
0010
0100
1000
0001
0100
0001
1000
0100
0010
0001
1000
0010
1000
,
0001
0100
0010
1000
0100
0010
0001
1000
0001
0010
0100
1000
0010
0100
0010
1000
,
0100
0010
0100
1000
0001
0100
0001
1000
0100
0010
0001
1000
0001
0100
0001
0100
,
0010
1000
0100
0010
0001
1000
0010
0100
0010
1000
0100
0010
0001
0100
0001
0010
,
0100
1000
0001
0100
0001
0010
0100
1000
0010
0100
0001
1000
0100
1000
0001
0010
,
0100
1000
0010
0100
0001
0010
0001
1000
0100
0010
0001
1000
0002
0103
0010
1000
,
0100
0010
0001
1000
0001
0010
0100
1000
0010
0100
0001
0010
0001
1000
0010
1000
,
0100
0010
0001
0100
0001
0010
0100
0010
0001
1000
0001
0010
0100
1000
0001
0100
,
0001
1000
0100
0010
0001
1000
0010
0100
0001
0010
0001
1000
0100
0010
0001
1000
,
0001
0010
0100
1000
0010
0100
0001
0010
0001
1000
0100
0010
0001
1000
0001
0010
,
0100
1000
0010
0100
0001
0010
0001
1000
0100
0010
0100
1000
0001
0100
0001
1000
,
0100
0010
0001
1000
0001
0010
0100
1000
0010
0100
0001
0010
0001
1000
0100
0010
,
0001
1000
0001
0010
0100
1000
0010
0100
0001
0010
0001
1000
0100
0010
0001
1000
,
0001
0010
0100
1000
0001
0100
0001
1000
0100
0010
0001
1000
0001
0010
0100
1000
,
0010
0100
0001
0010
0001
1000
0100
1000
0010
0100
0001
0010
0100
1000
0001
0100
,
0001
1000
0100
0010
0100
1000
0001
0100
0001
0010
0100
1000
0001
0100
0001
1000
,
0100
1000
0001
0100
0001
0010
0100
1000
0010
0100
0001
1000
0100
0010
0001
1000
,
0001
0010
0100
1000
0010
0100
0001
0010
0001
1000
0100
0010
0100
1000
0001
0100
,
0001
1000
0100
0010
0001
1000
0001
0010
0100
1000
0010
0100
0001
0010
0001
1000
,
0100
0010
0001
1000
0001
0010
0100
1000
0010
0100
0001
0010
0001
1000
0100
0010
,
0001
1000
0001
0010
0100
1000
0010
0100
0001
0010
0001
1000
0100
0010
0001
1000
,
0100
0010
0001
1000
0001
0010
0100
1000
0001
0010
0100
1000
0200
0000
0000
0000
,
0000
0000
0000
0000
,
0000
0000
0000
0000
0300
0200
0300
2020
,
3030
0202
0303
0000
0200
0000
0000
0302
,
0000
0023
0000
0230
2300
0000
3010
0000
,
0202
0303
0000
0000
0022
0033
0000
0000
0000
0000
0000
0000
1000
0001
1000
0010
,
0100
0001
0010
0100
1000
0001
0100
0010
1000
0000
0010
0000
0100
0000
0002
0000
,
0000
2003
0000
0000
0000
0000
0000
0000
,
0000
0000
0000
0000
0000
0000
3100
0010
,
0002
0000
0003
0000
2200
3300
0000
0000
0000
0000
2002
3003
0000
0000
0000
0000
,
2000
0000
0000
3010
0100
0001
0010
0100
1000
0001
0100
0001
,
1000
0000
0001
0000
0100
0000
0010
0000
1000
0000
0100
0000
0010
0000
0000
0001
0000
0000
1000
0000
0000
0010
0000
0000
,
0100
0002
0000
0000
0103
0001
0010
0200
,
0000
0000
0000
0000
0000
0000
1300
0000
0000
0001
0000
0000
1000
0000
0000
0100
0000
0000
0020
0000
0031
0000
1000
0000
,
0010
0100
0001
0010
0100
1000
0001
0100
0001
1000
0100
0010
,
0001
1000
0010
0100
0001
0010
0100
1000
0001
0100
0001
1000
,
0100
0010
0001
1000
0010
0100
0001
0010
0001
1000
0100
0010
,
0001
1000
0010
0100
0001
0010
0100
1000
0001
0200
0310
1000
,
0100
0010
0001
1000
0001
0010
0100
1000
0001
0100
0001
0010
,
0100
0000
0000
0000
1000
0000
0000
0000
0010
0000
0000
0000
0100
0000
0000
0000
0001
0000
0000
0000
1000
0000
0000
0000
0100
0000
0000
0000
0000
0000
0010
0000
0000
0001
0000
0000
1000
0000
0000
0010
0000
0000
0100
0000
0000
0001
0000
0000
,
0010
0100
1000
0001
0100
0001
1000
0100
0010
0001
1000
0001
0010
0100
1000
0010
,
0100
0001
0010
0001
2000
3001
0100
0001
1000
0001
0010
0001
1000
0001
0100
0001
,
1000
0100
1000
0001
1000
0010
1000
0001
1000
0100
1000
0001
0100
0001
1000
0100
,
1000
0001
1000
0100
1000
0010
1000
0001
0010
0001
1000
0100
1000
0001
0100
0001
,
0010
0001
1000
0100
1000
0010
1000
0001
0100
0001
1000
0100
1000
0001
0100
0001
,
1000
0010
1000
0001
0100
0001
0010
0100
1000
0001
0100
0001
0010
0100
1000
0001
,
0100
0001
0010
0100
1000
0001
0100
0001
0010
0000
0220
0330
0000
0000
2200
3300
,
0000
0000
0022
0033
0000
0000
2020
3030
0000
0000
0202
0303
0000
0000
2010
3000
,
0010
0100
0102
0000
0000
0000
0000
0000
,
0013
0100
1000
0010
0200
0000
0302
0000
,
0023
0000
0130
1000
0010
0100
0001
1000
,
0200
0000
0000
0000
0000
0000
0310
0101
,
1010
1100
0110
0000
0011
0000
0010
0100
,
1000
0010
0100
0001
1000
0100
0020
0000
,
0031
1000
0010
0100
0001
0010
0100
1000
,
0001
0000
0000
0000
2000
0000
0000
0000
0000
0000
3100
0010
0001
0000
1000
0000
,
0010
0000
0000
0100
0000
0000
0001
0000
0000
0010
0000
0000
0100
0000
1000
0000
0001
0000
0100
0000
0001
0000
0010
0000
,
0200
1300
0010
0100
0001
0010
0001
1000
0100
0010
0001
1000
,
0010
1000
0001
0010
0001
1000
0200
0310
0001
1000
0001
0100
,
0010
1000
0100
1000
0001
0010
0100
1000
0001
0100
0001
0010
,
0200
1300
0010
0100
0001
1000
0100
1000
0001
0100
0010
1000
,
0100
1000
0001
0100
0001
0010
0200
1300
0010
0100
0001
1000
,
0100
0000
1000
0000
0001
0000
0010
0000
0100
0000
1000
0000
0010
0000
0000
0100
0000
0000
0001
0000
0000
0020
0000
0000
,
0000
0000
0130
1000
0010
0200
0000
0000
,
0301
0000
0000
0010
0000
0000
0100
0000
0000
1000
0000
0000
0001
0000
0000
0100
0000
0000
0010
0000
0000
1000
0000
0000
0100
0000
0000
0000
0010
0000
0000
0000
0001
0000
0000
0000
1000
0000
0000
0000
0010
0000
0000
0000
0100
0000
0000
0000
,
0001
0010
0100
1000
0001
0100
0010
1000
0100
0010
0001
1000
,
0010
0100
0001
0010
0100
1000
0001
0100
0001
1000
0100
0010
,
0001
1000
0010
0100
0010
1000
0100
0010
0100
1000
0010
0100
,
0001
0010
0100
0010
0001
0100
0001
0010
0100
1000
0010
0100
,
0001
0010
0100
0010
0001
1000
0010
0100
0001
0010
0100
1000
,
0001
0100
0001
1000
0100
0010
0100
1000
0010
0100
0001
0010
,
0100
0010
0001
1000
0010
0100
0001
0010
0100
1000
0010
0100
,
0001
1000
0100
0010
0100
1000
0010
0100
0010
1000
0100
0010
,
0001
0100
0001
0010
0100
0010
0001
0100
0010
1000
0001
1000
,
0100
0010
0001
1000
0010
0100
0001
0010
0100
1000
0010
0100
,
0010
1000
0100
0010
0001
0100
0010
1000
0100
0010
0100
1000
,
0010
0100
0001
0010
0100
1000
0010
0100
0010
1000
0100
0010
,
0001
1000
0010
0100
0010
1000
0100
0010
0001
0100
0010
0100
,
0001
0010
0100
1000
0010
0100
0010
1000
0100
0010
0001
0100
,
0010
0100
0001
0010
0100
1000
0001
0100
0001
1000
0010
0100
,
0001
0000
0000
0000
0010
0000
0000
0000
0001
0000
0000
0000
1000
0000
0000
0000
0100
0000
0000
0000
0010
0000
0000
0000
0002
0000
0000
1003
0000
0000
0010
0000
0000
0100
0000
0000
0001
0000
0000
0010
0000
0000
0100
0000
0000
1000
0000
0000
,
0001
0100
0001
1000
0100
0010
0001
1000
0001
0010
0100
1000
0010
0100
0001
0010
,
0001
1000
0100
0010
0001
1000
0010
0100
0001
0010
0100
1000
0001
0100
0001
1000
,
0100
0010
0001
1000
0010
1000
0010
0100
0001
0010
0100
1000
0001
0100
0001
1000
,
0100
0010
0001
1000
0001
1000
0001
0010
0100
1000
0001
1000
0010
0100
0001
0010
,
0001
1000
0100
0010
0001
1000
0001
0100
0001
0100
0010
1000
0100
0010
0001
1000
,
0001
0010
0001
1000
0100
0010
0001
1000
0010
0100
0010
1000
0100
1000
0100
0010
,
0100
1000
0100
1000
0001
0100
0001
0010
0100
1000
0001
0100
0001
1000
0100
0010
,
0001
1000
0010
1000
0010
1000
0100
0010
0001
0100
0001
0010
0100
1000
0001
0100
,
0001
1000
0100
0010
0001
1000
0001
0010
0100
1000
0010
0100
0010
0100
0010
1000
,
0100
0010
0001
1000
0001
0010
0100
1000
0001
0100
0001
0100
0010
1000
0100
0010
,
0100
1000
0001
0100
0001
1000
0100
0010
0001
1000
0001
0010
0100
1000
0010
0100
,
0001
0010
0001
1000
0100
0010
0001
1000
0001
1000
0100
0010
0001
1000
0001
1000
,
0010
0100
0001
0010
0100
1000
0001
0100
0001
1000
0100
0010
0001
1000
0001
0010
,
0001
1000
0100
0010
0001
1000
0001
0010
0001
1000
0100
0010
0001
0010
0001
1000
,
0100
0010
0001
1000
0010
0100
0001
0010
0001
1000
0100
0010
0001
1000
0001
0010
,
0100
0000
0000
1000
0000
0000
0010
0000
0000
0100
0000
0000
0010
0000
0000
1000
0000
0000
0100
0000
0000
0010
0000
0000
0001
0000
0000
0000
1000
0000
0000
0000
0010
0000
0000
0000
0100
0000
0000
0000
0001
0000
0000
0000
0010
0000
0000
0000
,
0100
1000
0001
0100
0001
1000
0100
0010
0001
1000
0010
0100
,
0001
0010
0001
1000
0100
0010
0001
1000
0010
1000
0001
0100
,
0010
1000
0100
0010
0001
1000
0100
0010
0100
1000
0001
0100
,
0001
1000
0100
0010
0001
1000
0001
0010
0100
1000
0010
0100
,
0001
0010
0001
1000
0100
0010
0100
1000
0010
0100
0001
0010
,
0100
0010
0001
1000
0001
0010
0100
1000
0010
0100
0001
1000
,
0100
1000
0001
0010
0100
1000
0010
0100
0001
0010
0001
1000
,
0100
0010
0001
1000
0001
0010
0100
1000
0010
0100
0001
0010
,
0001
1000
0100
0010
0001
1000
0010
1000
0001
0100
0010
1000
,
0100
0010
0001
1000
0001
0100
0001
0010
0100
1000
0001
1000
,
0100
1000
0010
1000
0100
0010
0001
1000
0001
0100
0010
1000
,
0100
0010
0001
0010
0100
0010
0001
0100
0001
0010
0100
1000
,
0010
0100
0001
1000
0100
1000
0001
0010
0100
1000
0010
0100
,
0001
0010
0001
1000
0100
0010
0001
1000
0001
0010
0100
1000
,
0010
0100
0001
0010
0001
1000
0100
1000
0001
0010
0100
1000
,
0001
0000
0100
0000
0010
0000
1000
0000
0100
0000
0010
0000
0002
0000
0000
0000
0000
0000
0003
0000
0000
0021
0000
0000
,
0000
0000
0230
0300
2200
0000
0000
3300
,
2020
0000
0000
3030
0200
0000
0300
0102
,
0000
0000
0023
0030
0210
0000
0000
0000
,
2300
3001
0100
0001
1000
0100
0010
0001
1000
0001
0010
0100
1000
0010
0100
0001
,
0010
0001
1000
0100
0010
0001
1000
0001
0010
0100
1000
0100
0010
0001
0100
0001
,
0010
0100
1000
0010
0100
0001
1000
0100
1000
0001
0010
0100
1000
0010
0100
0001
,
0010
0001
1000
0100
0010
0001
1000
0001
0010
0100
1000
0010
0100
0001
0010
0001
,
1000
0100
0010
0001
1000
0001
0010
0100
1000
0010
0100
0001
0010
0001
1000
0100
,
0010
0001
1000
0010
0100
0001
0010
0001
1000
0100
0010
0001
1000
0001
0010
0100
,
1000
0001
0100
0001
1000
0100
0010
0001
1000
0001
0010
0100
1000
0010
0100
0001
,
0010
0001
1000
0100
0010
0001
1000
0001
0010
0001
1000
0100
0010
0001
1000
0010
,
1000
0100
0010
0001
0100
0001
0010
0100
1000
0001
1000
0010
0100
0001
0010
0001
,
1000
0100
0010
0001
1000
0010
1000
0100
0010
0000
0100
0000
1000
0000
0020
0000
,
0000
0000
0130
0001
0010
0200
0000
0000
,
1300
0010
0100
0002
0000
0000
0013
0100
,
1000
0000
0001
0000
1000
0000
0100
0000
0010
0000
0001
0000
1000
0010
0100
0001
,
0010
0100
1000
0000
0000
0000
0000
0000
0000
0000
0000
0000
0000
0000
0000
0000
;

//---------------dance-single - ----------------
#NOTES:
     dance-single:
     :
     Challenge:
     22:
     1.000,1.000,0.196,1.000,1.000,2792.000,47.000,320.000,0.000,0.000:
0000
0000
0000
0000
,
1000
0001
1000
0010
0100
0001
0010
0200
,
1300
0020
0130
0001
0010
0100
1000
0001
,
0100
0001
1000
0200
0310
0002
1003
0010
,
0100
0001
0010
0100
1000
0001
0100
0002
,
1003
0020
0130
0001
0010
0100
1000
0001
,
0100
0001
1000
0200
0310
0002
1003
0020
,
0230
0301
0010
0100
1000
0001
0100
0002
,
1003
0020
0130
0001
0020
0130
1000
0001
,
0100
0001
1000
0200
0310
0002
1003
0010
,
0200
0301
0010
0100
1000
0001
1000
0020
,
0130
0000
0002
0000
0013
0000
0100
0000
2000
0000
3010
0100
0001
0010
0100
1000
,
0001
0100
0001
1000
0100
0010
0001
1000
0001
0010
0001
0010
0100
0000
1000
0000
,
0002
0013
0100
1000
0001
0100
0001
0020
,
0130
2000
3010
0100
0002
0013
0100
1000
,
0001
0100
0001
2000
3100
0020
0031
1000
,
0020
0130
0001
1000
0001
0010
0100
2000
,
3001
0200
0310
1000
0200
0310
0001
1000
,
0010
0000
1000
0000
0100
0000
0020
0000
0031
0000
2000
0000
3010
0000
0100
0001
,
0020
0130
1000
0010
0100
0001
1000
0200
,
0310
0002
1003
0010
0200
0301
0010
0100
,
1000
0001
0100
0002
0013
0200
1300
0010
,
0200
0301
0010
0100
1000
0001
0100
0002
,
1003
0020
0130
0001
0020
0130
1000
0100
,
0010
0000
0001
0000
1000
0000
0100
0010
0001
1000
0100
0010
0001
1000
0100
0010
,
0001
0000
0101
0000
1000
0000
0010
0000
0100
0000
0022
0033
0000
0000
0220
0330
,
0000
0000
0200
0300
2000
3000
0020
0030
0200
0300
0002
0003
0000
0000
0220
0330
,
0000
0000
2200
3300
0000
0000
2000
3000
0020
0030
0202
0303
0000
0000
0002
0003
,
0020
0030
0200
0300
2000
3000
0020
0030
0200
0300
0002
0023
0230
0300
2000
3000
,
0000
0000
0020
0030
0200
0300
0002
0003
0020
0230
2300
3000
0002
0003
0200
0300
,
0020
0030
2200
3300
0000
0000
0200
0300
0020
0030
0002
0003
2000
3000
0020
0030
,
0200
0300
0022
0033
0000
0000
0020
0030
0200
0300
2000
3002
0203
0300
0020
0030
,
2000
3000
0200
0300
0020
0030
0002
0003
2000
3000
0020
0230
0302
0023
0230
2300
,
3200
1300
0010
0100
0001
0010
0100
2000
,
3010
0200
0301
0010
0200
1300
0001
0010
,
0100
0010
0001
0200
0301
0020
0130
1000
,
0002
0103
0001
1000
0100
1000
0001
0020
,
0130
2000
3001
1000
0002
1003
0100
0010
,
0001
0000
1000
0000
0010
0000
0200
0000
0301
0000
0020
0000
0130
0000
0010
0100
,
1000
0001
0100
0001
1000
0100
0010
0001
0020
0030
0200
0300
2000
3000
0002
0003
,
0200
0300
0002
0003
0020
0030
0200
0300
2000
3000
0220
0330
0000
0000
0202
0303
,
0000
0000
0002
0003
0020
0030
0200
0300
2000
3000
0002
0003
0200
0300
0002
0003
,
2000
3000
0200
0300
0020
0030
0002
0003
2000
3000
0000
0000
0020
0030
0200
0300
,
0002
0003
2000
3000
0000
0000
0002
0003
0020
0030
0200
0300
2000
3000
0002
0003
,
0200
0300
0000
0000
0000
0000
0020
0030
2000
3000
0200
0300
2000
3000
0020
0030
,
0200
0300
0002
0003
0000
0000
0020
0030
0200
0300
2000
3000
0002
0003
0200
0300
,
0002
0023
0230
0300
2000
3000
0020
0030
0200
0300
0002
2003
3002
0203
0320
2030
,
3020
1030
0100
0010
0001
1000
0010
0200
,
0301
0020
0130
1000
0002
1003
0001
0100
,
0001
0010
0100
2000
3010
0200
0301
0010
,
0200
1300
0100
1000
0001
0100
0001
2000
,
3100
0020
0031
0010
0002
1003
0010
0100
,
0001
0010
0100
2000
3001
0200
0310
2000
,
3100
0000
0020
0000
0031
0000
2000
0000
3010
0000
0100
0001
0010
0100
1000
0001
,
0200
0000
0000
0000
0310
2000
0000
3100
,
0010
0001
1000
0001
0010
0100
1000
0001
,
0100
0001
1000
0100
0010
0001
1002
0000
,
0000
0013
0100
1000
0001
0100
0001
0010
,
1200
0000
1300
0010
0100
0001
0010
0100
,
1000
0001
1000
0100
0021
0000
0031
1000
,
0010
0100
0001
0010
0100
1000
0001
0100
,
0010
2000
0000
3100
0010
0001
1000
0010
,
0100
0000
0001
0000
0020
0130
1000
0001
0100
0001
1000
0100
0010
0001
1000
0010
,
1000
0001
0100
0001
0010
0100
1000
0001
0100
0001
1000
0100
0010
0001
1000
0001
,
0020
0130
1000
0001
0100
0001
1000
0100
0010
0001
1000
0001
0010
0100
1000
0010
,
0200
0301
0010
0001
1000
0100
0010
0001
2000
3001
0100
0001
1000
0100
0010
0001
,
1000
0010
1000
0001
0100
0001
0010
0100
1000
0001
0100
0001
1000
0100
0010
0001
,
2000
3001
0100
0001
1000
0100
0010
0001
1000
0010
1000
0001
0100
0001
0010
0100
,
1000
0100
0010
0001
0010
0100
1000
0001
2000
3001
0100
0001
1000
0100
0010
0001
,
1000
0010
1000
0001
0100
0001
0010
0100
1000
0001
0100
0001
1000
0100
0010
0001
,
2000
3001
0100
0001
0010
0100
1000
0001
0100
0001
1000
0100
0010
0001
1000
0001
,
0010
0100
1000
0010
0100
0001
0010
0001
2000
3001
0100
0001
1000
0100
0010
0001
,
0020
0130
1000
0001
0100
0001
1000
0100
0010
0001
1000
0001
0010
0001
1000
0100
,
0010
0001
1000
0010
1000
0001
0100
0010
2000
3100
0010
0100
1000
0001
0100
0001
,
1000
0100
0010
0001
1000
0001
0010
0001
0100
0000
1000
0000
0010
0000
0200
0000
,
0000
0300
0100
0001
0010
0200
0000
0000
,
1300
0000
0010
0000
0100
0000
0002
0000
0003
0000
0220
0330
0000
0000
2200
3300
,
0000
0000
2002
3003
0000
0000
2020
3030
0000
0000
0220
0330
0000
0000
0202
0303
,
0000
0020
0230
0300
0000
2020
0000
0000
,
3030
0000
0000
0000
0100
0001
0010
0100
2000
0000
0000
0000
0000
0000
3010
0000
,
0100
0001
0010
0100
1000
0001
0200
0000
,
0320
0000
1030
0100
0010
0001
1000
0010
,
1000
0100
0020
0000
0000
0000
0000
0000
,
0031
1000
0010
0100
0022
0033
0200
0300
,
0220
0330
1000
0010
0100
0001
0010
0100
,
2000
3000
2002
3003
1000
0010
0100
0001
,
0010
0000
0100
0000
2000
0000
3000
0000
0220
0000
0330
0000
0100
0001
0100
0000
,
0001
0000
0010
0000
0100
0000
1000
0000
0001
0000
0100
0000
0002
0013
0100
1000
,
0001
0100
0001
1000
0200
0310
0001
1000
0001
0010
0001
1000
0100
0010
0001
1000
,
0010
0100
0010
1000
0100
0010
0001
0100
0001
0010
0100
1000
0002
1003
0010
0100
,
0001
0010
0100
1000
0001
0100
0001
1000
0100
0010
0001
1000
0020
0130
0001
0010
,
0001
1000
0100
0010
0002
1003
0001
0100
0010
1000
0100
0010
0001
1000
0010
0100
,
0001
0010
0001
1000
0100
0010
0001
1000
0010
0100
0001
0010
0200
1300
0001
0100
,
0001
1000
0100
0010
0001
1000
0010
0100
0001
0010
0100
1000
0001
0000
1000
0000
,
0010
0200
0000
0000
0301
0010
0100
2000
,
0000
0000
0000
0000
3010
0100
0001
0010
0100
1000
0001
0100
0020
1030
0100
0010
,
0001
0100
0001
1000
0100
0010
0001
1000
0001
0010
0100
1000
0010
0100
0010
1000
,
0100
0010
0100
1000
0001
0100
0001
1000
0100
0010
0001
0100
0010
0100
0001
0010
,
0100
1000
0001
0100
0001
1000
0100
0010
0001
1000
0001
0010
0100
1000
0010
0100
,
0001
0010
0001
1000
0100
0010
0001
1000
0001
0010
0100
1000
0010
0100
0001
0010
,
0001
1000
0100
0010
0001
1000
0010
1000
0100
0010
0001
0100
0001
0010
0100
1000
,
0001
0100
0001
1000
0100
1000
0001
0010
0100
1000
0100
0010
0001
1000
0010
1000
,
0100
0010
0001
0100
0001
0010
0100
1000
0001
0100
0001
1000
0100
0010
0001
1000
,
0001
0010
0100
1000
0010
0100
0001
0010
0001
1000
0100
0010
0100
1000
0001
0100
,
0001
1000
0100
0010
0100
1000
0001
0100
0001
0010
0100
1000
0010
0100
0001
0010
,
0001
1000
0100
1000
0010
0100
0001
0010
0100
1000
0001
0100
0001
1000
0100
0010
,
0001
1000
0001
0010
0100
1000
0001
0100
0001
1000
0100
0010
0001
1000
0010
1000
,
0001
0100
0010
1000
0100
0010
0001
1000
0001
0010
0100
1000
0010
0100
0010
1000
,
0100
0010
0100
1000
0001
0100
0001
1000
0100
0010
0001
1000
0001
0100
0001
0100
,
0010
1000
0100
0010
0001
1000
0010
0100
0010
1000
0100
0010
0001
0100
0001
0010
,
0100
1000
0001
0100
0001
0010
0100
1000
0010
0100
0001
1000
0100
1000
0001
0010
,
0100
1000
0010
0100
0001
0010
0001
1000
0100
0010
0001
1000
0002
0103
0010
1000
,
0100
0010
0001
1000
0001
0010
0100
1000
0010
0100
0001
0010
0001
1000
0010
1000
,
0100
0010
0001
0100
0001
0010
0100
0010
0001
1000
0001
0010
0100
1000
0001
0100
,
0001
1000
0100
0010
0001
1000
0010
0100
0001
0010
0001
1000
0100
0010
0001
1000
,
0001
0010
0100
1000
0010
0100
0001
0010
0001
1000
0100
0010
0001
1000
0001
0010
,
0100
1000
0010
0100
0001
0010
0001
1000
0100
0010
0100
1000
0001
0100
0001
1000
,
0100
0010
0001
1000
0001
0010
0100
1000
0010
0100
0001
0010
0001
1000
0100
0010
,
0001
1000
0001
0010
0100
1000
0010
0100
0001
0010
0001
1000
0100
0010
0001
1000
,
0001
0010
0100
1000
0001
0100
0001
1000
0100
0010
0001
1000
0001
0010
0100
1000
,
0010
0100
0001
0010
0001
1000
0100
1000
0010
0100
0001
0010
0100
1000
0001
0100
,
0001
1000
0100
0010
0100
1000
0001
0100
0001
0010
0100
1000
0001
0100
0001
1000
,
0100
1000
0001
0100
0001
0010
0100
1000
0010
0100
0001
1000
0100
0010
0001
1000
,
0001
0010
0100
1000
0010
0100
0001
0010
0001
1000
0100
0010
0100
1000
0001
0100
,
0001
1000
0100
0010
0001
1000
0001
0010
0100
1000
0010
0100
0001
0010
0001
1000
,
0100
0010
0001
1000
0001
0010
0100
1000
0010
0100
0001
0010
0001
1000
0100
0010
,
0001
1000
0001
0010
0100
1000
0010
0100
0001
0010
0001
1000
0100
0010
0001
1000
,
0100
0010
0001
1000
0001
0010
0100
1000
0001
0010
0100
1000
0200
0000
0000
0000
,
0000
0000
0000
0000
,
0000
0000
0000
0000
0300
0200
0300
2020
,
3030
0202
0303
0000
0200
0000
0000
0302
,
0000
0023
0000
0230
2300
0000
3010
0000
,
0202
0303
0000
0000
0022
0033
0000
0000
0000
0000
0000
0000
1000
0001
1000
0010
,
0100
0001
0010
0100
1000
0001
0100
0010
1000
0000
0010
0000
0100
0000
0002
0000
,
0000
2003
0000
0000
0000
0000
0000
0000
,
0000
0000
0000
0000
0000
0000
3100
0010
,
0002
0000
0003
0000
2200
3300
0000
0000
0000
0000
2002
3003
0000
0000
0000
0000
,
2000
0000
0000
0000
3010
0100
0001
0010
0100
1000
0001
0100
0001
1000
0100
0010
,
0001
1000
0001
0010
0100
1000
0001
1000
0010
0000
0100
0000
0001
0000
0010
0000
,
0100
2000
0000
0000
3001
1000
0010
0200
,
0000
0000
0000
0000
0301
0000
0010
0000
0100
0000
1000
0000
0002
1003
0010
0100
,
0001
0010
0100
1000
0001
0100
0001
1000
0100
0010
0001
1000
0010
0100
0001
1000
,
0100
0010
0001
1000
0001
0010
0001
1000
0100
0010
0001
1000
0001
0010
0100
1000
,
0001
0100
0001
1000
0100
0010
0001
1000
0010
0100
0001
0010
0001
1000
0100
0010
,
0100
1000
0001
0100
0001
1000
0100
0010
0001
1000
0100
0010
0001
1000
0001
0010
,
0100
1000
0010
0100
0001
0010
0001
1000
0100
0010
0001
1000
0010
0100
0001
0010
,
0001
1000
0100
0010
0001
1000
0001
1000
0100
1000
0001
0100
0001
0010
0100
1000
,
0010
0100
0001
0010
0001
1000
0100
0010
0001
1000
0010
1000
0100
0010
0001
0100
,
0001
0010
0100
1000
0002
1003
0010
0100
0001
1000
0100
1000
0001
0100
0001
0010
,
0100
0010
0001
1000
0001
0010
0100
0010
0001
1000
0001
0010
0100
0001
1000
0100
,
0010
0100
1000
0001
1000
0100
0010
0100
1000
0001
1000
0100
0010
0001
0010
0100
,
1000
0001
0100
0001
1000
0100
0010
0001
1000
0010
0100
0001
0010
0001
1000
0100
,
0010
0001
1000
0001
0010
0100
1000
0010
0100
0001
0010
0001
1000
0100
0010
0001
,
1000
0001
0010
0001
1000
0100
0010
0001
0010
0000
0220
0330
0000
0000
2200
3300
,
0000
0000
0022
0033
0000
0000
2020
3030
0000
0000
0202
0303
0000
0000
2010
3000
,
0010
0100
0102
0000
0000
0000
0000
0000
,
0013
0100
1000
0010
0200
0000
0302
0000
,
0023
0000
0130
1000
0010
0100
0001
1000
,
0200
0000
0000
0000
0000
0000
0310
0101
,
1010
1100
0110
0000
0011
0000
0010
0100
,
1000
0010
0100
0001
1000
0100
0020
0000
,
0031
1000
0010
0100
0001
0010
0100
1000
,
0001
0000
0000
0000
2000
0000
0000
0000
0000
0000
3100
0010
0001
0000
1000
0000
,
0010
0000
0100
0000
0001
0000
0010
0000
0200
1300
0010
0100
0001
0010
0001
1000
,
0200
0310
0001
1000
0010
0100
0001
0010
0100
1000
0001
0100
0001
1000
0100
0010
,
0001
1000
0010
1000
0100
0010
0001
1000
0002
1003
0010
0100
0001
0010
0001
1000
,
0100
0010
0001
1000
0001
0010
0100
1000
0010
0100
0001
0010
0001
1000
0100
0010
,
0002
0103
0001
0010
0100
1000
0001
0100
0001
1000
0100
0010
0001
1000
0010
1000
,
0100
0010
0001
0100
0001
0010
0100
1000
0002
1003
0100
0010
0100
1000
0100
0010
,
0100
1000
0001
0100
0001
0010
0100
1000
0010
0000
0100
0000
0001
0000
0020
0000
,
0000
0000
0130
1000
0010
0200
0000
0000
,
0301
0010
0100
1000
0001
0100
0010
1000
0200
0310
0001
1000
0001
0010
0100
1000
,
0001
0100
0001
1000
0010
0100
0001
0010
0001
0010
0100
1000
0001
1000
0001
1000
,
0100
0010
0001
1000
0010
1000
0010
0100
0001
0010
0100
1000
0001
0100
0001
0100
,
0010
1000
0100
0010
0001
1000
0010
1000
0100
0010
0001
1000
0001
1000
0010
0100
,
0001
0010
0100
1000
0001
0100
0001
0100
0010
1000
0100
0010
0001
1000
0010
0100
,
0010
1000
0100
0010
0100
1000
0001
0100
0001
0100
0010
1000
0100
0010
0001
1000
,
0001
0010
0100
1000
0010
0100
0010
1000
0100
0010
0100
0010
0001
1000
0001
0010
,
0100
1000
0001
0100
0001
0010
0100
1000
0010
1000
0010
0100
0001
0100
0001
0010
,
0100
1000
0001
0100
0001
0010
0100
1000
0010
0100
0001
0010
0001
1000
0100
0010
,
0001
1000
0001
0010
0100
1000
0001
0100
0010
1000
0100
0010
0001
1000
0010
0100
,
0001
0010
0100
1000
0001
0100
0001
0100
0010
1000
0100
0010
0001
1000
0010
0100
,
0001
0010
0001
1000
0100
0010
0001
0010
0001
1000
0010
0100
0001
0010
0100
1000
,
0001
0100
0001
0100
0010
1000
0100
0010
0001
1000
0001
0010
0100
1000
0010
0100
,
0001
0010
0001
1000
0100
0010
0001
1000
0010
1000
0001
0100
0001
0010
0100
1000
,
0001
0100
0001
1000
0100
0010
0001
1000
0001
0010
0100
1000
0010
0100
0001
0010
,
0001
1000
0010
0100
0001
0010
0001
1000
0100
0010
0001
1000
0001
0010
0100
1000
,
0010
0100
0001
0010
0100
1000
0001
1000
0002
1003
0010
0100
0001
0010
0100
1000
,
0001
0100
0001
1000
0100
0010
0001
1000
0001
0010
0100
1000
0010
0100
0001
0010
,
0001
1000
0100
0010
0001
1000
0010
0100
0001
0010
0100
1000
0001
0100
0001
1000
,
0100
0010
0001
1000
0010
1000
0010
0100
0001
0010
0100
1000
0001
0100
0001
1000
,
0100
0010
0001
1000
0001
1000
0001
0010
0100
1000
0001
1000
0010
0100
0001
0010
,
0001
1000
0100
0010
0001
1000
0001
0100
0001
0100
0010
1000
0100
0010
0001
1000
,
0001
0010
0001
1000
0100
0010
0001
1000
0010
0100
0010
1000
0100
1000
0100
0010
,
0100
1000
0100
1000
0001
0100
0001
0010
0100
1000
0001
0100
0001
1000
0100
0010
,
0001
1000
0010
1000
0010
1000
0100
0010
0001
0100
0001
0010
0100
1000
0001
0100
,
0001
1000
0100
0010
0001
1000
0001
0010
0100
1000
0010
0100
0010
0100
0010
1000
,
0100
0010
0001
1000
0001
0010
0100
1000
0001
0100
0001
0100
0010
1000
0100
0010
,
0100
1000
0001
0100
0001
1000
0100
0010
0001
1000
0001
0010
0100
1000
0010
0100
,
0001
0010
0001
1000
0100
0010
0001
1000
0001
1000
0100
0010
0001
1000
0001
1000
,
0010
0100
0001
0010
0100
1000
0001
0100
0001
1000
0100
0010
0001
1000
0001
0010
,
0001
1000
0100
0010
0001
1000
0001
0010
0001
1000
0100
0010
0001
0010
0001
1000
,
0100
0010
0001
1000
0010
0100
0001
0010
0001
1000
0100
0010
0001
1000
0001
0010
,
0100
1000
0010
0100
0010
1000
0100
0010
0002
1003
0001
0100
0010
1000
0100
0010
,
0100
1000
0001
0100
0001
0100
0010
1000
0100
0010
0001
1000
0001
0010
0100
1000
,
0010
0100
0010
1000
0100
0010
0100
1000
0001
0100
0001
1000
0100
1000
0100
0010
,
0001
1000
0001
0010
0100
1000
0010
0100
0001
0010
0100
1000
0001
0100
0001
1000
,
0100
0010
0001
1000
0010
0100
0001
0010
0001
0010
0100
1000
0001
0100
0001
0100
,
0010
1000
0100
0010
0001
1000
0001
0010
0100
1000
0010
0100
0001
0010
0100
1000
,
0001
0100
0001
0100
0010
1000
0100
0010
0001
1000
0001
0010
0001
0010
0100
1000
,
0001
0100
0001
1000
0100
0010
0001
1000
0010
1000
0010
0100
0001
0010
0100
1000
,
0001
0100
0001
1000
0100
0010
0001
1000
0010
1000
0010
0100
0001
0010
0100
1000
,
0001
0100
0001
1000
0100
0010
0001
1000
0001
0010
0100
1000
0001
0100
0001
1000
,
0100
0010
0001
1000
0001
0010
0100
1000
0010
0100
0001
0010
0001
1000
0100
0010
,
0001
1000
0010
1000
0001
0100
0001
0010
0100
1000
0001
0100
0001
0010
0100
1000
,
0001
0100
0001
0010
0100
1000
0010
0100
0001
0010
0001
1000
0100
0010
0001
1000
,
0001
0010
0100
1000
0001
0100
0001
1000
0100
0010
0001
1000
0010
0100
0001
0010
,
0001
0010
0100
1000
0001
0100
0001
1000
0100
0010
0001
1000
0010
0100
0001
0010
,
0001
1000
0100
0010
0001
1000
0001
0010
0100
1000
0001
0100
0001
1000
0100
0010
,
0001
1000
0010
1000
0001
1000
0100
0010
0002
0000
0000
0000
0003
0000
0021
0000
,
0000
0000
0230
0300
2200
0000
0000
3300
,
2020
0000
0000
3030
0200
0000
0300
0102
,
0000
0000
0023
0030
0210
0000
0000
0000
,
2300
3001
0100
0001
1000
0100
0010
0001
1000
0001
0010
0100
1000
0010
0100
0001
,
0010
0001
1000
0100
0010
0001
1000
0001
0010
0100
1000
0100
0010
0001
0100
0001
,
0010
0100
1000
0010
0100
0001
1000
0100
1000
0001
0010
0100
1000
0010
0100
0001
,
0010
0001
1000
0100
0010
0001
1000
0001
0010
0100
1000
0010
0100
0001
0010
0001
,
1000
0100
0010
0001
1000
0001
0010
0100
1000
0010
0100
0001
0010
0001
1000
0100
,
0010
0001
1000
0010
0100
0001
0010
0001
1000
0100
0010
0001
1000
0001
0010
0100
,
1000
0001
0100
0001
1000
0100
0010
0001
1000
0001
0010
0100
1000
0010
0100
0001
,
0010
0001
1000
0100
0010
0001
1000
0001
0010
0001
1000
0100
0010
0001
1000
0010
,
1000
0100
0010
0001
0100
0001
0010
0100
1000
0001
1000
0010
0100
0001
0010
0001
,
1000
0100
0010
0001
1000
0010
1000
0100
0010
0000
0100
0000
1000
0000
0020
0000
,
0000
0000
0130
0001
0010
0200
0000
0000
,
1300
0010
0100
0002
0000
0000
0013
0100
,
1000
0000
0001
0000
1000
0000
0100
0000
0010
0000
0001
0000
1000
0010
0100
0001
,
0010
0100
1000
0000
0000
0000
0000
0000
0000
0000
0000
0000
0000
0000
0000
0000
;
