#TITLE:Enemy Combatant;
#SUBTITLE:Imil's Bloody Remix;
#ARTIST:Corroded Master;
#TITLETRANSLIT:;
#SUBTITLETRANSLIT:;
#ARTISTTRANSLIT:;
#CREDIT:;
#BANNER:enemy combatant bn.png;
#BACKGROUND:enemy combatant bg.png;
#LYRICSPATH:;
#CDTITLE:;
#MUSIC:enemy.ogg;
#OFFSET:-0.042;
#SAMPLESTART:87.820;
#SAMPLELENGTH:21.940;
#SELECTABLE:YES;
#DISPLAYBPM:178.000;
#BPMS:0.000=87.490,13.000=87.000,16.000=88.000,17.000=87.000,19.000=86.000,25.000=87.000,26.000=88.000,28.000=89.000,29.000=90.760,32.000=175.000;
#STOPS:;
#BGCHANGES:;
// cache tags:
#FIRSTBEAT:12.000;
#LASTBEAT:338.000;
#SONGFILENAME:Songs/SPEEEDCOOOORE 3/Enemy Combatant - [Tyler]/enemy combatant.sm;
#HASMUSIC:1;
#HASBANNER:1;
#MUSICLENGTH:128.078;
// end cache tags

//---------------dance-single - T. Moore----------------
#NOTES:
     dance-single:
     T. Moore:
     Hard:
     13:
     0.878,1.000,0.351,0.289,1.000,695.000,45.000,37.000,10.000,0.000:
0000
0000
0000
0000
,
0000
0000
0000
0000
,
0000
0000
0000
0000
,
0001
0001
0001
0000
0000
0000
0000
0000
0000
0000
0000
0000
0000
0000
0000
0000
,
1000
1000
1000
0000
0000
0000
0000
0000
0000
0000
0000
0000
0000
0000
0000
0000
,
0010
0010
0010
0000
0000
0000
0000
0000
0000
0000
0000
0000
0000
0000
0000
0000
,
0100
0100
0100
0000
0000
0000
0000
0000
0000
0000
0000
0000
0000
0000
0000
0000
,
0001
0001
0001
0000
0000
0000
0000
0000
0000
0000
0000
0000
0000
0000
0000
0000
,
1002
1000
1003
0001
0100
0010
0200
0000
,
0310
0000
1000
0000
0020
0000
0000
0000
1030
0000
0001
0000
2000
0000
0000
3000
,
0021
0001
0031
0010
0100
1000
0200
0000
,
1300
0000
0001
0000
2000
0000
0000
0000
3010
0000
0100
0000
0020
0000
0000
0030
,
0102
0000
0100
0000
0103
0000
0001
0000
0010
0000
0100
0000
0020
0000
0000
0030
,
1001
0000
0001
0000
2000
0000
0000
0000
3010
0000
0100
0000
0020
0000
0000
0030
,
0201
0001
0301
0100
0010
1000
0200
0000
,
1300
0001
2000
0000
3001
0100
0002
0000
,
1003
0010
0100
0001
1000
0001
0100
0010
1000
0001
0010
0001
1000
0100
0010
0001
,
1000
0000
0000
0000
0010
0000
0000
0000
0100
0000
0000
0000
0001
0000
0000
0000
1000
0000
0000
0000
0001
0000
0000
0000
0100
0000
0000
0000
0010
0000
0000
0000
1000
0000
0000
0000
0001
0000
0000
0000
0010
0000
0000
0000
0100
0000
0000
0000
1000
0000
0000
0000
0040
0030
0000
0000
0100
0000
0000
0000
0001
0000
0000
0000
,
1000
0100
0010
0001
1000
0001
0010
0100
1000
0001
0100
0001
1000
0010
0100
0001
,
1000
0100
0010
0001
1000
0001
0010
0100
2000
3000
2000
3000
2000
3000
0040
0000
,
1030
0001
0100
0001
1000
0010
0100
0010
1000
0001
0010
0001
1000
0100
0010
0001
,
1000
0000
0000
0010
0000
0000
0100
0000
0000
0001
0000
0000
1000
0000
0000
0001
0000
0000
0100
0000
0000
0010
0000
0000
1000
0000
0000
0001
0000
0000
0010
0000
0000
0100
0000
0000
1000
0000
0001
0000
1000
0000
0100
0000
0010
0000
0001
0000
,
1000
0010
0100
0001
1000
0001
0100
0010
1000
0001
0010
0001
1000
0100
0010
0001
,
2000
0000
0000
0000
3000
0000
0000
0000
0001
0010
0001
0010
0001
0010
0001
0010
,
0100
1000
0001
0010
0001
1000
0010
0100
0001
1000
0100
1000
0001
0010
0100
1000
,
0001
0000
0000
0000
0100
0000
0000
0000
0010
0000
0000
0000
1000
0000
0000
0000
0001
0000
0000
0000
1000
0000
0000
0000
0010
0000
0000
0000
0100
0000
0000
0000
0001
0000
0000
0000
1000
0000
0000
0000
0100
0000
0000
0000
0010
0000
0000
0000
0001
0000
0000
0000
0400
0300
0000
0000
0040
0030
0000
0000
0400
0300
0000
0000
,
0001
0010
0100
1000
0001
1000
0100
0010
0001
1000
0010
1000
0001
0100
0010
1000
,
0001
0000
0000
0010
0000
0000
0100
0000
0000
1000
0000
0000
0001
0000
0000
1000
0000
0000
0100
0000
0000
0010
0000
0000
0004
0000
0000
0000
0000
0000
0000
0000
0000
0000
0000
0000
1003
0000
0100
0000
1000
0000
0001
0000
0100
0000
0010
0000
,
1000
0001
0100
0001
1000
0010
0100
0010
1000
0001
0010
0001
1000
0100
0010
0001
,
1000
0000
0000
0000
0000
0000
0000
0000
0000
0000
0000
0000
0010
0000
0000
0000
0000
0000
0000
0000
0000
0000
0000
0000
0100
0000
0000
0000
0000
0000
0000
0000
0000
0000
0000
0000
0001
0000
0000
0000
0000
0000
0000
0000
0000
0000
0000
0000
1000
0000
0000
0000
0000
0000
0000
0000
0000
0000
0000
0000
0001
0000
0000
0000
0000
0000
0000
0000
0000
0000
0000
0000
0100
0000
0000
0000
0000
0000
0000
0000
0000
0000
0000
0000
0010
0000
0000
0000
0000
0000
0000
0000
0000
0000
0000
0000
1000
0000
0000
0000
0000
0000
0000
0000
0000
0000
0000
0000
0001
0000
0000
0000
0000
0000
0000
0000
0000
0000
0000
0000
0010
0000
0000
0000
0000
0000
0000
0000
0000
0000
0000
0000
0100
0000
0000
0000
0000
0000
0000
0000
0000
0000
0000
0000
1000
0000
0000
0000
0000
0000
0000
0000
0000
0000
0000
0000
0040
0000
0000
0030
0000
0000
0000
0000
0000
0000
0000
0000
0100
0000
0000
0000
0000
0000
0000
0000
0001
0000
0000
0000
0000
0000
0000
0000
1000
0000
0000
0000
0000
0000
0000
0000
,
0001
0010
0100
1000
0001
1000
0100
0010
0001
1000
0010
1000
0001
0100
0010
1000
,
0001
0000
0000
0000
0000
0000
0000
0000
0000
0000
0000
0000
2002
0000
0000
3003
,
0101
0000
0100
0001
1000
0000
0001
1000
0100
0010
0001
0000
1001
0000
1000
0001
,
0100
0000
0010
1000
0001
0000
1000
0010
0100
0001
1000
0000
1100
0000
0100
0010
,
0001
0000
0001
1000
0010
0000
1000
0010
0100
0001
1000
0000
1001
0000
0001
0010
,
0100
0000
0010
0001
1000
0000
0001
1000
0010
0100
0001
0000
1002
0000
1003
0100
,
0010
0000
0010
0001
1000
0000
0001
1000
0100
0010
0001
0000
1001
0000
1000
0010
,
0100
0000
0010
1000
0001
0000
1000
0010
0100
0001
1000
0000
1100
0000
0100
0010
,
0001
0000
0001
1000
0010
0000
1000
0001
0010
0100
1000
0000
1001
0000
0001
1000
,
0010
0000
0100
0000
1001
0000
0000
1100
0000
0000
0011
0000
1001
0000
1000
0000
,
0220
0000
0000
0000
,
0000
0000
0000
0000
,
0000
0000
0000
0000
,
0330
0000
0000
0000
,
0000
0000
0000
0000
,
0000
0000
0000
0000
,
0000
0000
0000
0000
,
0000
0000
0000
0000
,
0000
0000
0000
0000
,
0000
0000
0000
0000
,
0000
0000
0000
0000
,
0000
0000
0000
0000
,
0000
0000
0000
0000
,
0000
0000
0000
0000
,
0000
0000
0000
0000
,
0000
0000
0000
0000
,
1000
0100
0010
0001
1000
0001
0010
0100
1000
0001
0100
0001
1000
0010
0100
0001
,
1000
0100
0010
0001
1000
0001
0010
0100
1000
0001
0100
0010
1000
0000
0004
0000
,
1003
0010
0100
0001
1000
0001
0100
0010
1000
0001
0010
0001
1000
0100
0010
0001
,
1000
0000
0000
0010
0000
0000
0100
0000
0000
0001
0000
0000
1000
0000
0000
0001
0000
0000
0100
0000
0000
0010
0000
0000
2000
0000
0000
0000
0000
0000
3000
0000
0000
0000
0000
0000
0001
0000
1000
0000
0001
0000
1000
0000
0001
0000
1000
0000
,
0001
1000
0010
1000
0001
0100
0010
0100
0001
1000
0100
1000
0001
0010
0100
1000
,
0001
0000
0000
0000
0100
0000
0000
0000
0010
0000
0000
0000
1000
0000
0000
0000
0001
0000
0000
0000
1000
0000
0000
0000
0010
0000
0000
0000
0100
0000
0000
0000
0001
0000
0000
0000
1000
0000
0000
0000
0100
0000
0000
0000
0010
0000
0000
0000
0001
0000
0000
0000
0400
0300
0000
0000
0040
0030
0000
0000
0400
0300
0000
0000
,
0001
1000
0100
0010
0001
1000
0001
0010
0100
1000
0010
0100
0001
0100
0010
1000
,
0001
0000
0011
0000
0110
0000
1100
0000
2002
0000
3003
0000
0004
0000
0000
0003
,
1000
0100
1000
0001
0010
0001
1000
0010
0100
0001
0010
0001
1000
0100
0010
0001
,
1000
0010
0100
0010
1000
0001
1000
0100
1000
0001
0010
0001
1000
0000
0040
0000
,
1030
0001
0010
0100
1000
0001
0100
0001
0010
0100
0010
0001
1000
0001
0100
0010
,
1000
0001
0010
0001
1000
0010
0100
0001
1000
0000
1000
0000
0002
0000
0000
0000
,
1003
0000
0000
0000
0000
0000
0000
0000
0000
0000
0010
0000
0000
0000
0000
0000
0000
0000
0000
0100
0000
0000
0000
0000
0000
0000
0000
0000
0000
0001
0000
0000
0000
0000
0000
0000
0000
0000
1000
0000
0000
0000
0000
0000
0000
0000
0000
0000
0001
0000
0000
0000
0000
0000
0000
0000
0000
0000
1000
0000
0000
0000
0000
0000
0000
0000
0000
0010
0000
0000
0000
0000
0000
0000
0000
0000
0000
0100
0000
0000
0000
0000
0000
0000
0000
0000
0001
0000
0000
0000
0000
0000
0000
0000
0000
0000
1000
0000
0000
0000
0000
0000
0000
0000
0000
0000
0001
0000
0000
0000
0000
0000
0000
0000
0000
0010
0000
0000
0000
0000
0000
0000
0000
0000
0000
0100
0000
0000
0000
0000
0000
0000
0000
0000
1000
0000
0000
0000
0000
0000
0000
0000
0000
0000
0001
0000
0000
0000
0000
0000
0000
0000
0000
0000
0010
0000
0000
0000
0000
0000
0000
0000
0000
0001
0000
0000
0000
0000
0000
0000
0000
0000
0000
4000
0000
0000
0000
0000
0000
0000
0000
0000
0000
0000
0000
0000
0000
3000
0000
0000
0000
0000
,
0001
0000
0000
0000
0000
0000
0000
0000
0000
0000
0100
0000
0000
0000
0000
0000
0000
0000
0000
0010
0000
0000
0000
0000
0000
0000
0000
0000
0000
1000
0000
0000
0000
0000
0000
0000
0000
0000
0001
0000
0000
0000
0000
0000
0000
0000
0000
0000
1000
0000
0000
0000
0000
0000
0000
0000
0000
0000
0010
0000
0000
0000
0000
0000
0000
0000
0000
0100
0000
0000
0000
0000
0000
0000
0000
0000
0000
0001
0000
0000
0000
0000
0000
0000
0000
0000
0100
0000
0000
0000
0000
0000
0000
0000
0000
0000
0010
0000
0000
0000
0000
0000
0000
0000
0000
0000
1000
0000
0000
0000
0000
0000
0000
0000
0000
0001
0000
0000
0000
0000
0000
0000
0000
0000
0000
1000
0000
0000
0000
0000
0000
0000
0000
0000
0001
0000
0000
0000
0000
0000
0000
0000
0000
0000
4000
0000
0000
0000
0000
0000
0000
0000
0000
0000
0000
0000
0000
0000
0000
0000
0000
0000
0000
0000
0000
0000
0000
0000
0000
0000
0000
0000
0000
0000
0000
0000
0000
0000
0000
0000
0000
0000
0000
0000
0000
0000
0000
0000
0000
0000
0000
0000
,
3001
0000
0000
0000
0000
0000
0000
0000
0000
0000
0010
0000
0000
0000
0000
0000
0000
0000
0000
0100
0000
0000
0000
0000
0000
0000
0000
0000
0000
1000
0000
0000
0000
0000
0000
0000
0000
0000
0001
0000
0000
0000
0000
0000
0000
0000
0000
0000
1000
0000
0000
0000
0000
0000
0000
0000
0000
0000
0010
0000
0000
0000
0000
0000
0000
0000
0000
0100
0000
0000
0000
0000
0000
0000
0000
0000
0000
0001
0000
0000
0000
0000
0000
0000
0000
0000
0100
0000
0000
0000
0000
0000
0000
0000
0000
0000
0010
0000
0000
0000
0000
0000
0000
0000
0000
0000
1000
0000
0000
0000
0000
0000
0000
0000
0000
0001
0000
0000
0000
0000
0000
0000
0000
0000
0000
1000
0000
0000
0000
0000
0000
0000
0000
0000
0010
0000
0000
0000
0000
0000
0000
0000
0000
0000
0100
0000
0000
0000
0000
0000
0000
0000
0000
0000
0000
0000
0000
0000
0000
0000
0000
0000
0000
0000
0000
0000
0000
0000
0100
0000
0000
0000
0000
0000
0000
0000
0000
0000
0000
0000
0000
0000
0000
0000
0000
0000
0000
0000
0000
0000
0000
0000
,
0202
0303
2200
3300
MM12
0000
0003
1000
,
1001
0000
0001
1000
0100
0000
0010
0100
1000
0001
0100
0000
0110
0000
0010
1000
,
0001
0000
1000
0001
0010
0000
0001
0010
0100
1000
0001
0000
011M
0000
0100
0010
,
1000
0000
1000
0001
0010
0000
0001
0010
0100
1000
0001
0000
1001
0000
1000
0010
,
0100
0000
0010
1000
0001
0000
1000
0001
0010
0100
1000
0000
M201
0000
0301
0000
,
10M0
0000
10M0
0000
0011
0000
0001
0010
0100
1000
0001
0000
1001
0000
1000
0010
,
0100
0000
0010
1000
0001
0000
1000
0010
0100
0001
1000
0000
1100
0000
0100
0010
,
0001
0000
0001
1000
0010
0000
1000
0001
0010
0100
1000
0000
1001
0000
0001
1000
,
0010
0000
0100
0000
1001
0000
0000
1100
0000
0000
0011
0000
1001
0000
1000
0000
,
0202
0303
0000
0000
,
0000
0000
0000
00M0
,
0000
0000
0000
M000
0000
0000
0000
0000
,
0000
0000
0000
0000
0000
0000
0000
0M00
0000
0000
0000
0000
0000
0000
0000
0000
,
0000
0000
00M0
0000
;

//---------------dance-single - T. Moore----------------
#NOTES:
     dance-single:
     T. Moore:
     Challenge:
     14:
     0.888,1.000,0.351,0.289,1.000,704.000,45.000,37.000,10.000,0.000:
0000
0000
0000
0000
,
0000
0000
0000
0000
,
0000
0000
0000
0000
,
0001
0001
0001
0000
0000
0000
0000
0000
0000
0000
0000
0000
0000
0000
0000
0000
,
1000
1000
1000
0000
0000
0000
0000
0000
0000
0000
0000
0000
0000
0000
0000
0000
,
0010
0010
0010
0000
0000
0000
0000
0000
0000
0000
0000
0000
0000
0000
0000
0000
,
0100
0100
0100
0000
0000
0000
0000
0000
0000
0000
0000
0000
0000
0000
0000
0000
,
0001
0001
0001
0000
0000
0000
0000
0000
0000
0000
0000
0000
0000
0000
0000
0000
,
1002
1000
1003
0001
0100
0010
0200
0000
,
0310
0000
1000
0000
0020
0000
0000
0000
1030
0000
0001
0000
2000
0000
0000
3000
,
0021
0001
0031
0010
0100
1000
0200
0000
,
1300
0000
0001
0000
2000
0000
0000
0000
3010
0000
0100
0000
0020
0000
0000
0030
,
0102
0000
0100
0000
0103
0000
0001
0000
0010
0000
0100
0000
0020
0000
0000
0030
,
1001
0000
0001
0000
2000
0000
0000
0000
3010
0000
0100
0000
0020
0000
0000
0030
,
0201
0001
0301
0100
0010
1000
0200
0000
,
1300
0001
2000
0000
3001
0100
0002
0000
,
1003
0010
0100
0001
1000
0001
0100
0010
1000
0001
0010
0001
1000
0100
0010
0001
,
1000
0000
0000
0000
0010
0000
0000
0000
0100
0000
0000
0000
0001
0000
0000
0000
1000
0000
0000
0000
0001
0000
0000
0000
0100
0000
0000
0000
0010
0000
0000
0000
1000
0000
0000
0000
0001
0000
0000
0000
0010
0000
0000
0000
0100
0000
0000
0000
1000
0000
0000
0000
0040
0030
0000
0000
0100
0000
0000
0000
0001
0000
0000
0000
,
1000
0100
0010
0001
1000
0001
0010
0100
1000
0001
0100
0001
1000
0010
0100
0001
,
1000
0100
0010
0001
1000
0001
0010
0100
2000
3000
2000
3000
2000
3000
0040
0000
,
1030
0001
0100
0001
1000
0010
0100
0010
1000
0001
0010
0001
1000
0100
0010
0001
,
1000
0000
0000
0010
0000
0000
0100
0000
0000
0001
0000
0000
1000
0000
0000
0001
0000
0000
0100
0000
0000
0010
0000
0000
1000
0000
0000
0001
0000
0000
0010
0000
0000
0100
0000
0000
1000
0000
0001
0000
1000
0000
0100
0000
0010
0000
0001
0000
,
1000
0010
0100
0001
1000
0001
0100
0010
1000
0001
0010
0001
1000
0100
0010
0001
,
2000
0000
0000
0000
3000
0000
0000
0000
0001
0010
0001
0010
0001
0010
0001
0010
,
0100
1000
0001
0010
0001
1000
0010
0100
0001
1000
0100
1000
0001
0010
0100
1000
,
0001
0000
0000
0000
0100
0000
0000
0000
0010
0000
0000
0000
1000
0000
0000
0000
0001
0000
0000
0000
1000
0000
0000
0000
0010
0000
0000
0000
0100
0000
0000
0000
0001
0000
0000
0000
1000
0000
0000
0000
0100
0000
0000
0000
0010
0000
0000
0000
0001
0000
0000
0000
0400
0300
0000
0000
0040
0030
0000
0000
0400
0300
0000
0000
,
0001
0010
0100
1000
0001
1000
0100
0010
0001
1000
0010
1000
0001
0100
0010
1000
,
0001
0000
0000
0010
0000
0000
0100
0000
0000
1000
0000
0000
0001
0000
0000
1000
0000
0000
0100
0000
0000
0010
0000
0000
0004
0000
0000
0000
0000
0000
0000
0000
0000
0000
0000
0000
1003
0000
0100
0000
1000
0000
0001
0000
0100
0000
0010
0000
,
1000
0001
0100
0001
1000
0010
0100
0010
1000
0001
0010
0001
1000
0100
0010
0001
,
1000
0000
0000
0000
0000
0000
0000
0000
0000
0000
0000
0000
0010
0000
0000
0000
0000
0000
0000
0000
0000
0000
0000
0000
0100
0000
0000
0000
0000
0000
0000
0000
0000
0000
0000
0000
0001
0000
0000
0000
0000
0000
0000
0000
0000
0000
0000
0000
1000
0000
0000
0000
0000
0000
0000
0000
0000
0000
0000
0000
0001
0000
0000
0000
0000
0000
0000
0000
0000
0000
0000
0000
0100
0000
0000
0000
0000
0000
0000
0000
0000
0000
0000
0000
0010
0000
0000
0000
0000
0000
0000
0000
0000
0000
0000
0000
1000
0000
0000
0000
0000
0000
0000
0000
0000
0000
0000
0000
0001
0000
0000
0000
0000
0000
0000
0000
0000
0000
0000
0000
0010
0000
0000
0000
0000
0000
0000
0000
0000
0000
0000
0000
0100
0000
0000
0000
0000
0000
0000
0000
0000
0000
0000
0000
1000
0000
0000
0000
0000
0000
0000
0000
0000
0000
0000
0000
0040
0000
0000
0030
0000
0000
0000
0000
0000
0000
0000
0000
0100
0000
0000
0000
0000
0000
0000
0000
0001
0000
0000
0000
0000
0000
0000
0000
1000
0000
0000
0000
0000
0000
0000
0000
,
0001
0010
0100
1000
0001
1000
0100
0010
0001
1000
0010
1000
0001
0100
0010
1000
,
0001
0000
0000
0000
0000
0000
0000
0000
0000
0000
0000
0000
2002
0000
0000
3003
,
0101
0000
0100
0001
1000
0000
0001
1000
0100
0010
0001
0000
1001
0000
1000
0001
,
0100
0000
0010
1000
0001
0000
1000
0010
0100
0001
1000
0000
1100
0000
0100
0010
,
0001
0000
0001
1000
0010
0000
1000
0010
0100
0001
1000
0000
1001
0000
0001
0010
,
0100
0000
0010
0001
1000
0000
0001
1000
0010
0100
0001
0000
1002
0000
1003
0100
,
0010
0000
0010
0001
1000
0000
0001
1000
0100
0010
0001
0000
1001
0000
1000
0010
,
0100
0000
0010
1000
0001
0000
1000
0010
0100
0001
1000
0000
1100
0000
0100
0010
,
0001
0000
0001
1000
0010
0000
1000
0001
0010
0100
1000
0000
1001
0000
0001
1000
,
0010
0000
0100
0000
1001
0000
0000
1100
0000
0000
0011
0000
1001
0000
1000
0000
,
0220
0000
0000
0000
,
0000
0000
0000
0000
,
0000
0000
0000
0000
,
0330
0000
0000
0000
,
0000
0000
0000
0000
,
0000
0000
0000
0000
,
0000
0000
0000
0000
,
0000
0000
0000
0000
,
0000
0000
0000
0000
,
0000
0000
0000
0000
,
0000
0000
0000
0000
,
0000
0000
0000
0000
,
0000
0000
0000
0000
,
0000
0000
0000
0000
,
0000
0000
0000
0000
,
0000
0000
0000
0000
,
1000
0100
0010
0001
1000
0001
0010
0100
1000
0001
0100
0001
1000
0010
0100
0001
,
1000
0100
0010
0001
1000
0001
0010
0100
1000
0001
0100
0010
1000
0000
0004
0000
,
1003
0010
0100
0001
1000
0001
0100
0010
1000
0001
0010
0001
1000
0100
0010
0001
,
1000
0000
0000
0010
0000
0000
0100
0000
0000
0001
0000
0000
1000
0000
0000
0001
0000
0000
0100
0000
0000
0010
0000
0000
2000
0000
0000
0000
0000
0000
3000
0000
0000
0000
0000
0000
0001
0000
1000
0000
0001
0000
1000
0000
0001
0000
1000
0000
,
0001
1000
0010
1000
0001
0100
0010
0100
0001
1000
0100
1000
0001
0010
0100
1000
,
0001
0000
0000
0000
0100
0000
0000
0000
0010
0000
0000
0000
1000
0000
0000
0000
0001
0000
0000
0000
1000
0000
0000
0000
0010
0000
0000
0000
0100
0000
0000
0000
0001
0000
0000
0000
1000
0000
0000
0000
0100
0000
0000
0000
0010
0000
0000
0000
0001
0000
0000
0000
0400
0300
0000
0000
0040
0030
0000
0000
0400
0300
0000
0000
,
0001
1000
0100
0010
0001
1000
0001
0010
0100
1000
0010
0100
0001
0100
0010
1000
,
0001
0000
0011
0000
0110
0000
1100
0000
2002
0000
3003
0000
0004
0000
0000
0003
,
1000
0100
1000
0001
0010
0001
1000
0010
0100
0001
0010
0001
1000
0100
0010
0001
,
1000
0010
0100
0010
1000
0001
1000
0100
1000
0001
0010
0001
1000
0000
0040
0000
,
1030
0001
0010
0100
1000
0001
0100
0001
0010
0100
0010
0001
1000
0001
0100
0010
,
1000
0001
0010
0001
1000
0010
0100
0001
1000
0000
1000
0000
0002
0000
0000
0000
,
1003
0100
1000
0001
0100
0001
1000
0100
0010
0001
1000
0001
0100
0010
0100
0001
1000
0001
0010
0100
1000
0004
0000
0003
,
1000
0100
1000
0001
0100
0001
1000
0010
0100
0010
1000
0001
0010
0100
1000
0001
1000
0100
4000
0000
0000
0000
0000
0000
,
3001
0100
0001
1000
0010
1000
0001
0010
0100
1000
0001
0010
0001
1000
0010
1000
0001
0100
0001
0000
0000
0100
0000
0000
,
0202
0303
2200
3300
MM12
0000
0003
1000
,
1001
0000
0001
1000
0100
0000
0010
0100
1000
0001
0100
0000
0110
0000
0010
1000
,
0001
0000
1000
0001
0010
0000
0001
0010
0100
1000
0001
0000
011M
0000
0100
0010
,
1000
0000
1000
0001
0010
0000
0001
0010
0100
1000
0001
0000
1001
0000
1000
0010
,
0100
0000
0010
1000
0001
0000
1000
0001
0010
0100
1000
0000
M201
0000
0301
0000
,
10M0
0000
10M0
0000
0011
0000
0001
0010
0100
1000
0001
0000
1001
0000
1000
0010
,
0100
0000
0010
1000
0001
0000
1000
0010
0100
0001
1000
0000
1100
0000
0100
0010
,
0001
0000
0001
1000
0010
0000
1000
0001
0010
0100
1000
0000
1001
0000
0001
1000
,
0010
0000
0100
0000
1001
0000
0000
1100
0000
0000
0011
0000
1001
0000
1000
0000
,
0202
0303
0000
0000
,
0000
0000
0000
00M0
,
0000
0000
0000
M000
0000
0000
0000
0000
,
0000
0000
0000
0000
0000
0000
0000
0M00
0000
0000
0000
0000
0000
0000
0000
0000
,
0000
0000
00M0
0000
;
