#TITLE:Endless Challenge;
#SUBTITLE:;
#ARTIST:F-Zero X;
#TITLETRANSLIT:;
#SUBTITLETRANSLIT:;
#ARTISTTRANSLIT:;
#CREDIT:;
#BANNER:endlesschallenge-banner copy.png;
#BACKGROUND:endlesschallenge-bg copy.png;
#LYRICSPATH:;
#CDTITLE:;
#MUSIC:07_-_Endless_Challenge.mp3;
#OFFSET:0.000;
#SAMPLESTART:31.579;
#SAMPLELENGTH:12.000;
#SELECTABLE:YES;
#BPMS:0.000=190.000;
#STOPS:;
#BGCHANGES:;
// cache tags:
#FIRSTBEAT:1.500;
#LASTBEAT:619.000;
#SONGFILENAME:Songs/Essential Sim Collection/(Flypie) Endless Challenge/EndlessChallenge.sm;
#HASMUSIC:1;
#HASBANNER:1;
#MUSICLENGTH:197.127;
// end cache tags

//---------------dance-single - ----------------
#NOTES:
     dance-single:
     :
     Hard:
     11:
     0.952,1.000,0.878,1.000,0.393,901.000,173.000,239.000,0.000,15.000:
0000
0000
0000
1100
0000
1100
0000
1100
,
0000
1100
0011
0011
0000
0000
0000
0100
,
0000
0000
0000
0000
0100
0000
0000
0000
1100
0000
0000
0000
0010
0000
0000
0000
0011
0000
0000
0000
0100
0000
1000
0000
0010
0000
1000
0000
0010
0100
0010
0000
,
0001
0110
0000
1010
0000
0010
0000
0010
,
0000
0000
0000
0000
0010
0000
0000
0000
1100
0000
0000
0000
0000
0000
0000
0000
0011
0000
0100
0000
1000
0000
0011
0000
0000
0000
0000
0000
1000
0001
1000
0000
,
0001
0010
0001
0000
0100
0000
0010
0000
0001
0000
0000
0000
1001
0000
0000
0000
0000
0000
0000
0000
0100
0000
0010
0000
0000
0000
0000
0000
0010
0000
0000
0000
,
0000
0000
0010
1100
0000
0000
0000
0011
0000
0000
0000
0000
0000
0000
0001
0000
,
0000
0000
0001
1100
1100
0000
0000
0000
0000
0000
0001
0000
0000
0000
0001
0000
,
0000
0001
0110
0000
1000
1100
0011
1100
,
1100
1100
1000
0001
0000
0001
0000
0001
,
0000
0000
0000
0000
0000
0000
0000
0000
0000
0000
0000
0000
0000
0000
0000
0000
0000
0000
0000
0000
0000
0000
0000
0000
0001
0000
0000
0000
0000
0000
0000
0000
0000
0000
0000
0000
0000
0000
0000
0000
0000
0000
0000
0000
0000
0000
0000
0000
0000
0000
0000
0000
0000
0000
0000
0000
1000
0000
0000
0000
0000
0000
0000
0000
0000
0000
0000
0000
0000
0000
0000
0000
0001
0000
0000
0000
0000
0000
0000
0000
0000
0000
0000
0000
0000
0000
0000
0000
0000
0000
0000
0000
0000
0000
0000
0000
0000
0000
0000
0000
0000
0000
0000
0000
0000
0000
0000
0000
0000
0000
0000
0000
0000
0000
0000
0000
0000
0000
0000
0000
0010
0000
0000
0000
0000
0000
0000
0000
0000
0000
0000
0000
1000
0000
0000
0000
0000
0000
0100
0000
0000
0000
0000
0000
0010
0000
0000
0000
0000
0000
0000
0000
0000
0000
0000
0000
0001
0000
0000
0000
0000
0000
0000
0000
0000
0000
0000
0000
0010
0000
0000
0000
0000
0000
0000
0000
0000
0000
0000
0000
0100
0000
0000
0000
0000
0000
0000
0000
0000
0000
0000
0000
,
1000
0100
0010
0000
0001
0000
0010
0000
0100
0000
0000
0000
1000
0000
0000
0000
0000
0000
0000
0000
1000
0000
0000
0000
0000
0000
0000
0000
1000
0000
0000
0000
,
0000
1000
1001
0001
0001
0011
0101
0011
,
1001
0011
0101
1001
0000
0010
0000
0010
,
0000
0000
0000
0000
0010
0000
0000
0000
0101
0000
0000
0000
0000
0000
0000
0000
0000
0000
0000
0000
0000
0000
0000
0000
0000
0000
0100
0000
0010
0000
0100
0010
,
0100
0010
0000
0000
0010
0000
0110
0000
0000
0000
1000
0000
0000
0000
1000
0000
,
0000
0000
0000
1000
0000
0000
0011
0000
0000
0000
0000
0000
1100
0000
0000
0000
0000
0000
1100
0000
1100
0000
0000
0000
,
0011
0000
0011
0000
0000
0000
0000
0000
0000
1100
0000
0000
0000
0000
0000
0100
0000
0000
0000
0000
0000
0100
0000
0000
,
0000
0000
0000
0000
0100
0000
0000
0000
0110
0000
0000
0000
0000
0000
0000
0000
0000
0000
0000
0000
0000
0000
0010
0000
0100
0000
0010
0000
0100
0000
0010
0100
,
0010
0100
0000
0000
0000
0000
0011
0000
0000
0000
1000
0000
0000
0000
1000
0000
,
0000
1000
1001
0000
1100
0110
1100
0011
,
1100
0000
1100
0010
0001
0000
0100
0000
1000
0000
0110
0000
1000
0000
0010
0000
,
0001
1100
0001
0010
0100
0011
1000
0100
,
0010
0110
0001
0010
1000
0011
1000
0010
,
0001
1001
1000
0001
0100
1010
0001
1000
,
0010
0101
0001
2000
0000
0010
0000
0000
,
3000
2010
0000
0002
3000
0123
0000
1230
,
0000
0321
0000
0032
0000
0000
0023
0000
,
0000
2030
0000
3200
0000
0000
0320
0000
,
0000
0032
0003
0100
1000
0110
1000
0010
,
0001
1100
0001
0010
0100
0011
1000
0100
,
0010
0110
0001
0010
1000
0011
1000
0010
,
0001
1001
1000
0001
0100
1010
0001
1000
,
0010
0101
0001
2000
0000
0010
0000
0000
,
3000
2010
0000
0002
3000
0123
0000
1230
,
0000
0321
0000
0032
0000
0000
0023
0000
,
0000
2030
0000
3200
0000
0000
0320
0000
,
0000
0032
0003
2000
0000
0010
0000
0000
,
0000
3001
0010
2000
0000
0000
0000
0000
,
0000
0001
0010
3200
0000
0000
0000
0000
,
0000
1300
0010
0002
0000
0000
0000
0000
,
0000
1000
0010
0203
0000
0000
0000
0000
,
0000
0000
0000
0320
0000
0000
0000
0000
,
0000
1130
2200
0000
0000
0000
0000
0000
,
0000
0000
3300
1002
0000
0100
0000
0010
,
0003
1100
0000
2000
0000
3002
0023
0230
,
0000
2300
3200
0320
0000
0032
0023
0230
,
0000
2300
3200
0320
0032
0023
0032
0023
,
0032
0023
0032
2003
0000
0000
0000
0000
,
0000
0000
0000
0000
3000
0000
1000
0100
1000
0100
0010
0001
0010
0001
0010
0100
,
0010
0100
0010
0100
0011
0000
2000
0000
0000
0000
0000
0000
0000
0000
0000
0000
,
0000
0000
3002
1000
0100
0100
0000
0000
,
0003
0000
0110
1000
0002
0000
0000
0000
0000
0000
0000
0000
0000
0000
0000
0000
,
0000
0000
0000
0000
0000
0000
0000
0000
2003
0000
0000
0000
0010
0000
0000
0000
0010
0000
0100
0000
0010
0000
0100
0010
0100
0000
0000
0000
0002
0000
0000
0000
,
3003
0000
0000
2200
0000
0000
0000
0000
,
0000
0000
0000
0000
3302
0000
0000
0000
1000
0000
0100
0000
0000
0000
1000
0100
,
0000
0100
0000
1000
2003
0000
0000
0000
0000
0000
0000
0000
0000
0000
0000
0000
,
0000
3000
1100
0000
1100
0110
0011
1010
,
0101
0000
0000
0110
0000
0000
0011
0000
2000
0000
0000
0000
0000
0000
0000
0000
0000
0000
0000
0000
0000
0000
0000
0000
,
0000
0000
0000
0000
0000
0000
3200
0000
0000
0000
0000
0000
0320
0000
0000
0000
0000
0000
0000
0000
0000
0000
0000
0000
0032
0000
0000
0003
0000
0000
2000
0000
0000
3000
0000
0000
0001
0000
0010
0000
0000
0000
0001
0000
0010
0000
0000
0000
,
0200
0000
0000
0000
0000
0000
0300
0000
1000
0000
0100
0000
1000
0000
0100
0000
2000
3000
0200
0000
0000
0300
0000
0000
,
2000
3200
0320
0032
0003
0002
0003
0002
0003
1000
0100
0010
0001
0000
0000
1000
0100
0010
0001
0000
0000
1000
0100
0010
,
0001
2000
3100
1000
0100
1000
0100
0010
,
0001
0010
0001
0010
0100
0010
0100
1000
,
0100
1000
0100
0010
0001
0010
0001
0010
,
0100
0010
0100
2000
3100
2000
3100
2000
,
3100
2000
3100
2000
0000
0000
0000
0000
,
0000
0000
3002
0000
,
0013
0000
0100
0000
1000
0000
0010
0100
0010
0100
0010
0001
0010
0001
0010
0100
,
1000
0001
0010
0100
1000
0100
0010
0001
1000
0100
0010
0001
0010
0100
1000
0001
,
0010
0100
1000
0000
0001
0000
0010
0000
0100
0000
0002
0000
0023
0000
0032
0000
,
0023
0230
2300
3200
2300
3200
0320
0032
,
0000
0003
0002
0003
0002
0003
0002
0000
0000
0000
0000
0000
0000
0000
0000
0000
,
0000
0000
0003
0000
0020
0000
1000
0000
0100
0000
1000
0030
0100
0000
1000
0000
,
0100
2000
0000
0000
,
0000
0000
0000
0000
0000
0000
3100
0010
0001
0010
0200
0000
0000
0000
0000
0000
0000
0000
0000
0000
0000
0000
0000
0000
,
2300
0000
3100
0000
1000
0100
0010
0001
0010
0100
1000
0100
0010
0001
0010
0100
,
0010
0001
0010
0100
0010
0001
0010
0100
1000
0100
0010
0001
0010
0100
0010
0001
,
0010
1000
0000
0000
0000
0000
0200
0000
0000
0000
0320
0000
0000
0000
0230
0000
,
0000
0000
0300
0000
2000
0000
0000
0000
3002
0003
0020
0030
0002
0000
0000
0000
,
0203
0300
0220
0000
0000
0000
0000
0000
,
0000
0000
0330
1100
0000
0110
0000
0011
,
0000
0000
1001
0000
0000
1100
0000
0000
0011
0000
0011
0000
0000
0011
0000
0000
,
1100
0000
1100
0000
0000
0220
0000
0330
0000
0000
1001
0000
0100
0000
0010
0000
,
0100
1001
0000
0000
0000
2000
0000
3000
1100
0000
1100
0000
0000
0022
0000
0033
,
1100
0000
1100
0000
0000
0200
0000
0000
0000
0000
0000
0000
0000
0000
0000
0000
,
2300
0000
0000
0000
,
0200
0000
3300
1000
0100
1000
0100
0011
,
0100
0000
0010
0000
0100
0000
0010
0000
0100
0000
0010
0000
1100
0010
0100
0010
,
1100
0000
0100
0010
1100
0000
0001
0000
0010
0000
0001
0000
0011
1000
0010
0000
,
0000
1000
0010
0000
0011
0000
1000
0000
0100
0000
1000
0100
1000
0100
0010
0100
,
0010
0001
0010
0001
0010
0100
0010
0100
0110
0000
0010
0000
0100
0000
0010
0000
,
0100
0000
0010
0000
1100
0000
0010
0000
0001
0000
1100
0010
1000
0010
1000
0000
,
0001
0000
1000
0001
0100
0000
0010
0000
0100
0000
0100
0000
1100
0000
0010
0000
,
1100
0001
1010
0100
1001
0010
1100
0010
,
1100
0001
0011
0200
0001
0000
0000
0001
,
0300
2100
0000
3000
,
0000
0020
0000
0030
,
0000
0012
0000
0003
,
0100
0100
0000
0200
0001
0000
0000
0001
,
0300
2100
0000
3000
,
0000
0000
0000
0000
0020
0000
1000
0100
1000
0100
1000
0100
1030
0100
0010
0100
,
0010
0100
0010
0100
0012
0000
0000
0000
1000
0010
1000
0010
1003
0010
1000
0010
,
1000
0010
1000
0010
1000
0010
0201
0000
0000
0000
0000
0000
0000
0000
0000
0000
,
0300
2100
0000
3000
,
0010
0100
0010
0000
0020
0000
0000
0000
0000
0000
0000
0000
0030
0000
0010
0000
,
0010
0000
1002
0000
0000
0000
0003
0010
,
0000
0100
0000
0220
0000
0000
0000
0000
,
0330
2200
0000
3300
,
0000
0022
0000
0033
,
0000
0000
0000
0000
1001
0000
0110
0000
1000
0100
0010
0001
0110
0000
0010
0000
,
1000
0100
0010
0001
0110
0000
0110
0000
1000
0100
0010
0001
1100
0000
0011
0000
,
0000
0000
1000
0000
0002
0003
0011
0000
0000
0000
1001
0000
0000
0000
0110
0000
,
0010
0100
0001
0100
1000
0110
1000
0010
,
0001
1100
0001
0010
0100
0011
1000
0100
,
0010
0110
0001
0010
1000
0011
1000
0010
,
0001
1001
1000
0001
0100
1010
0001
1000
,
0010
0101
0001
2000
0000
0010
0000
0000
,
3000
2010
0000
0002
3000
0123
0000
1230
,
0000
0321
0000
0032
0000
0000
0023
0000
,
0000
2030
0000
3200
0000
0000
0320
0000
,
0000
0032
0003
0100
1000
0110
1000
0010
,
0001
1100
0001
0010
0100
0011
1000
0100
,
0010
0110
0001
0010
1000
0011
1000
0010
,
0001
1001
1000
0001
0100
1010
0001
1000
,
0010
0101
0001
2000
0000
0010
0000
0000
,
3000
2010
0000
0002
3000
0123
0000
1230
,
0000
0321
0000
0032
0000
0000
0023
0000
,
0000
2030
0000
3200
0000
0000
0320
0000
,
0000
0032
0003
2000
0000
0010
0000
0000
,
0000
3001
0010
2000
0000
0000
0000
0000
,
0000
0001
0010
3200
0000
0000
0000
0000
,
0000
1300
0010
0002
0000
0000
0000
0000
,
0000
1000
0010
0203
0000
0000
0000
0000
,
0000
0000
0000
0320
0000
0000
0000
0000
,
0000
1130
2200
0000
0000
0000
0000
0000
,
0000
0000
3300
1002
0000
0100
0000
0010
,
0003
1100
0000
2000
0000
3002
0023
0230
,
0000
2300
3200
0320
0000
0032
0023
0230
,
0000
2300
3200
0320
0032
0023
0032
0023
,
0032
0023
0032
2003
0000
0000
0000
0000
,
0000
0000
3000
2000
0000
3002
0023
0230
,
0000
2300
3200
0320
0000
0032
0023
0230
,
0000
2300
3200
0320
0032
0023
0032
0023
,
0032
0023
0032
2003
0000
0000
0000
0000
,
0000
0000
3000
2000
0000
3002
0023
0230
,
0000
2300
3200
0320
0000
0032
0023
0230
,
0000
2300
3200
2300
0000
3002
0023
0230
,
0000
2300
3200
0320
0000
0032
0023
0230
,
0000
2300
3200
1300
0000
0001
0010
0100
,
0000
1000
0100
1000
0000
0001
0010
0100
,
0000
1000
0100
0020
0000
0000
0000
0000
,
0000
0000
0000
0000
0000
0000
0000
0000
0030
1000
0100
1000
0100
0010
0100
0010
,
0100
0010
0001
0010
0001
1000
0100
0010
1000
0100
0010
0001
0100
0000
0000
0000
,
1000
0100
0010
0001
0100
0000
0000
0000
1000
0100
0010
0001
1100
0000
0000
0000
;
