#TITLE:White Walls;
#SUBTITLE:Sexuality Violation;
#ARTIST:Macklemore & Ryan Lewis;
#TITLETRANSLIT:;
#SUBTITLETRANSLIT:;
#ARTISTTRANSLIT:;
#CREDIT:;
#BANNER:white walls bn.png;
#BACKGROUND:white walls bg.png;
#LYRICSPATH:;
#CDTITLE:;
#MUSIC:White Walls.ogg;
#OFFSET:-0.214;
#SAMPLESTART:49.918;
#SAMPLELENGTH:17.300;
#SELECTABLE:YES;
#BPMS:0.000=233.000;
#STOPS:;
#BGCHANGES:;
// cache tags:
#FIRSTBEAT:4.000;
#LASTBEAT:900.000;
#SONGFILENAME:Songs/Sexuality Violation 2/White Walls - [Happy Feet]/White Walls.sm;
#HASMUSIC:1;
#HASBANNER:1;
#MUSICLENGTH:236.862;
// end cache tags

//---------------dance-single - Happy Feet----------------
#NOTES:
     dance-single:
     Happy Feet:
     Challenge:
     18:
     1.000,1.000,0.042,0.106,1.000,1886.000,10.000,25.000,46.000,0.000:
0000
0000
0000
0000
,
0002
0000
0000
0000
,
0000
0000
0000
0000
,
0000
0000
0000
0000
,
0000
0000
0000
0000
,
0203
0000
0000
0000
,
0000
0000
0000
0000
,
0000
0000
0000
0000
,
0000
0000
0000
0000
,
0301
0000
0000
1000
0000
0000
0100
0000
,
1000
0000
0000
0001
0000
0000
0100
0000
,
0010
0000
0000
1000
0000
0000
0001
0000
,
0010
0000
0000
0100
0000
0000
0010
0000
,
0001
0001
0100
0100
,
0010
0010
1000
1000
,
1001
0000
0000
0001
0000
0000
1000
0000
,
0100
0000
0000
1000
0000
0000
0001
0000
,
0100
0100
0010
1000
,
0001
MM00
00MM
1000
,
0100
0100
2000
3000
,
0001
00MM
MM01
0100
,
0002
0003
2000
3000
,
0100
0100
0010
0010
,
0001
0100
0010
0010
,
2000
300M
0M00
000M
,
0001
0100
0010
0000
1000
0000
1000
0000
,
0001
0000
0000
0000
0M00
00M0
0000
0000
,
1000
1000
0001
0010
,
0100
0000
10M0
1000
,
0002
0003
2000
3000
,
0020
0000
0000
003M
000M
000M
001M
000M
000M
001M
0000
0000
,
1000
1000
0001
0010
,
0004
0000
0000
0000
0000
0000
0000
0003
,
1000
0010
1000
0001
,
0010
0010
0001
1000
,
0020
0030
0100
0100
,
0002
0000
0003
1000
,
0001
0001
0010
0001
,
1000
0001
0010
0010
,
0002
0000
2003
0000
,
3020
0000
0000
0030
1000
0000
0001
0000
,
1000
0100
1000
0001
0010
0001
1000
0100
0010
0001
1000
0001
0010
0000
0000
0000
,
0001
1000
0010
1000
0001
0100
0010
0100
0001
1000
0010
1000
0001
0000
0000
0000
,
1000
0100
1000
0001
0010
0100
1000
0001
0010
0001
1000
0100
0010
0000
0000
0000
,
0001
1000
0010
1000
0001
1000
0010
0100
0010
1000
0001
0100
0010
0000
0000
0000
,
1000
0001
1000
0100
0010
0100
1000
0001
0010
0001
1000
0100
0010
0000
0000
0000
,
0001
1000
0001
1000
0010
0100
0010
1000
0001
0100
0010
1000
0001
0000
0000
0000
,
1000
0100
0010
0100
1000
0001
0010
0001
1000
0100
0010
0001
1000
0000
0000
0000
,
0001
0100
0010
1000
0001
0000
0000
0000
0001
0000
0000
0000
1000
0000
0000
0000
,
0001
0010
0100
1000
0001
0010
0001
1000
0010
0100
0010
1000
0001
0100
0010
0100
,
0001
1000
0100
1000
0001
0100
0010
0100
0001
1000
0100
0010
0100
1000
0001
0010
,
0001
0100
0010
0100
0001
1000
0010
0100
0001
1000
0100
0010
0100
1000
0001
0010
,
0001
1000
0010
0100
0010
1000
0001
0100
0001
1000
0100
1000
0001
0100
0010
0100
,
0001
1000
0100
0010
0100
1000
0001
0010
0001
0100
0001
1000
0100
0010
0100
1000
,
0001
0100
0010
0100
0001
1000
0010
1000
0001
0010
0100
0010
0001
1000
0100
0010
,
0001
0100
0001
1000
0100
1000
0100
0010
0001
0100
0001
1000
0010
0100
0010
1000
,
0001
0010
0100
1000
0001
0010
0100
0010
0001
1000
0010
1000
0001
0100
0010
0100
,
0001
1000
0100
0010
0001
0100
0010
0100
0001
1000
0100
0010
0100
1000
0001
0010
,
0001
0100
0010
0100
0001
1000
0010
1000
0001
0010
0100
0010
0001
1000
0100
0010
,
0001
0100
0001
1000
0100
1000
0001
0010
0001
1000
0010
0100
0010
1000
0001
0100
,
0001
1000
0100
0010
0100
1000
0001
0010
0001
0100
0010
0100
0001
1000
0010
1000
,
0001
0010
0100
0010
0001
1000
0100
1000
0001
0010
0100
1000
0001
0100
0001
1000
,
0100
1000
0100
0010
0001
0100
0001
1000
0100
0010
0100
1000
0001
0100
0010
0100
,
0001
0010
0100
1000
0001
0010
0001
1000
0001
0100
0010
0100
0001
1000
0010
1000
,
0001
0010
0100
0010
0001
1000
0100
0010
0001
0100
0010
0100
0001
1000
0010
0100
,
0001
0000
0000
0000
2000
0000
0000
0000
0010
0000
0000
3000
1001
0000
0000
0000
,
1001
0001
0100
0010
,
1000
0000
0000
0001
0000
0000
0010
0000
0001
0000
1000
0000
0010
0000
0100
0000
,
0001
0010
0100
1000
0001
0000
0001
0000
,
1000
1000
0020
0000
0130
0001
1000
0001
,
0010
0100
1000
1000
,
0001
0000
0001
0000
1000
0000
0010
0100
,
0010
1000
0001
0010
0200
0000
1300
0000
,
0001
0100
0100
1000
0100
0100
0001
0100
,
0100
0010
0010
1000
0100
0100
0010
0010
,
0100
0100
0010
0010
0001
1000
0010
0010
,
0001
0010
0010
1000
0100
0100
0010
0010
,
0001
1000
0010
0010
0001
0100
0100
1000
,
0010
0010
0100
0100
0010
0010
0001
1000
,
0100
0100
0001
1000
0000
0001
1000
0001
,
0100
0100
1000
0001
0000
1000
0010
0100
,
0001
0000
1000
0010
1000
0001
0000
1000
,
0010
0100
0001
1000
0100
0000
0000
0010
,
0001
1000
0010
1000
0001
0000
0000
0100
,
0010
1000
0001
0010
0001
0000
0000
1000
,
0020
0000
2030
0000
3001
1000
0000
1000
,
0010
0000
0100
0000
0002
0000
0000
0003
,
1000
0001
0010
0001
1000
0010
0100
0010
,
1000
0000
0010
0000
0200
0000
0000
0300
,
0010
0000
0000
1000
0000
0000
1010
0000
,
0001
0000
0000
0010
0000
0000
0011
0000
,
0001
0000
0010
0100
0000
0000
0000
0000
,
1000
0000
0000
0001
0000
0001
1000
0010
,
0100
0000
0010
0000
0000
1000
0001
0010
,
0100
1000
0000
0001
0100
0010
0100
0001
,
1000
0100
0010
0001
1000
0010
1000
0001
,
0010
0001
1000
1000
,
1001
0000
0001
0000
0010
0000
0000
0001
,
0010
0100
0010
0001
1000
0010
0100
0010
,
1000
0001
1000
0100
0100
0001
1000
0010
,
0100
0010
1000
0001
0100
0100
1000
0001
,
0010
0001
2000
0000
3010
0100
0001
1000
,
0100
0010
0001
1000
0010
0100
0001
1000
,
0100
0100
0001
1000
0100
0010
0100
1000
,
0001
1000
0100
0100
0001
0000
0001
0000
,
1000
0100
0010
0001
1000
0100
1000
0001
0100
0010
0100
0001
1000
0010
0100
0010
,
1000
0001
0010
0001
1000
0010
0100
0010
1000
0001
0010
0100
0010
0001
1000
0100
,
1000
0010
0100
0010
1000
0001
0100
0010
1000
0001
0010
0100
0010
0001
1000
0100
,
1000
0001
0100
0010
0100
0001
1000
0010
1000
0001
0010
0001
1000
0010
0100
0010
,
1000
0001
0010
0100
0010
0001
1000
0100
1000
0010
1000
0001
0010
0100
0010
0001
,
1000
0010
0100
0010
1000
0001
0100
0001
1000
0100
0010
0100
1000
0001
0010
0100
,
1000
0010
1000
0001
0010
0001
0010
0100
1000
0010
1000
0001
0100
0010
0100
0001
,
1000
0100
0010
0001
1000
0100
0010
0100
1000
0001
0100
0001
1000
0010
0100
0010
,
1000
0001
0010
0100
1000
0010
0100
0010
1000
0001
0010
0100
0010
0001
1000
0100
,
1000
0010
0100
0010
1000
0001
0100
0001
1000
0100
0010
0100
1000
0001
0010
0100
,
1000
0010
1000
0001
0010
0001
1000
0100
1000
0001
0100
0010
0100
0001
1000
0010
,
1000
0001
0010
0100
0010
0001
1000
0100
1000
0010
0100
0010
1000
0001
0100
0001
,
1000
0100
0010
0100
1000
0001
0010
0001
1000
0100
0010
0001
1000
0010
1000
0001
,
0010
0001
0010
0100
1000
0010
1000
0001
0010
0100
0010
0001
1000
0010
0100
0010
,
1000
0100
0010
0001
1000
0100
1000
0001
1000
0010
0100
0010
1000
0001
0100
0001
,
1000
0100
0010
0100
1000
0001
0010
0100
1000
0010
0100
0010
1000
0001
0100
0010
,
2000
0000
0000
0001
,
3001
0000
1000
0010
0000
0000
1000
0000
,
0001
0000
1000
0001
0010
0000
0010
0000
,
0100
0000
1000
0001
0000
1000
0100
0100
,
0001
0000
0100
0100
1000
0000
0001
0100
,
0010
0000
0100
0001
0000
1000
0001
0010
,
0100
0000
0000
0000
0000
0000
0000
0000
1000
0000
0000
0000
0000
0000
0000
0001
0000
0000
0000
0000
0000
0000
0000
0000
1000
0000
0000
0000
0000
0000
0000
0000
0000
0000
0000
0000
0010
0000
0000
0000
0000
0000
0100
0000
0000
0000
0000
0000
,
0001
0000
1000
0010
0000
0000
MMMM
0000
,
1000
0010
1000
0001
0010
0100
0010
0001
,
1000
0010
0100
0010
1000
0001
0010
0100
,
0010
0001
1000
0100
0010
0001
1000
0010
,
0100
0010
1000
0001
0100
0010
1000
0001
,
0010
0100
1000
0001
0010
0001
1000
0010
,
1000
0001
0100
0010
0100
0001
1000
0100
,
0010
0001
1000
0010
1000
0001
0010
0100
,
1000
0001
0100
0010
0000
0000
0000
0100
,
0010
1000
0001
0020
0000
0000
0030
0000
,
0001
0000
1000
0001
0010
0000
0010
0000
,
0110
0000
0100
1000
0001
0000
0001
0000
,
1001
0000
0000
0000
0000
0000
1000
0000
0000
0010
0000
1000
,
0000
0000
0000
0000
0001
0000
0000
0000
0000
1000
0000
0000
0100
0000
0000
0010
0000
0000
0001
0000
0000
0000
0000
0000
,
1000
0000
0010
0100
0001
0000
1000
0100
,
0010
0001
1000
0010
0100
0010
1000
0001
,
0010
0100
0010
0001
2000
0000
3000
0000
,
0001
0010
0001
1000
0100
1000
0001
0010
0100
1000
0001
1000
0100
0000
0000
0000
,
1000
0001
0100
0001
1000
0010
0100
0010
1000
0001
0100
0001
1000
0000
0000
0000
,
0001
0010
0001
1000
0100
0010
0001
1000
0100
1000
0001
0010
0100
0000
0000
0000
,
1000
0001
0100
0001
1000
0001
0100
0010
0100
0001
1000
0010
0100
0000
0000
0000
,
0001
1000
0001
0010
0100
0010
0001
1000
0100
1000
0001
0010
0100
0000
0000
0000
,
1000
0001
1000
0001
0100
0010
0100
0001
1000
0010
0100
0001
1000
0000
0000
0000
,
0001
0010
0100
0010
0001
1000
0100
1000
0001
0010
0100
1000
0001
0000
0000
0000
,
1000
0010
0100
0010
1000
0001
0100
0010
0100
0001
1000
0010
1000
0000
0000
0000
,
1010
0000
0010
0000
0000
1000
0010
1000
,
0001
0000
1000
0100
0010
0000
0001
1000
,
0000
0000
0001
0010
0100
1000
0001
0000
,
0101
0000
0100
0010
1000
0000
0001
0010
,
0000
0000
0001
0010
0100
0000
1000
0010
,
0100
0000
0001
0100
0000
0010
1000
0001
,
0010
0000
0100
1000
0000
0001
0100
0010
,
1000
0000
0001
1000
0000
0010
0100
0001
,
1000
0000
0010
0000
1000
0000
0010
0000
0000
0100
0000
0000
0001
0000
1000
0000
0001
0000
1000
0000
0000
0100
0000
0000
,
0010
0001
0010
0100
1000
0100
0010
0001
,
1000
0000
0001
0000
1000
0000
0001
0000
0000
0100
0000
0000
0010
0000
1000
0000
0010
0000
1000
0000
0000
0001
0000
0000
,
0010
0001
1000
0010
0100
0010
1000
0001
,
1000
0000
0100
0000
1000
0000
0100
0000
0000
0010
0000
0000
0001
0000
1000
0000
0001
0000
1000
0000
0000
0010
0000
0000
,
0100
0010
1000
0001
0010
0001
1000
0010
,
0100
0000
0001
0000
0100
0000
0001
0000
0000
1000
0000
0000
0100
0000
0010
0000
0100
0000
0010
0000
0000
0001
0000
0000
,
1000
0000
0001
0100
0000
0000
MMMM
0000
,
1000
0100
0010
0001
1000
0100
1000
0001
0100
0010
0100
0001
1000
0010
0100
0010
,
1000
0001
0010
0001
1000
0010
0100
0010
1000
0001
0010
0100
0010
0001
1000
0100
,
1000
0010
0100
0010
1000
0001
0100
0010
1000
0001
0010
0100
0010
0001
1000
0100
,
1000
0001
0100
0010
0100
0001
1000
0010
1000
0001
0010
0001
1000
0010
0100
0010
,
1000
0001
0010
0100
0010
0001
1000
0100
1000
0010
1000
0001
0010
0100
0010
0001
,
1000
0010
0100
0010
1000
0001
0100
0001
1000
0100
0010
0100
1000
0001
0010
0100
,
1000
0010
1000
0001
0010
0001
0010
0100
1000
0010
1000
0001
0100
0010
0100
0001
,
1000
0100
0010
0001
1000
0100
0010
0100
1000
0001
0100
0001
1000
0010
0100
0010
,
1000
0001
0010
0100
1000
0010
0100
0010
1000
0001
0010
0100
0010
0001
1000
0100
,
1000
0010
0100
0010
1000
0001
0100
0001
1000
0100
0010
0100
1000
0001
0010
0100
,
1000
0010
1000
0001
0010
0001
1000
0100
1000
0001
0100
0010
0100
0001
1000
0010
,
1000
0001
0010
0100
0010
0001
1000
0100
1000
0010
0100
0010
1000
0001
0100
0001
,
1000
0100
0010
0100
1000
0001
0010
0001
1000
0100
0010
0001
1000
0010
1000
0001
,
0010
0001
0010
0100
1000
0010
1000
0001
0010
0100
0010
0001
1000
0010
0100
0010
,
1000
0100
0010
0001
1000
0100
1000
0001
1000
0010
0100
0010
1000
0001
0100
0001
,
1000
0100
0010
0100
1000
0001
0010
0100
1000
0010
0100
0010
1000
0001
0100
0010
,
1000
0100
0010
0001
1000
0100
1000
0001
0100
0010
0100
0001
1000
0010
0100
0010
,
1000
0001
0010
0001
1000
0010
0100
0010
1000
0001
0010
0100
0010
0001
1000
0100
,
1000
0010
0100
0010
1000
0001
0100
0010
1000
0001
0010
0100
0010
0001
1000
0100
,
1000
0001
0100
0010
0100
0001
1000
0010
1000
0001
0010
0001
1000
0010
0100
0010
,
1000
0001
0010
0100
0010
0001
1000
0100
1000
0010
1000
0001
0010
0100
0010
0001
,
1000
0010
0100
0010
1000
0001
0100
0001
1000
0100
0010
0100
1000
0001
0010
0100
,
1000
0010
1000
0001
0010
0001
0010
0100
1000
0010
1000
0001
0100
0010
0100
0001
,
1000
0100
0010
0001
1000
0100
0010
0100
1000
0001
0100
0001
1000
0010
0100
0010
,
1000
0001
0010
0100
1000
0010
0100
0010
1000
0001
0010
0100
0010
0001
1000
0100
,
1000
0010
0100
0010
1000
0001
0100
0001
1000
0100
0010
0100
1000
0001
0010
0100
,
1000
0010
1000
0001
0010
0001
1000
0100
1000
0001
0100
0010
0100
0001
1000
0010
,
1000
0001
0010
0100
0010
0001
1000
0100
1000
0010
0100
0010
1000
0001
0100
0001
,
1000
0100
0010
0100
1000
0001
0010
0001
1000
0100
0010
0001
1000
0010
1000
0001
,
0010
0001
0010
0100
1000
0010
1000
0001
0010
0100
0010
0001
1000
0010
0100
0010
,
1000
0100
0010
0001
1000
0100
1000
0001
1000
0010
0100
0010
1000
0001
0100
0001
,
1000
0100
0010
0100
1000
0001
0010
0100
1000
0010
0100
0010
1000
0001
0100
0010
,
1000
0000
0000
0001
0010
0000
0001
0000
,
1000
0000
0000
0010
1000
0000
0001
0000
,
0010
0000
0000
0100
1000
0000
0001
0000
,
0100
0000
0000
0010
0100
0000
0001
0000
,
1000
0000
0000
0001
0010
0000
0001
0000
,
1000
0000
0000
0010
0100
0000
0001
0000
,
1000
0000
0000
0100
0010
0000
0100
0000
,
1000
0000
0000
0001
1000
0000
0010
0000
,
1000
0000
0000
0001
0100
0000
0010
0000
,
1000
0000
0000
0001
0010
0000
0001
0000
,
1000
0000
0000
0100
0010
0000
0001
0000
,
1000
0000
0000
0010
0100
0000
0001
0000
,
1000
0000
0000
0001
0100
0000
0010
0000
,
1000
0000
0000
0001
0010
0000
0001
0000
,
1000
0000
0000
0100
0010
0000
0001
0000
,
1000
0000
0000
0010
0100
0000
0001
0000
,
10M0
0000
00M0
0000
,
00M0
0000
00M0
0000
,
00M0
0000
00M0
0000
,
00M0
0000
00M0
0000
,
00M0
0000
00M0
0000
,
00M0
0000
00M0
0000
,
00M0
0000
00M0
0000
,
00M0
0000
00M0
0000
,
00M0
0000
0000
0000
;

//---------------dance-single - T. Moore----------------
#NOTES:
     dance-single:
     T. Moore:
     Hard:
     16:
     1.000,1.000,0.055,0.156,1.000,1824.000,13.000,37.000,51.000,0.000:
0000
0000
0000
0000
,
0000
0000
0000
0000
,
0000
0000
0000
0000
,
0000
0000
0000
0000
,
0000
0000
0000
0000
,
0000
0000
0000
0000
,
0000
0000
0000
0000
,
0000
0000
0000
0000
,
0000
0001
0100
0001
,
0010
0000
0200
0300
2000
3000
2000
3000
,
0020
0030
0100
0000
0001
0000
0001
0000
,
1000
0000
0200
0300
0020
0030
0020
0030
,
0002
0003
1000
1000
,
0010
0010
1000
1000
,
0100
0100
0010
0010
,
0001
0000
0000
0000
0200
0300
0200
0000
,
0000
0000
0000
0301
,
0010
0001
1000
1000
,
1000
0000
0200
0300
0020
0030
0001
0000
,
0100
0001
1000
0000
,
1000
0000
0200
0300
0020
0030
0002
0003
,
0100
0000
0010
0000
,
1000
0000
0000
0000
00M1
00M0
00M0
00M0
10M0
00M0
00M0
00M0
01M0
0000
0000
0000
,
0010
0000
0001
0000
1000
0000
001M
000M
,
100M
000M
020M
030M
002M
0030
0200
0300
,
1000
0001
0100
0010
,
0100
0000
0000
0000
0000
0000
0000
0000
0001
0000
0002
0003
0000
0000
0000
0000
,
0010
0100
1000
0001
,
1000
0000
0000
0000
0002
0003
0100
0000
,
0010
0000
1000
0000
,
1000
0000
0000
0000
00M0
00M0
00M0
00M0
00M1
00M0
00M0
00M0
00M1
0000
0000
0000
,
0001
0010
0100
1000
,
0002
0000
0000
0003
,
1001
0001
0100
0001
,
0010
0100
1000
0001
,
0100
0000
0100
0010
,
2000
0000
3001
0010
,
0100
0010
0001
1000
,
0010
0100
0010
1000
,
0100
0000
0100
0000
,
0020
0000
0031
0100
,
0010
1000
0001
1000
0010
0100
0001
1000
0001
0100
0010
1000
0001
0000
0000
0000
,
1000
0100
1000
0001
0010
0100
1000
0001
0010
0001
1000
0100
1000
0000
0000
0000
,
0001
1000
0001
0100
0010
1000
0001
1000
0001
0100
0010
1000
0001
0000
0000
0000
,
1000
0001
0010
0001
1000
0100
1000
0001
0010
0100
1000
0001
1000
0000
0000
0000
,
0001
0100
0001
1000
0010
1000
0001
1000
0100
0010
0100
1000
0001
0000
0000
0000
,
0010
0001
1000
0001
0100
0010
1000
0001
1000
0010
0100
0001
1000
0000
0000
0000
,
0001
0010
0100
1000
0001
0010
0001
1000
0001
0100
0010
1000
0001
0000
0000
0000
,
1000
0010
1000
0001
0010
0001
1000
0001
0100
0010
1000
0001
1000
0000
0000
0000
,
0001
0100
0001
1000
0010
0100
0001
1000
0001
0100
0010
1000
0001
0000
0010
0000
,
0100
0010
0001
1000
0100
0010
0001
1000
0100
1000
0001
0010
0001
0000
1000
0000
,
0001
0100
0001
1000
0010
1000
0001
1000
0010
0100
0001
1000
0001
0000
1000
0000
,
0100
0010
0100
1000
0001
0010
0001
1000
0100
0010
0001
1000
0001
0000
1000
0000
,
0010
0100
0001
1000
0001
0100
0010
1000
0001
0010
0001
1000
0010
0000
0100
0000
,
0001
1000
0100
1000
0001
0010
0100
1000
0001
0100
0010
1000
0001
0000
1000
0000
,
0100
0010
0100
1000
0001
0010
0001
1000
0001
0100
0010
1000
0001
0000
1000
0000
,
0001
0100
0010
1000
0001
1000
0010
0100
0001
1000
0100
0010
0001
0000
1000
0000
,
0001
0100
0001
1000
0010
0100
0001
1000
0001
0100
0010
1000
0001
0000
0010
0000
,
0100
0010
0001
1000
0100
0010
0001
1000
0100
1000
0001
0010
0001
0000
1000
0000
,
0001
0100
0001
1000
0010
1000
0001
1000
0010
0100
0001
1000
0001
0000
1000
0000
,
0100
0010
0100
1000
0001
0010
0001
1000
0100
0010
0001
1000
0001
0000
1000
0000
,
0010
0100
0001
1000
0001
0100
0010
1000
0001
0010
0001
1000
0010
0000
0100
0000
,
0001
1000
0100
1000
0001
0010
0100
1000
0001
0100
0010
1000
0001
0000
1000
0000
,
0100
0010
0100
1000
0001
0010
0001
1000
0001
0100
0010
1000
0001
0000
1000
0000
,
0001
0100
0010
1000
0001
1000
0010
0100
0001
1000
0100
0010
0001
0000
1000
0000
,
0001
0020
0001
0000
,
0031
1000
0010
0100
,
0001
0000
0000
1000
0000
0000
0100
0000
0000
0000
0010
0000
0001
0000
1000
0000
,
0000
0001
0100
0010
1000
0000
M200
0300
,
1000
0010
0200
0000
0301
1000
0010
0100
,
0002
0013
0200
1300
,
0002
0000
0103
0000
0010
0000
0010
1000
,
0001
1000
0100
0010
1000
0000
0010
0000
,
0001
0010
0100
1000
0001
1000
0100
0010
,
0011
0001
1000
0010
1000
0001
0100
0010
,
0001
0010
0100
0001
1000
0001
0010
0100
,
1100
1000
0001
0100
0010
1000
0001
1000
,
0100
1000
0001
0100
0001
1000
0010
1000
,
1100
0100
0010
0001
1000
0010
1000
0100
,
0010
0001
0100
1000
0000
0100
0010
1000
,
0001
0010
0100
0001
0000
0100
0010
0001
,
1000
0000
0010
1000
0001
0010
0000
0100
,
1000
0100
0010
0001
1000
0000
0000
0010
,
1000
0001
0010
0100
1000
0000
0000
0001
,
1000
0010
0100
0001
1000
0000
0000
0001
,
0010
0000
0010
0000
0001
1000
0000
0010
,
1000
0100
0001
0000
,
1000
0010
1000
0001
0010
0100
0010
0001
,
1000
1000
0010
0000
,
1000
0010
1000
0000
0000
0000
0001
0000
0000
0000
0000
0001
0020
0000
0000
0000
0000
0000
0030
0000
0000
0000
0000
0000
,
0010
0100
0000
0000
0000
0000
0100
1000
0000
0000
0000
0000
1000
0001
0000
0000
0000
0000
1000
0001
0000
0000
0000
0000
,
1000
0001
0000
0000
0000
0000
1000
0001
0000
0000
0000
0000
0001
0100
0000
0000
0000
0000
0100
0010
0000
0000
0000
0000
,
0010
1000
0000
0000
0000
0000
1000
0001
0000
0000
0000
0000
1000
0001
0000
0000
0000
0000
1000
0001
0000
0000
0000
0000
,
0001
0010
0001
0000
0000
0000
1000
0000
0000
0000
0000
1000
0020
0000
0000
0000
0000
0000
0030
0000
0000
0000
0000
0000
,
0010
0100
0000
0000
0000
0000
0100
0001
0000
0000
0000
0000
0001
1000
0000
0000
0000
0000
0001
1000
0000
0000
0000
0000
,
0001
1000
0000
0000
0000
0000
0001
1000
0000
0000
0000
0000
1000
0100
0000
0000
0000
0000
0100
0010
0000
0000
0000
0000
,
0010
0001
0000
0000
0000
0000
0001
1000
0000
0000
0000
0000
1000
0010
0000
0000
0000
0000
1000
0010
0000
0000
0000
0000
,
1001
0000
0001
0000
0010
0000
0000
0001
,
0010
0100
0010
0001
1000
0010
0100
0010
,
1000
0001
1000
0100
0100
0001
1000
0010
,
0100
0010
1000
0001
0100
0100
1000
0001
,
0010
0001
2000
0000
3010
0100
0001
1000
,
0100
0010
0001
1000
0010
0100
0001
1000
,
0100
0100
0001
1000
0100
0010
0100
1000
,
0001
1000
0100
0100
0001
0000
1000
0000
,
0001
0100
0001
1000
0010
0100
0001
1000
0001
0100
0010
1000
0001
0000
1000
0000
,
0100
0010
0001
1000
0001
0010
0001
1000
0001
0010
0100
1000
0001
0000
1000
0000
,
0001
0100
0001
1000
0010
1000
0001
1000
0010
0100
0001
1000
0001
0000
1000
0000
,
0100
0010
0100
1000
0001
0010
0001
1000
0100
0010
0001
1000
0001
0000
1000
0000
,
0010
0100
0001
1000
0001
0100
0010
1000
0001
0010
0001
1000
0010
0000
0100
0000
,
0001
1000
0100
1000
0001
0010
0100
1000
0001
0100
0010
1000
0001
0000
1000
0000
,
0100
0010
0100
1000
0001
0010
0001
1000
0001
0100
0010
1000
0001
0000
1000
0000
,
0001
0100
0010
1000
0001
1000
0010
0100
0001
1000
0100
0010
0001
0000
1000
0000
,
0001
0100
0001
1000
0010
0100
0001
1000
0001
0100
0010
1000
0001
0000
0010
0000
,
0100
0010
0001
1000
0100
0010
0001
1000
0100
1000
0001
0010
0001
0000
1000
0000
,
0001
0100
0001
1000
0010
1000
0001
1000
0010
0100
0001
1000
0001
0000
1000
0000
,
0100
0010
0100
1000
0001
0010
0001
1000
0100
0010
0001
1000
0001
0000
1000
0000
,
0010
0100
0001
1000
0001
0100
0010
1000
0001
0010
0001
1000
0010
0000
0100
0000
,
0001
1000
0100
1000
0001
0010
0100
1000
0001
0100
0010
1000
0001
0000
1000
0000
,
0100
0010
0100
1000
0001
0010
0001
1000
0001
0100
0010
1000
0001
0000
1000
0000
,
0001
0100
0010
1000
0001
1000
0010
0100
0001
1000
0100
0010
0001
0000
1000
0000
,
0200
0000
0000
1000
,
1300
0000
0001
0100
0000
0000
0001
0000
,
1000
0000
0001
1000
0100
0000
0100
0000
,
0010
0000
0001
1000
0000
0001
0010
0010
,
1000
0000
0010
0010
0001
0000
1000
0010
,
0100
0000
0010
1000
0000
0001
1000
0100
,
0010
0000
0000
0000
0000
0000
0000
0000
0001
0000
0000
0000
0000
0000
0000
1000
0000
0000
0000
0000
0000
0000
0000
0000
0001
0000
0000
0000
0000
0000
0000
0000
0000
0000
0000
0000
0100
0000
0000
0000
0000
0000
0010
0000
0000
0000
0000
0000
,
1000
0000
0001
0100
0000
0000
MMMM
0000
,
0001
0100
0001
1000
0100
0010
0100
1000
,
1001
0001
0100
0010
1000
0001
0010
0100
,
0010
0001
1000
0100
0010
0001
1000
0010
,
0110
0100
0001
1000
0010
0100
0001
1000
,
0100
0010
0001
1000
0100
1000
0001
0100
,
0101
0001
0010
0100
0010
0001
1000
0010
,
0100
0001
1000
0100
1000
0001
0100
0010
,
1010
1000
0001
0010
0000
0000
0000
0100
,
1000
0001
0100
0020
0000
0000
0030
0000
,
1000
0000
0001
1000
0100
0000
0100
0000
,
0110
0000
0010
0001
1000
0000
1000
0000
,
1001
0000
0000
0000
0000
0000
0001
0000
0000
0100
0000
0001
,
0000
0000
0000
0000
1000
0000
0000
0000
0000
0001
0000
0000
0010
0000
0000
0100
0000
0000
1000
0000
0000
0000
0000
0000
,
0001
0000
0100
0010
1000
0000
0001
0010
,
0100
1000
0001
0100
0010
0100
0001
1000
,
0100
0010
0100
1000
0002
0000
0003
0000
,
1000
0100
1000
0001
0010
0001
1000
0100
0010
0001
1000
0001
0010
0000
0000
0000
,
0001
1000
0010
1000
0001
0100
0010
0100
0001
1000
0010
1000
0001
0000
0000
0000
,
1000
0100
1000
0001
0010
0100
1000
0001
0010
0001
1000
0100
0010
0000
0000
0000
,
0001
1000
0010
1000
0001
1000
0010
0100
0010
1000
0001
0100
0010
0000
0000
0000
,
1000
0001
1000
0100
0010
0100
1000
0001
0010
0001
1000
0100
0010
0000
0000
0000
,
0001
1000
0001
1000
0010
0100
0010
1000
0001
0100
0010
1000
0001
0000
0000
0000
,
1000
0100
0010
0100
1000
0001
0010
0001
1000
0100
0010
0001
1000
0000
0000
0000
,
0001
0100
0010
0100
0001
1000
0010
0100
0010
1000
0001
0100
0001
0000
0000
0000
,
0101
0000
0100
0000
0000
0001
0100
0001
,
1000
0000
0001
0010
0100
0000
1000
0001
,
0000
0000
1000
0100
0010
0001
1000
0000
,
1010
0000
0010
0100
0001
0000
1000
0100
,
0000
0000
1000
0100
0010
0000
0001
0100
,
0010
0000
1000
0010
0000
0100
0001
1000
,
0100
0000
0010
0001
0000
1000
0010
0100
,
0001
0000
1000
0001
0000
0100
0010
1000
,
0001
0000
0100
0000
0001
0000
0100
0000
0000
0010
0000
0000
1000
0000
0001
0000
1000
0000
0001
0000
0000
0010
0000
0000
,
0100
1000
0100
0010
0001
0010
0100
1000
,
0001
0000
1000
0000
0001
0000
1000
0000
0000
0010
0000
0000
0100
0000
0001
0000
0100
0000
0001
0000
0000
1000
0000
0000
,
0100
1000
0001
0100
0010
0100
0001
1000
,
0001
0000
0010
0000
0001
0000
0010
0000
0000
0100
0000
0000
1000
0000
0001
0000
1000
0000
0001
0000
0000
0100
0000
0000
,
0010
0100
0001
1000
0100
1000
0001
0100
,
0010
0000
1000
0000
0010
0000
1000
0000
0000
0001
0000
0000
0010
0000
0100
0000
0010
0000
0100
0000
0000
1000
0000
0000
,
0001
0000
1000
0010
0000
0000
MMMM
0000
,
0001
0010
0001
1000
0100
0010
0001
1000
0001
0010
0100
1000
0001
0000
1000
0000
,
0010
0100
0001
1000
0001
0100
0001
1000
0001
0100
0010
1000
0001
0000
1000
0000
,
0001
0010
0001
1000
0100
1000
0001
1000
0100
0010
0001
1000
0001
0000
1000
0000
,
0010
0100
0010
1000
0001
0100
0001
1000
0010
0100
0001
1000
0001
0000
1000
0000
,
0100
0010
0001
1000
0001
0010
0100
1000
0001
0100
0001
1000
0100
0000
0010
0000
,
0001
1000
0010
1000
0001
0100
0010
1000
0001
0010
0100
1000
0001
0000
1000
0000
,
0010
0100
0010
1000
0001
0100
0001
1000
0001
0010
0100
1000
0001
0000
1000
0000
,
0001
0010
0100
1000
0001
1000
0100
0010
0001
1000
0010
0100
0001
0000
1000
0000
,
0001
0010
0001
1000
0100
0010
0001
1000
0001
0010
0100
1000
0001
0000
0100
0000
,
0010
0100
0001
1000
0010
0100
0001
1000
0010
1000
0001
0100
0001
0000
1000
0000
,
0001
0010
0001
1000
0100
1000
0001
1000
0100
0010
0001
1000
0001
0000
1000
0000
,
0010
0100
0010
1000
0001
0100
0001
1000
0010
0100
0001
1000
0001
0000
1000
0000
,
0100
0010
0001
1000
0001
0010
0100
1000
0001
0100
0001
1000
0100
0000
0010
0000
,
0001
1000
0010
1000
0001
0100
0010
1000
0001
0010
0100
1000
0001
0000
1000
0000
,
0010
0100
0010
1000
0001
0100
0001
1000
0001
0010
0100
1000
0001
0000
1000
0000
,
0001
0010
0100
1000
0001
1000
0100
0010
0001
1000
0010
0100
0001
0000
1000
0000
,
0001
0100
0001
1000
0010
0100
0001
1000
0001
0100
0010
1000
0001
0000
1000
0000
,
0100
0010
0001
1000
0001
0010
0001
1000
0001
0010
0100
1000
0001
0000
1000
0000
,
0001
0100
0001
1000
0010
1000
0001
1000
0010
0100
0001
1000
0001
0000
1000
0000
,
0100
0010
0100
1000
0001
0010
0001
1000
0100
0010
0001
1000
0001
0000
1000
0000
,
0010
0100
0001
1000
0001
0100
0010
1000
0001
0010
0001
1000
0010
0000
0100
0000
,
0001
1000
0100
1000
0001
0010
0100
1000
0001
0100
0010
1000
0001
0000
1000
0000
,
0100
0010
0100
1000
0001
0010
0001
1000
0001
0100
0010
1000
0001
0000
1000
0000
,
0001
0100
0010
1000
0001
1000
0010
0100
0001
1000
0100
0010
0001
0000
1000
0000
,
0001
0100
0001
1000
0010
0100
0001
1000
0001
0100
0010
1000
0001
0000
0010
0000
,
0100
0010
0001
1000
0100
0010
0001
1000
0100
1000
0001
0010
0001
0000
1000
0000
,
0001
0100
0001
1000
0010
1000
0001
1000
0010
0100
0001
1000
0001
0000
1000
0000
,
0100
0010
0100
1000
0001
0010
0001
1000
0100
0010
0001
1000
0001
0000
1000
0000
,
0010
0100
0001
1000
0001
0100
0010
1000
0001
0010
0001
1000
0010
0000
0100
0000
,
0001
1000
0100
1000
0001
0010
0100
1000
0001
0100
0010
1000
0001
0000
1000
0000
,
0100
0010
0100
1000
0001
0010
0001
1000
0001
0100
0010
1000
0001
0000
1000
0000
,
0001
0100
0010
1000
0001
1000
0010
0100
0001
1000
0100
0010
0001
0000
1000
0000
,
0001
0000
0000
1000
0100
0000
1000
0000
,
0001
0000
0001
0100
0010
0000
1000
0000
,
0100
0000
0000
0010
0001
0000
1000
0000
,
0001
0000
0000
1000
0010
0000
0010
0000
,
0100
0000
0000
0001
0010
0000
0010
0000
,
0100
0000
0000
1000
0001
0000
0100
0000
,
0010
0000
0010
1000
0001
0000
0010
0000
,
0100
0000
0000
1000
0001
0000
1000
0000
,
0001
0100
0001
0000
0000
0000
1000
0000
0000
0000
0000
1000
0200
0000
0000
0000
0000
0000
0300
0000
0000
0000
0000
0000
,
0100
0010
0000
0000
0000
0000
0010
0001
0000
0000
0000
0000
0001
1000
0000
0000
0000
0000
0001
1000
0000
0000
0000
0000
,
0001
1000
0000
0000
0000
0000
0001
1000
0000
0000
0000
0000
1000
0010
0000
0000
0000
0000
0010
0100
0000
0000
0000
0000
,
0100
0001
0000
0000
0000
0000
0001
1000
0000
0000
0000
0000
0001
1000
0000
0000
0000
0000
0001
1000
0000
0000
0000
0000
,
1000
0100
1000
0000
0000
0000
0001
0000
0000
0000
0000
0001
0200
0000
0000
0000
0000
0000
0300
0000
0000
0000
0000
0000
,
0100
0010
0000
0000
0000
0000
0010
1000
0000
0000
0000
0000
1000
0001
0000
0000
0000
0000
1000
0001
0000
0000
0000
0000
,
1000
0001
0000
0000
0000
0000
1000
0001
0000
0000
0000
0000
0001
0010
0000
0000
0000
0000
0010
0100
0000
0000
0000
0000
,
0100
1000
0000
0000
0000
0000
1000
0001
0000
0000
0000
0000
0001
0100
0000
0000
0000
0000
0100
0001
0000
0000
0000
0000
,
10M0
0000
00M0
0000
,
00M0
0000
00M0
0000
,
00M0
0000
00M0
0000
,
00M0
0000
00M0
0000
,
00M0
0000
00M0
0000
,
00M0
0000
00M0
0000
,
00M0
0000
00M0
0000
,
00M0
0000
00M0
0000
,
00M0
0000
0000
0000
;

//---------------dance-single - T. Moore----------------
#NOTES:
     dance-single:
     T. Moore:
     Medium:
     13:
     1.000,1.000,0.093,0.173,1.000,1648.000,22.000,41.000,51.000,2.000:
0000
0000
0000
0000
,
0000
0000
0000
0000
,
0000
0000
0000
0000
,
0000
0000
0000
0000
,
0000
0000
0000
0000
,
0000
0000
0000
0000
,
0000
0000
0000
0000
,
0000
0000
0000
0000
,
0000
0001
0100
0001
,
0010
0000
0200
0300
2000
3000
2000
3000
,
0020
0030
0100
0000
0001
0000
0001
0000
,
1000
0000
0200
0300
0020
0030
0020
0030
,
0002
0003
1000
1000
,
0010
0010
1000
1000
,
0100
0100
0010
0010
,
0001
0000
0000
0000
0200
0300
0200
0000
,
0000
0000
0000
0301
,
0010
0001
1000
1000
,
1000
0000
0200
0300
0020
0030
0001
0000
,
0100
0001
1000
0000
,
1000
0000
0200
0300
0020
0030
0002
0003
,
0100
0000
0010
0000
,
1000
0000
0000
0000
00M1
00M0
00M0
00M0
10M0
00M0
00M0
00M0
01M0
0000
0000
0000
,
0010
0000
0001
0000
1000
0000
001M
000M
,
100M
000M
020M
030M
002M
0030
0200
0300
,
1000
0001
0100
0010
,
0100
0000
0000
0000
0000
0000
0000
0000
0001
0000
0002
0003
0000
0000
0000
0000
,
0010
0100
1000
0001
,
1000
0000
0000
0000
0002
0003
0100
0000
,
0010
0000
1000
0000
,
1000
0000
0000
0000
00M0
00M0
00M0
00M0
00M1
00M0
00M0
00M0
00M1
0000
0000
0000
,
0001
0010
0100
1000
,
0002
0000
0000
0003
,
1001
0001
0100
0001
,
0010
0100
1000
0001
,
0100
0000
0100
0010
,
2000
0000
3001
0010
,
0100
0010
0001
1000
,
0010
0100
0010
1000
,
0100
0000
0100
0000
,
0020
0000
0031
0100
,
0010
1000
0010
0100
0001
1000
0001
0100
0010
1000
0000
0000
,
0001
1000
0100
0010
0100
1000
0001
0010
0100
1000
0000
0000
,
0001
1000
0001
0100
0010
1000
0001
1000
0010
0100
0000
0000
,
0001
1000
0100
0010
0100
0010
0001
1000
0100
0010
0000
0000
,
0100
1000
0010
0100
0001
1000
0100
0010
0001
1000
0000
0000
,
0001
0010
0100
1000
0001
0100
0010
1000
0001
1000
0000
0000
,
0100
0010
0001
1000
0001
0100
0010
1000
0001
0010
0000
0000
,
0100
1000
0001
0100
0001
0010
0100
1000
0001
1000
0000
0000
,
0001
0100
0001
1000
0010
1000
0001
0100
0010
1000
0001
1000
,
0001
0010
0100
1000
0100
0010
0001
1000
0001
0010
0100
1000
,
0001
0100
0001
1000
0010
0100
0001
1000
0001
0100
0010
1000
,
0001
1000
0100
0010
0001
1000
0001
0010
0100
1000
0001
1000
,
0010
0100
0010
1000
0001
1000
0100
0010
0001
1000
0001
0010
,
0100
1000
0001
0100
0001
1000
0010
0100
0001
1000
0100
1000
,
0001
0100
0001
0010
0100
1000
0010
1000
0001
0010
0100
1000
,
0001
0100
0001
1000
0100
0010
0001
1000
0010
0100
0001
1000
,
0001
0010
0001
1000
0100
1000
0001
0010
0100
1000
0001
1000
,
0001
0100
0010
1000
0010
0100
0001
1000
0001
0100
0010
1000
,
0001
0010
0001
1000
0100
0010
0001
1000
0001
0010
0100
1000
,
0001
1000
0010
0100
0001
1000
0001
0100
0010
1000
0001
1000
,
0100
0010
0100
1000
0001
1000
0010
0100
0001
1000
0001
0100
,
0010
1000
0001
0010
0001
1000
0100
0010
0001
1000
0010
1000
,
0001
0010
0001
0100
0010
1000
0100
1000
0001
0100
0010
1000
,
0001
0010
0001
1000
0010
0100
0001
1000
0100
0010
0001
1000
,
0001
0020
0001
0000
,
0031
1000
0010
0100
,
0001
0000
0000
1000
0000
0000
0100
0000
0000
0000
0010
0000
0001
0000
1000
0000
,
0000
0001
0100
0010
1000
0000
M200
0300
,
1000
0010
0200
0000
0301
1000
0010
0100
,
0002
0013
0200
1300
,
0002
0000
0103
0000
0010
0000
0010
1000
,
0001
1000
0100
0010
1000
0000
0010
0000
,
0001
0010
0100
1000
0001
1000
0100
0010
,
0011
0001
1000
0010
1000
0001
0100
0010
,
0001
0010
0100
0001
1000
0001
0010
0100
,
1100
1000
0001
0100
0010
1000
0001
1000
,
0100
1000
0001
0100
0001
1000
0010
1000
,
1100
0100
0010
0001
1000
0010
1000
0100
,
0010
0001
0100
1000
0000
0100
0010
1000
,
0001
0010
0100
0001
0000
0100
0010
0001
,
1000
0000
0010
1000
0001
0010
0000
0100
,
1000
0100
0010
0001
1000
0000
0000
0010
,
1000
0001
0010
0100
1000
0000
0000
0001
,
1000
0010
0100
0001
1000
0000
0000
0001
,
0010
0000
0010
0000
0001
1000
0000
0010
,
1000
0100
0001
0000
,
1000
0010
1000
0001
0010
0100
0010
0001
,
1000
1000
0010
0000
,
1000
0010
1000
0000
0000
0000
0001
0000
0000
0000
0000
0001
0020
0000
0000
0000
0000
0000
0030
0000
0000
0000
0000
0000
,
0010
0100
0000
0000
0000
0000
0100
1000
0000
0000
0000
0000
1000
0001
0000
0000
0000
0000
1000
0001
0000
0000
0000
0000
,
1000
0001
0000
0000
0000
0000
1000
0001
0000
0000
0000
0000
0001
0100
0000
0000
0000
0000
0100
0010
0000
0000
0000
0000
,
0010
1000
0000
0000
0000
0000
1000
0001
0000
0000
0000
0000
1000
0001
0000
0000
0000
0000
1000
0001
0000
0000
0000
0000
,
0001
0010
0001
0000
0000
0000
1000
0000
0000
0000
0000
1000
0020
0000
0000
0000
0000
0000
0030
0000
0000
0000
0000
0000
,
0010
0100
0000
0000
0000
0000
0100
0001
0000
0000
0000
0000
0001
1000
0000
0000
0000
0000
0001
1000
0000
0000
0000
0000
,
0001
1000
0000
0000
0000
0000
0001
1000
0000
0000
0000
0000
1000
0100
0000
0000
0000
0000
0100
0010
0000
0000
0000
0000
,
0010
0001
0000
0000
0000
0000
0001
1000
0000
0000
0000
0000
1000
0010
0000
0000
0000
0000
1000
0010
0000
0000
0000
0000
,
1111
0000
0001
0000
0020
0000
0131
1000
,
0101
0010
0001
1000
0010
0100
0010
1000
,
0001
0100
0100
1000
0100
0100
0011
1000
,
0011
0100
0010
1000
0100
0010
0001
1000
,
0011
0100
0002
0000
0013
0100
1010
0001
,
1010
0100
0010
0001
0100
0001
1000
0010
,
1000
0100
0100
0001
0100
0100
1010
0001
,
1010
0100
0020
0030
0002
0003
2000
3000
,
0001
0100
0001
1000
0010
1000
0001
0100
0010
1000
0001
1000
,
0001
0010
0100
1000
0100
0010
0001
1000
0001
0010
0100
1000
,
0001
0100
0001
1000
0010
0100
0001
1000
0001
0100
0010
1000
,
0001
1000
0100
0010
0001
1000
0001
0010
0100
1000
0001
1000
,
0010
0100
0010
1000
0001
1000
0100
0010
0001
1000
0001
0010
,
0100
1000
0001
0100
0001
1000
0010
0100
0001
1000
0100
1000
,
0001
0100
0001
0010
0100
1000
0010
1000
0001
0010
0100
1000
,
0001
0100
0001
1000
0100
0010
0001
1000
0010
0100
0001
1000
,
0001
0010
0001
1000
0100
1000
0001
0010
0100
1000
0001
1000
,
0001
0100
0010
1000
0010
0100
0001
1000
0001
0100
0010
1000
,
0001
0010
0001
1000
0100
0010
0001
1000
0001
0010
0100
1000
,
0001
1000
0010
0100
0001
1000
0001
0100
0010
1000
0001
1000
,
0100
0010
0100
1000
0001
1000
0010
0100
0001
1000
0001
0100
,
0010
1000
0001
0010
0001
1000
0100
0010
0001
1000
0010
1000
,
0001
0010
0001
0100
0010
1000
0100
1000
0001
0100
0010
1000
,
0001
0010
0001
1000
0010
0100
0001
1000
0100
0010
0001
1000
,
0200
0000
0000
1000
,
1300
0000
0001
0100
0000
0000
0001
0000
,
1000
0000
0001
1000
0100
0000
0100
0000
,
0010
0000
0001
1000
0000
0001
0010
0010
,
1000
0000
0010
0010
0001
0000
1000
0010
,
0100
0000
0010
1000
0000
0001
1000
0100
,
0010
0000
0000
0000
0000
0000
0000
0000
0001
0000
0000
0000
0000
0000
0000
1000
0000
0000
0000
0000
0000
0000
0000
0000
0001
0000
0000
0000
0000
0000
0000
0000
0000
0000
0000
0000
0100
0000
0000
0000
0000
0000
0010
0000
0000
0000
0000
0000
,
1000
0000
0001
0100
0000
0000
MMMM
0000
,
0001
0100
0001
1000
0100
0010
0100
1000
,
1001
0001
0100
0010
1000
0001
0010
0100
,
0010
0001
1000
0100
0010
0001
1000
0010
,
0110
0100
0001
1000
0010
0100
0001
1000
,
0100
0010
0001
1000
0100
1000
0001
0100
,
0101
0001
0010
0100
0010
0001
1000
0010
,
0100
0001
1000
0100
1000
0001
0100
0010
,
1010
1000
0001
0010
0000
0000
0000
0100
,
1000
0001
0100
0020
0000
0000
0030
0000
,
1000
0000
0001
1000
0100
0000
0100
0000
,
0110
0000
0010
0001
1000
0000
1000
0000
,
1001
0000
0000
0000
0000
0000
0001
0000
0000
0100
0000
0001
,
0000
0000
0000
0000
1000
0000
0000
0000
0000
0001
0000
0000
0010
0000
0000
0100
0000
0000
1000
0000
0000
0000
0000
0000
,
0001
0000
0100
0010
1000
0000
0001
0010
,
0100
1000
0001
0100
0010
0100
0001
1000
,
0100
0010
0100
1000
0002
0000
0003
0000
,
1000
0001
1000
0010
0100
0001
1000
0010
0100
0001
0000
0000
,
1000
0001
0010
0100
0010
0001
1000
0100
0010
0001
0000
0000
,
1000
0001
1000
0010
0100
0001
1000
0001
0100
0010
0000
0000
,
1000
0001
0010
0100
0010
0100
1000
0001
0010
0100
0000
0000
,
0010
0001
0100
0010
1000
0001
0010
0100
1000
0001
0000
0000
,
1000
0100
0010
0001
1000
0010
0100
0001
1000
0001
0000
0000
,
0010
0100
1000
0001
1000
0010
0100
0001
1000
0100
0000
0000
,
0010
0001
1000
0010
1000
0100
0010
0001
1000
0001
0000
0000
,
0101
0000
0100
0000
0000
0001
0100
0001
,
1000
0000
0001
0010
0100
0000
1000
0001
,
0000
0000
1000
0100
0010
0001
1000
0000
,
1010
0000
0010
0100
0001
0000
1000
0100
,
0000
0000
1000
0100
0010
0000
0001
0100
,
0010
0000
1000
0010
0000
0100
0001
1000
,
0100
0000
0010
0001
0000
1000
0010
0100
,
0001
0000
1000
0001
0000
0100
0010
1000
,
0001
0000
0100
0000
0001
0000
0100
0000
0000
0010
0000
0000
1000
0000
0001
0000
1000
0000
0001
0000
0000
0010
0000
0000
,
0100
1000
0100
0010
0001
0010
0100
1000
,
0001
0000
1000
0000
0001
0000
1000
0000
0000
0010
0000
0000
0100
0000
0001
0000
0100
0000
0001
0000
0000
1000
0000
0000
,
0100
1000
0001
0100
0010
0100
0001
1000
,
0001
0000
0010
0000
0001
0000
0010
0000
0000
0100
0000
0000
1000
0000
0001
0000
1000
0000
0001
0000
0000
0100
0000
0000
,
0010
0100
0001
1000
0100
1000
0001
0100
,
0010
0000
1000
0000
0010
0000
1000
0000
0000
0001
0000
0000
0010
0000
0100
0000
0010
0000
0100
0000
0000
1000
0000
0000
,
0001
0000
1000
0010
0000
0000
MMMM
0000
,
1000
0010
1000
0001
0100
0001
1000
0010
0100
0001
1000
0001
,
1000
0100
0010
0001
0010
0100
1000
0001
1000
0100
0010
0001
,
1000
0010
1000
0001
0100
0010
1000
0001
1000
0010
0100
0001
,
1000
0001
0010
0100
1000
0001
1000
0100
0010
0001
1000
0001
,
0100
0010
0100
0001
1000
0001
0010
0100
1000
0001
1000
0100
,
0010
0001
1000
0010
1000
0001
0100
0010
1000
0001
0010
0001
,
1000
0010
1000
0100
0010
0001
0100
0001
1000
0100
0010
0001
,
1000
0010
1000
0001
0010
0100
1000
0001
0100
0010
1000
0001
,
1000
0100
1000
0001
0010
0001
1000
0100
0010
0001
1000
0001
,
1000
0010
0100
0001
0100
0010
1000
0001
1000
0010
0100
0001
,
1000
0100
1000
0001
0010
0100
1000
0001
1000
0100
0010
0001
,
1000
0001
0100
0010
1000
0001
1000
0010
0100
0001
1000
0001
,
0010
0100
0010
0001
1000
0001
0100
0010
1000
0001
1000
0010
,
0100
0001
1000
0100
1000
0001
0010
0100
1000
0001
0100
0001
,
1000
0100
1000
0010
0100
0001
0010
0001
1000
0010
0100
0001
,
1000
0100
1000
0001
0100
0010
1000
0001
0010
0100
1000
0001
,
1000
0100
1000
0001
0010
0001
1000
0100
0010
0001
1000
0001
,
1000
0010
0100
0001
0100
0010
1000
0001
1000
0010
0100
0001
,
1000
0100
1000
0001
0010
0100
1000
0001
1000
0100
0010
0001
,
1000
0001
0100
0010
1000
0001
1000
0010
0100
0001
1000
0001
,
0010
0100
0010
0001
1000
0001
0100
0010
1000
0001
1000
0010
,
0100
0001
1000
0100
1000
0001
0010
0100
1000
0001
0100
0001
,
1000
0100
1000
0010
0100
0001
0010
0001
1000
0010
0100
0001
,
1000
0100
1000
0001
0100
0010
1000
0001
0010
0100
1000
0001
,
1000
0010
1000
0001
0100
0001
1000
0010
0100
0001
1000
0001
,
1000
0100
0010
0001
0010
0100
1000
0001
1000
0100
0010
0001
,
1000
0010
1000
0001
0100
0010
1000
0001
1000
0010
0100
0001
,
1000
0001
0010
0100
1000
0001
1000
0100
0010
0001
1000
0001
,
0100
0010
0100
0001
1000
0001
0010
0100
1000
0001
1000
0100
,
0010
0001
1000
0010
1000
0001
0100
0010
1000
0001
0010
0001
,
1000
0010
1000
0100
0010
0001
0100
0001
1000
0100
0010
0001
,
1000
0010
1000
0001
0010
0100
1000
0001
0100
0010
1000
0001
,
1000
0000
0000
0001
0010
0000
0001
0000
,
1000
0000
1000
0010
0100
0000
0001
0000
,
0010
0000
0000
0100
1000
0000
0001
0000
,
1000
0000
0000
0001
0100
0000
0100
0000
,
0010
0000
0000
1000
0100
0000
0100
0000
,
0010
0000
0000
0001
1000
0000
0010
0000
,
0100
0000
0100
0001
1000
0000
0100
0000
,
0010
0000
0000
0001
1000
0000
0001
0000
,
1000
0010
1000
0000
0000
0000
0001
0000
0000
0000
0000
0001
0020
0000
0000
0000
0000
0000
0030
0000
0000
0000
0000
0000
,
0010
0100
0000
0000
0000
0000
0100
1000
0000
0000
0000
0000
1000
0001
0000
0000
0000
0000
1000
0001
0000
0000
0000
0000
,
1000
0001
0000
0000
0000
0000
1000
0001
0000
0000
0000
0000
0001
0100
0000
0000
0000
0000
0100
0010
0000
0000
0000
0000
,
0010
1000
0000
0000
0000
0000
1000
0001
0000
0000
0000
0000
1000
0001
0000
0000
0000
0000
1000
0001
0000
0000
0000
0000
,
0001
0010
0001
0000
0000
0000
1000
0000
0000
0000
0000
1000
0020
0000
0000
0000
0000
0000
0030
0000
0000
0000
0000
0000
,
0010
0100
0000
0000
0000
0000
0100
0001
0000
0000
0000
0000
0001
1000
0000
0000
0000
0000
0001
1000
0000
0000
0000
0000
,
0001
1000
0000
0000
0000
0000
0001
1000
0000
0000
0000
0000
1000
0100
0000
0000
0000
0000
0100
0010
0000
0000
0000
0000
,
0010
0001
0000
0000
0000
0000
0001
1000
0000
0000
0000
0000
1000
0010
0000
0000
0000
0000
0010
1000
0000
0000
0000
0000
,
0M01
0000
0M00
0000
,
0M00
0000
0M00
0000
,
0M00
0000
0M00
0000
,
0M00
0000
0M00
0000
,
0M00
0000
0M00
0000
,
0M00
0000
0M00
0000
,
0M00
0000
0M00
0000
,
0M00
0000
0M00
0000
,
0M00
0000
0000
0000
;
