#TITLE:Neighbours Hell;
#SUBTITLE:;
#ARTIST:Neophyte;
#TITLETRANSLIT:;
#SUBTITLETRANSLIT:;
#ARTISTTRANSLIT:;
#CREDIT:Leone;
#BANNER:BANNer de leone pa kombo.jpg;
#BACKGROUND:bg de leone pa kombo.jpg;
#LYRICSPATH:;
#CDTITLE:CDTITLE.jpg;
#MUSIC:Neophyte - Neighbours Hell.ogg;
#OFFSET:-0.001;
#SAMPLESTART:41.625;
#SAMPLELENGTH:12.000;
#SELECTABLE:YES;
#BPMS:0.000=200.000;
#STOPS:;
#BGCHANGES:;
// cache tags:
#FIRSTBEAT:0.000;
#LASTBEAT:353.000;
#SONGFILENAME:Songs/Definitive Keyboard Megapack/Neighbours Hell(Leone510)/Neo.sm;
#HASMUSIC:1;
#HASBANNER:1;
#MUSICLENGTH:105.000;
// end cache tags

//---------------dance-single - Leone Steps----------------
#NOTES:
     dance-single:
     Leone Steps:
     Hard:
     13:
     1.000,1.000,1.000,1.000,0.657,746.000,399.000,147.000,0.000,44.000:
1111
0000
0000
0000
1100
0001
0101
0010
,
1100
0000
0001
0000
0220
0000
0000
0300
0201
0000
0000
0030
1020
0000
0000
0300
,
0101
0000
0100
0000
1230
0000
0301
0100
0010
0000
0110
0000
0101
0000
1010
0000
,
1001
0101
0022
0000
1230
0000
1023
0000
,
1301
0001
0231
0300
1100
0001
0101
0010
,
1100
0000
0001
0000
0220
0000
0000
0300
0201
0000
0000
0030
1020
0000
0000
0300
,
0101
0000
0100
0000
1230
0000
0301
0100
0010
0000
0020
0000
0000
0000
2000
0000
,
0002
0000
0030
0020
3000
0003
0230
0300
1100
0000
0001
0000
1010
0000
0100
0010
,
1001
0000
0001
1000
0101
0010
0001
0010
1100
0000
0001
0000
1010
0000
0100
0000
,
1010
0001
0101
0010
0101
0010
1100
0001
,
0110
0000
1001
0000
0101
0000
0010
0001
1100
0000
0010
0000
1100
0000
0010
0000
,
0101
0010
0101
0010
1100
0010
0101
0010
,
0101
0000
1010
0000
1001
0000
0010
0001
1100
0000
0001
0000
1010
0000
0100
0000
,
1010
0001
0101
0010
0101
0010
1100
0001
,
0110
0000
1001
0000
0101
0000
0010
0001
1100
0000
0010
0000
1100
0000
0010
0000
,
0101
0010
0101
0010
1100
0010
0101
0010
,
0101
0000
1010
0000
1001
0100
1010
0001
1100
0000
0001
0000
1010
0000
0100
0000
,
1010
0001
0101
0010
0101
0010
1100
0001
,
0110
0000
1001
0000
0101
0000
0010
0001
1100
0000
0010
0000
1100
0000
0010
0000
,
0101
0010
0101
0010
1100
0010
0101
0010
,
0101
0000
1010
0000
1001
0000
0010
0001
0220
0030
0000
0300
0202
0003
0000
0300
,
2020
0030
0000
0000
3202
0003
0020
0030
0321
0030
1100
0000
0101
0020
1031
0000
,
0101
1010
1001
1100
0101
1001
0101
1010
,
1001
0002
1103
0000
0101
0000
1001
0000
0101
0000
1010
0000
2002
3003
0000
0000
,
0220
0330
0000
0000
0000
0000
0000
0000
0101
0000
1010
0100
0000
0000
0100
0000
,
0102
0003
0101
0000
2010
3000
1010
0000
1020
0030
1010
0000
0102
0003
0101
0000
,
1020
0030
1010
0000
0201
0300
0101
0000
0120
0030
0110
0000
0201
0300
0101
0000
,
2010
3000
1010
0000
1020
0030
1010
0000
0102
0003
0101
0000
1020
0030
1010
0000
,
0201
0300
0002
0000
0203
0000
1310
0000
0201
0300
0101
0000
2010
3000
1010
0000
,
1020
0030
1010
0000
0102
0003
0101
0000
1020
0030
1010
0000
0201
0300
0101
0000
,
0120
0030
0110
0000
0201
0300
0101
0000
2010
3000
1010
0000
1020
0030
1010
0010
,
0102
0003
0101
0000
1020
0030
1010
0000
2002
3003
0000
0000
0220
0330
0000
0000
,
0202
0303
0000
0000
0000
0000
0000
0000
1100
0000
0010
0100
0011
0000
1010
0000
,
0022
1033
0022
1033
0122
1033
0022
1033
,
1022
0000
1033
0000
0022
0000
1033
0010
0101
0000
1100
0000
0101
0000
1001
0000
,
1010
0000
1100
0010
0102
0000
0103
0000
1200
0000
0310
0000
2010
0000
3010
0000
,
0101
0200
0302
1103
1020
0130
1010
0100
,
1010
0100
1010
0100
1010
0100
1010
0100
,
1010
0100
1010
0100
1010
0101
1001
0110
,
1010
0000
0001
0000
0110
0000
0000
0000
2200
0000
0000
3300
0202
0000
0000
0303
2020
0000
0000
3030
0220
0000
0001
0330
0000
0000
0000
0000
0000
0000
0000
0000
,
2000
0000
0000
0000
3101
0001
1010
0100
,
1010
0001
0101
0010
0101
0010
1100
0001
,
0110
0000
1001
0000
0101
0000
0010
0001
1100
0000
0010
0000
1100
0000
0010
0000
,
0101
0010
0101
0010
1100
0010
0101
0010
,
0101
1000
1001
0010
1100
0001
1010
0101
,
1010
0101
0101
1010
0101
0110
1100
0011
,
0110
0000
0000
0000
1001
0000
0000
0000
0101
0000
0000
0000
0110
0000
0001
0000
1100
0000
0000
0000
0020
0000
0000
0000
1200
0000
0000
0030
2320
0000
0000
3000
,
0102
0000
0000
0033
0020
0000
0000
0000
0102
0000
0000
0030
0223
0000
0000
0300
1100
0000
0000
0030
0110
0000
0000
0000
0101
0000
0000
0000
1010
0000
0000
0000
,
0101
0000
1010
0000
1001
0100
1010
0001
2200
3300
0001
0000
2210
3300
0001
0000
,
2200
3300
0001
0000
2201
3300
0001
0000
2200
3300
0001
0000
2210
3300
0001
0000
,
2200
3300
0001
0000
2201
3300
0001
0000
2200
3300
0001
0000
2210
3300
0001
0010
,
0101
2000
3011
1000
0101
0000
1010
0000
0202
0303
1000
0000
0202
0303
1000
0000
,
0202
0303
1000
0000
0202
0303
1010
0000
0110
0000
1100
0001
0010
0200
0300
0000
,
1010
0101
1010
0101
0110
1010
1100
0101
,
1001
0100
0011
0000
1100
0000
0000
0000
1010
0000
0000
0000
0011
0000
0000
0000
,
1100
0000
0000
0000
1001
0000
0000
0000
0101
0010
1001
0100
1010
0000
0000
0000
,
0110
0000
0000
0000
1200
0000
0310
0001
0010
0100
1000
0100
0010
0001
0010
0100
,
1000
0100
0010
0001
0010
0100
1000
0100
0010
0001
0010
0100
1000
0100
0010
0001
,
0010
0100
1000
0100
0010
0001
0010
0100
1000
0100
0010
0001
0010
0100
1000
0100
,
0010
0001
0010
0100
1000
0100
0010
0001
0010
0100
1000
0100
0010
0001
0010
0100
,
1000
0100
0010
0001
0010
0100
1000
0100
0010
0001
0010
0100
1000
0100
0010
0001
,
0010
0100
1000
0100
0010
0001
0010
0100
1000
0100
0010
0001
0010
0100
1000
0100
,
0010
0001
0010
0100
1000
0000
0000
0000
0000
0000
0000
0000
0000
0000
0000
0000
,
0000
0000
0000
0000
,
0000
0000
0100
0100
,
0100
0100
0100
0100
,
0100
0100
0100
0100
,
0100
0100
0100
0100
,
0100
0100
0100
0000
,
0000
0000
0000
0000
,
0000
0000
0000
0200
0320
0000
2030
3002
,
2003
3002
0203
0320
0000
0130
0000
0000
,
0000
0000
0000
0000
1010
0101
1100
0110
,
1001
0101
0110
0011
1010
1100
1001
0110
,
0011
1010
0110
0101
1010
0110
1010
0101
,
1100
0000
0110
0000
1001
0000
0101
1000
0110
0000
0011
0000
1010
0000
1100
0000
,
1001
0110
0011
1010
0110
0101
1010
0110
,
1010
0101
1100
0110
1001
0101
0110
0011
,
1010
1100
1001
0110
0011
1010
0110
0101
,
1010
0000
0110
0000
1010
0000
0101
0010
1100
0000
0110
0000
1001
0000
0101
0000
,
0110
0001
1010
0001
1100
0010
1100
0000
1001
0000
0110
0000
0011
0000
1010
0000
,
0110
0101
1010
0110
1010
0101
1100
0110
,
1001
0000
0101
0000
0110
0000
0011
0000
1010
0001
1100
0000
1001
0010
1100
0000
,
0101
0010
1100
0000
0101
1000
0011
0000
1010
0000
0110
0000
1010
0000
0101
0000
,
1100
0000
0110
0000
1001
0010
0101
1000
0110
0001
1010
0100
1001
0010
1100
0010
,
1001
0000
0000
0100
0000
0000
0011
0000
0000
1000
0000
0000
0011
0000
0000
0100
0000
0000
1010
0000
0000
0001
0000
0000
0110
0000
0000
1000
0000
0000
0101
0000
0000
0010
0000
0000
1100
0000
0000
0001
0000
0000
0110
0000
1000
0000
0100
0000
,
0010
0001
0010
0100
1000
0001
0010
0100
1000
0100
0010
0001
1000
0100
0010
0001
1000
0100
0010
0001
0010
0100
1000
0001
,
0010
0100
1000
0010
0100
0010
0100
0010
0100
0010
0001
0010
0001
0010
0001
0100
1000
0010
1000
0010
1000
0010
0100
0010
,
2202
0003
3000
0000
0300
0000
0000
0000
0000
0000
0000
0000
0000
0000
0000
0000
;
