#TITLE:TEKNOPATHETIC;
#SUBTITLE:;
#ARTIST:長沼英樹;
#TITLETRANSLIT:;
#SUBTITLETRANSLIT:;
#ARTISTTRANSLIT:HIDEKI NAGANUMA;
#CREDIT:sssmsm and DeathDefier for the skeleton and song ^_^;
#BANNER:tekno.png;
#BACKGROUND:teknoBG.png;
#LYRICSPATH:;
#CDTITLE:;
#MUSIC:teknopathetic.OGG;
#OFFSET:-0.480;
#SAMPLESTART:12.240;
#SAMPLELENGTH:12.000;
#SELECTABLE:YES;
#DISPLAYBPM:160.000;
#BPMS:0.000=160.000,60.000=80.000,76.000=160.000,215.750=80.000,217.750=160.000;
#STOPS:2.500=0.190
,10.000=0.190
,17.500=0.190
,25.000=0.190
,27.500=0.715
,250.063=0.200
;
#BGCHANGES:;
// cache tags:
#FIRSTBEAT:1.000;
#LASTBEAT:250.500;
#SONGFILENAME:Songs/Rodd's Revival/Teknopathetic (Rodd Steps)/teknopathetic.sm;
#HASMUSIC:1;
#HASBANNER:1;
#MUSICLENGTH:103.026;
// end cache tags

//---------------dance-single - R. Farias----------------
#NOTES:
     dance-single:
     R. Farias:
     Challenge:
     10:
     0.932,0.912,0.427,0.136,0.849,614.000,44.000,14.000,52.000,0.000:

0000
0000
1000
0000
0001
1MM1
1000
0100
,
0000
0010
0001
0000
0101
0101
0100
0010
,
1000
0200
0300
0010
M11M
0010
0001
0000
,
0100
0010
0000
1010
1010
1000
0001
0100
,
0010
0000
1000
1M1M
1000
0100
0000
0010
,
0001
0000
1001
1001
0001
0100
0010
1000
,
0000
0000
0001
0000
1MM1
0000
0001
0000
0100
0010
1000
0000
0001
0000
M1M0
0000
,
0010
0000
1000
0010
1000
0010
1000
0000
0100
0000
0010
0100
0010
0100
0010
0100
,
0010
0000
0001
0010
0001
0010
0001
0010
0001
0000
0101
0000
0101
0000
0100
0000
,
0010
0000
1000
0100
0010
0001
0010
0100
1000
0000
0001
0100
0010
1000
0100
0010
,
0001
0000
0010
0100
1000
0001
0100
0010
0100
0000
0110
0000
0110
0000
0010
0000
,
1000
0000
0100
0010
0100
1000
0001
0100
0010
0000
0100
0001
1000
0100
0010
0000
,
0001
1000
0001
0100
0001
0100
0010
0100
0010
0000
1010
0000
1010
0000
1000
0000
,
0100
0000
0010
0001
0010
0100
1000
0001
0100
0000
0010
1000
0100
1000
0100
0000
,
1000
0001
1000
0001
0100
0001
0100
0000
0010
0000
1010
0000
1100
0000
1000
000M
,
M100
0010
M001
M010
010M
20M0
00M0
3001
0100
0010
M100
M002
0000
00M0
10M3
0100
,
100M
0000
0000
0100
0000
0000
0010
0000
0000
M001
0000
0000
M100
0000
0000
0020
000M
0000
M000
0000
0000
0130
0000
0000
0001
0000
0000
1000
0000
0000
0001
0000
0000
0200
00M0
0000
M000
0000
M00M
0000
000M
0000
0310
0000
0000
0000
0000
0000
,
1000
0000
000M
0100
000M
0000
0010
0000
0000
0100
0000
0000
1000
0000
00M0
0001
0000
0000
0000
0000
M000
0100
M000
0000
0010
0000
0000
0100
0000
0000
0001
0000
0000
2000
00M0
0000
00M0
0000
000M
0000
0000
0000
3100
0000
0000
0010
0000
0000
,
M001
0000
0000
0010
0000
0000
0100
0000
0000
1000
0000
0000
0001
0000
0000
0100
0000
0000
0010
0000
0000
1000
0000
0000
0001
0000
0000
0100
0000
0000
M01M
0000
M000
0100
0000
0000
0001
0000
0000
1000
0000
0000
010M
0000
0000
1000
0000
0000
,
0001
0000
0100
0000
0010
0000
1000
0001
1000
0001
1000
0000
0100
0000
0020
0000
,
0000
0032
0000
0103
0010
0110
0110
0010
,
1000
0000
0100
0000
0010
0000
0100
1000
0100
1000
0100
1000
0100
0000
0020
0000
,
0000
0032
0000
1003
0001
1001
1001
0001
,
0100
0000
0010
0000
0100
0000
0001
1000
0001
1000
0001
1000
0001
0000
2000
0000
,
0000
3200
0000
0310
0001
0011
0011
0001
,
0100
0000
0010
0000
0100
0000
0001
1000
0100
0010
0100
1000
0001
0000
0200
0000
,
0000
0320
0000
1030
0100
1100
1001
0001
,
0100
0010
0100
0001
1000
0100
0010
0100
,
1000
0001
0100
0010
1000
0100
1000
0001
,
0100
0010
0000
0000
0110
0000
0000
0000
,
1010
0000
0000
1100
0000
1001
1001
0001
,
0100
0010
0100
0010
1000
0100
1000
0001
,
1000
0001
0100
0010
1000
0100
1000
0001
,
1000
0100
0000
0000
1100
0000
0000
0000
,
0110
0000
0000
0011
0000
0101
0101
0100
,
0010
0100
0001
1000
0100
1000
0001
0100
,
0001
1000
0001
1000
0100
0010
0100
0010
,
0001
0100
0010
0100
0001
1000
0100
1000
,
0001
0000
0100
0001
0100
0000
0010
0000
0100
0000
0001
1000
0001
0000
1000
0000
,
0100
0000
0010
0100
0010
0100
0010
0000
0001
0000
0100
0001
0100
0001
0100
0000
,
0010
0100
0010
0100
0010
0100
0010
0000
1000
0000
1010
0000
1010
0000
1000
0000
,
0100
0000
0010
0001
0010
0100
1000
0000
0001
0100
0010
0100
0001
0000
1000
0100
,
0010
0100
1000
0000
0001
0000
0100
0000
0010
0000
0110
0000
0110
0000
0010
0000
,
1000
0000
0100
0010
0001
0010
0100
0000
0010
0001
0010
0001
0010
0000
0001
0100
,
0001
0100
0001
0000
0100
0000
0010
0000
1000
0000
1100
0000
1100
0000
0100
0000
,
0010
0000
0001
0100
0010
1000
0100
0000
0010
0001
0100
0010
0100
0000
0001
1000
,
0001
1000
0100
0000
0010
0000
0100
0000
1000
0000
1001
0000
1001
0000
0001
0000
,
0100
0000
0010
1000
0010
0000
1000
0000
0100
0000
1000
0000
0001
0000
0100
0000
,
0010
0000
0100
0010
0100
0000
0010
0000
1000
0000
0100
0000
0001
0000
0100
0000
,
0010
0000
0001
0010
0001
0000
0100
0000
0010
0000
0100
0000
0001
0000
1000
0000
,
0001
1000
0001
0000
1000
0000
0100
0000
0010
0000
0100
0000
1000
0000
0001
0000
,
0100
0010
1000
0001
0100
0010
0100
0001
,
1000
0100
0001
0100
0010
0001
0100
1000
,
0100
0010
1000
0100
0010
0001
0010
0100
,
1000
0000
0000
0000
0000
0000
0000
0000
0000
0000
0000
0000
0000
0000
0000
0000
00M0
0000
0001
0000
0000
0000
0000
0000
M000
0000
0000
0000
0000
0000
0100
0000
0000
0000
0000
0000
0000
0000
0000
0000
000M
0000
0010
0000
0000
0000
0000
0000
0000
0000
0000
0000
0000
0000
0100
0000
M000
0000
0000
0000
0000
0000
0000
0000
0000
0000
0000
0000
0000
0000
0000
0000
000M
0000
0000
0000
0000
0000
0000
0000
0000
0000
0000
0000
0010
0000
0000
0000
0000
0000
0000
0000
0000
0000
0000
0000
1000
0000
0000
0000
0000
0000
0000
0000
0000
0000
0000
0000
0100
0000
0000
0000
0000
0000
0000
0000
0000
0000
0000
0000
0010
0000
0000
0000
0000
0000
0000
0000
0000
0000
0000
0000
0001
0000
0000
0000
0000
0000
0000
0000
0000
0000
0000
0000
0010
0000
0000
0000
0000
0000
0000
0000
0000
0000
0000
0000
0100
0000
0000
0000
0000
0000
0000
0000
0000
0000
0000
0000
1000
0000
0000
0000
0000
0000
0000
0000
0000
0000
0000
0000
0001
0000
0000
0000
0000
0000
0000
0000
0000
0000
0000
0000
,
0100
0010
0100
0001
1000
0100
0010
0100
1000
0001
1000
0001
1000
0001
0100
0000
,
0010
0000
0100
0000
0001
0000
1000
0000
0100
0000
0010
0001
0010
0100
1000
0001
,
0100
0010
1000
0001
0100
0010
0100
0001
1000
0100
0010
0001
0010
0100
1000
0000
,
0001
0000
0100
0000
0010
0000
0100
0000
0001
1000
0100
0010
0100
1000
0001
0100
,
0010
1000
0001
0100
0010
0100
0001
1000
0100
0010
0100
1000
0100
0010
0001
0010
,
0100
0000
0010
0000
0001
0000
0100
0000
0010
0000
1000
0100
0010
0001
0010
0100
,
1000
0001
0100
0010
1000
0001
0100
0010
1000
0100
0010
0001
0010
0100
1000
0100
,
0010
0001
0100
0010
1000
0100
1000
0100
10MM
0000
0M00
0000
0000
0000
0000
0000
;
