#TITLE:Scratch (Sixxy Remix);
#SUBTITLE:Feels The Arrow;
#ARTIST:DJPoniver;
#TITLETRANSLIT:;
#SUBTITLETRANSLIT:;
#ARTISTTRANSLIT:;
#CREDIT:Ov3rHell3XoduZ;
#BANNER:../bn.png;
#BACKGROUND:../bg.png;
#LYRICSPATH:;
#CDTITLE:;
#MUSIC:DJPoniver - Scratch (Sixxy Remix).ogg;
#OFFSET:1.815;
#SAMPLESTART:45.830;
#SAMPLELENGTH:11.980;
#SELECTABLE:YES;
#BPMS:0.000=128.000;
#STOPS:;
#BGCHANGES:;
// cache tags:
#FIRSTBEAT:4.000;
#LASTBEAT:651.500;
#SONGFILENAME:Songs/EXoduz' Feels The Arrow/Scratch (Sixxy Remix) - [Ov3rHell3XoduZ]/DJPoniver - Scratch (Sixxy Remix).sm;
#HASMUSIC:1;
#HASBANNER:1;
#MUSICLENGTH:305.984;
// end cache tags

//---------------dance-single - Ov3rHell3XoduZ----------------
#NOTES:
     dance-single:
     Ov3rHell3XoduZ:
     Challenge:
     12:
     0.902,1.000,0.199,0.536,1.000,1703.000,61.000,164.000,0.000,0.000:

0000
0000
0000
0000
,
1001
0000
0001
0100
0010
1000
0100
1000
,
1001
0000
0001
0100
0001
0010
0100
0010
,
0011
0000
1000
0010
0100
0010
1000
0100
,
1100
0000
1000
0001
0100
0001
0010
0100
,
1100
0000
1000
0010
0100
0010
1000
0100
,
0110
0000
0010
0001
0100
0001
0010
0100
,
1001
0000
1000
0010
0100
0010
1000
0100
,
0110
0000
0010
0001
0100
0001
1000
0001
,
0200
0000
0310
1000
0100
0010
0001
1000
,
0020
0000
0130
0001
0010
0100
1000
0001
,
2000
0000
3010
0100
0001
0010
0001
1000
,
0200
0000
0310
0001
1000
0001
0010
0001
,
2000
0000
3001
0100
0001
0010
0001
1000
,
0002
0000
0103
0010
1000
0100
1000
0100
,
0020
0000
0031
1000
0001
0010
0001
1000
,
0020
0000
0130
0001
1000
0100
1000
0001
,
0200
0000
0000
0310
1000
0000
0100
0000
0010
0000
0100
0000
1000
0000
0001
0000
,
2000
0000
0000
3010
0100
0000
0001
0000
0010
0000
0100
0000
1000
0000
0001
0000
,
0200
0000
0000
0310
1000
0000
0100
0000
1000
0000
0010
0000
0100
0000
0001
0000
,
0020
0000
0000
0130
1000
0000
0001
0000
1000
0000
0100
0000
1000
0000
0010
0000
,
0200
0000
0000
0301
0010
0000
0100
0000
1000
0000
0100
0000
0010
0000
0001
0000
,
2000
0000
0000
3010
0100
0000
0001
0000
0010
0000
0001
0000
1000
0000
0100
0000
,
0020
0000
0000
0031
1000
0000
0001
0000
0100
0000
0001
0000
1000
0000
0010
0000
,
0200
0000
0000
0301
1000
0000
0100
0000
1000
0000
0001
0000
0100
0000
0001
0000
,
0021
0000
0000
0130
1000
0000
0001
0000
0100
0000
0001
0000
1000
0000
0100
0000
,
0020
0000
0000
0031
1000
0000
0001
0000
0100
0000
0001
0000
1000
0000
0010
0000
,
0200
0000
0000
0301
0010
0000
0100
0000
0010
0000
0001
0000
1000
0000
0001
0000
,
0200
0000
0000
0310
1000
0000
0001
0000
0100
0000
0001
0000
1000
0000
0100
0000
,
0020
0000
0000
0031
1000
0000
0001
0000
0100
0000
0001
0000
1000
0000
0001
0000
,
2000
0000
0000
3100
0010
0000
0100
0000
1000
0000
0010
0000
0100
0000
0010
0000
,
2000
0000
0000
3100
0010
0000
0001
0000
1000
0000
0100
0000
1000
0000
0001
0000
,
0020
0000
0000
0031
1000
0000
0100
0000
1000
0000
0001
0000
0100
0000
0001
0000
,
2000
0000
0000
3100
0010
0000
0001
0000
0100
0000
0001
0000
1000
0000
0010
0000
,
0200
0000
0000
0301
0010
0000
0001
0000
1000
0000
0100
0000
1000
0000
0001
0000
,
0020
0000
0000
0031
0100
0000
0010
0000
1000
0000
0001
0000
0100
0000
0001
0000
,
0020
0000
0000
0130
1000
0000
0001
0000
1000
0000
0010
0000
0100
0000
0001
0000
,
2000
0000
0000
3100
0010
0000
0001
0000
1000
0000
0001
0000
0010
0000
0100
0000
,
2000
0000
0000
3010
0100
0000
0001
0000
1000
0000
0100
0000
1000
0000
0001
0000
,
0020
0000
0000
0130
1000
0000
0001
0000
1000
0000
0100
0000
0010
0000
0001
0000
,
2000
0000
0000
3010
0100
0000
0001
0000
1000
0000
0100
0000
1000
0000
0010
0000
,
0100
0001
0100
0001
0010
0100
1000
0001
1000
0000
0010
0000
0110
0000
0000
0000
,
0100
0001
0010
0001
1000
0100
1000
0001
0100
0000
0010
0000
1010
0000
0000
0000
,
1000
0100
0010
0001
1000
0001
0010
0001
1000
0000
0010
0000
0110
0000
0000
0000
,
0100
0001
0010
0001
1000
0001
0100
0001
1000
0000
0100
0000
1100
0000
0000
0000
,
1000
0010
0100
0010
1000
0100
0010
0001
1000
0000
0001
0000
0101
0000
0000
0000
,
0100
0010
1000
0001
0100
0001
0010
0001
1000
0000
0100
0000
0110
0000
0000
0000
,
0010
0001
0100
0001
0010
0100
1000
0001
0100
0000
0010
0000
1010
0000
0000
0000
,
1000
0100
1000
0001
0100
0001
0010
0001
1000
0000
0010
0000
0110
0000
0110
0000
,
0100
0001
0010
0001
1000
0100
1000
0001
0100
0000
0001
0000
0011
0000
0000
0000
,
0010
0100
1000
0010
0100
0001
1000
0100
1000
0000
0001
0000
0110
0000
0000
0000
,
0010
1000
0100
1000
0010
0100
0001
0010
0100
0000
1000
0000
1010
0000
0000
0000
,
0010
0100
0001
1000
0100
1000
0001
0100
0001
0000
0010
0000
0110
0000
0000
0000
,
0100
1000
0010
1000
0100
0010
0001
1000
0001
0000
0100
0000
1010
0000
0000
0000
,
1000
0100
1000
0001
0100
0001
0010
0001
1000
0000
0100
0000
0011
0000
0000
0000
,
0001
0100
0010
1000
0100
1000
0010
0100
0001
0000
0010
0000
0110
0000
0000
0000
,
0100
1000
0010
0100
0001
1000
0010
0100
0001
1000
0100
0010
0001
1000
0100
0010
,
0002
0003
0000
0000
0202
0303
0000
0000
0220
0330
0000
0000
2020
3030
0000
0000
,
2200
3300
0000
0000
2002
3003
0000
0000
0202
0303
0000
0000
2002
3003
0000
0000
,
2020
3030
0000
0000
0220
0330
0000
0000
2020
3030
0000
0000
2200
3300
0000
0000
,
0220
0330
0000
0000
0022
0033
0000
0000
0202
0303
0000
0000
0220
0330
0000
0000
,
2020
3030
0000
0000
2200
3300
0000
0000
2002
3003
0000
0000
0202
0303
0000
0000
,
2002
3003
0000
0000
2020
3030
0000
0000
0220
0330
0000
0000
2020
3030
0000
0000
,
2200
3300
0000
0000
0220
0330
0000
0000
2200
3300
0000
0000
2002
3003
0000
0000
,
0202
0303
0000
0000
0220
0330
0000
0000
0220
0330
0000
0000
0220
0330
0000
0000
,
1000
0001
0100
0001
0010
0100
1000
0001
,
1000
0100
1000
0010
0100
0001
0010
0001
,
1000
0100
0010
0001
1000
0001
0100
0001
,
0010
0100
1000
0010
0100
0010
1000
0100
,
0010
0001
1000
0001
0100
0001
1000
0100
,
1000
0001
0100
0001
0010
0001
1000
0100
,
0010
0100
1000
0010
0100
0001
0010
0001
,
1000
0100
0010
0001
1000
0001
0100
0001
,
1000
0100
1000
0010
0100
0010
1000
0100
,
0020
0000
0000
0031
0100
0000
0010
0000
1000
0000
0100
0000
1000
0000
0010
0000
,
0200
0000
0000
0301
0010
0000
0100
0000
1000
0000
0001
0000
0100
0000
0001
0000
,
2000
0000
0000
3100
0010
0000
0001
0000
0100
0000
0001
0000
0010
0000
0100
0000
,
2000
0000
0000
3010
0100
0000
0001
0000
0010
0000
0001
0000
1000
0000
0100
0000
,
2000
0000
0000
3001
0010
0000
0100
0000
1000
0000
0001
0000
0100
0000
0001
0000
,
2000
0000
0000
3100
1000
0000
0010
0000
0100
0000
0010
0000
1000
0000
0100
0000
,
0020
0000
0000
0031
0100
0000
0001
0000
0010
0000
0001
0000
1000
0000
0100
0000
,
0010
0001
0100
0001
0010
0001
0010
0100
1000
0100
1000
0010
0100
0001
1000
0001
,
1000
0100
1000
0100
0000
0000
0010
0001
0010
0001
0000
0000
1000
0010
1000
0010
0000
0000
0100
0001
0100
0001
0000
0000
0010
0100
0010
0100
0000
0000
1000
0010
,
1000
0100
1000
0010
1000
0010
0100
0001
0010
0100
1000
0001
0100
0010
1000
0001
,
1000
0010
1000
0010
0000
0000
0100
0001
0100
0001
0000
0000
0010
0100
0010
0100
0000
0000
1000
0010
1000
0010
0000
0000
1000
0100
1000
0100
0000
0000
0010
0001
,
1000
0100
1000
0010
0100
0001
0100
0001
0010
0100
1000
0010
0100
0001
1000
0001
,
0010
0100
0010
0100
0000
0000
1000
0001
1000
0001
0000
0000
0100
0010
0100
0010
0000
0000
1000
0100
1000
0100
0000
0000
0010
0001
0010
0001
0000
0000
1000
0010
,
1000
0001
0100
0001
1000
0100
1000
0001
0010
0001
1000
0010
1000
0001
0100
0001
,
1000
0100
1000
0100
0000
0000
0010
0001
0010
0001
0000
0000
1000
0010
1000
0010
0000
0000
0100
0001
0100
0001
0000
0000
1000
0100
1000
0100
0000
0000
0010
0001
,
0100
0010
1000
0100
1000
0001
0100
0001
0010
0100
0010
0001
1000
0100
0010
0001
,
1000
0001
1000
0001
0000
0000
1000
0010
1000
0010
0000
0000
0100
0001
0100
0001
0000
0000
0010
0100
0010
0100
0000
0000
1000
0001
1000
0001
0000
0000
0100
0010
,
1000
0000
0400
0300
0010
0000
0004
0003
1000
0000
0010
0000
0100
0000
0001
0000
,
0010
0100
1000
0001
0100
0001
1000
0100
1000
0010
0100
0001
0010
0100
1000
0001
,
1000
0100
1000
0100
0000
0000
0010
0001
0010
0001
0000
0000
1000
0100
1000
0100
0000
0000
0010
0001
0010
0001
0000
0000
1000
0010
1000
0010
0000
0000
0100
0001
,
0010
0000
0400
0300
1000
0000
0040
0030
0100
0000
0001
0000
0010
0000
0001
0000
,
1000
0100
1000
0010
0100
0001
0010
0100
,
1000
0001
0100
0001
1000
0100
1000
0010
,
0200
0000
0301
0010
0001
0010
0001
0010
,
0001
0000
0100
0000
0010
0000
1000
0000
0001
0000
0100
0000
0010
0000
1000
0000
0100
0000
1000
0000
0100
0010
0000
0000
0001
0000
1000
0000
0001
0100
0000
0000
,
0010
1000
0100
1000
0001
0100
0001
0010
0200
0300
0200
0300
0200
0300
0200
0300
,
1000
0000
0001
0000
1000
0010
0000
0000
0100
0000
0001
0000
1000
0100
0000
0000
0010
0000
0001
0000
0100
0000
0001
0000
0010
0000
0001
0000
0100
0000
0001
0000
,
0010
0100
0010
0100
1000
0100
1000
0010
1000
0001
0100
0001
0010
0001
0100
0001
,
1000
0100
0000
0000
0000
0000
0000
0000
0010
0001
0000
0000
0000
0000
0000
0000
0000
0000
0000
0000
1000
0100
0000
0000
0010
0000
0001
0000
1000
0010
0000
0000
,
0100
0001
0010
0100
1000
0001
1000
0000
1010
0000
0110
0000
0101
0000
0011
0000
,
0110
0000
0000
0000
1000
0001
0000
0000
0100
0000
0010
0000
1000
0100
0000
0000
0010
0000
0001
0000
1000
0000
0100
0000
0010
0000
0001
0000
1000
0000
0100
0000
,
0010
0001
0100
0001
0010
0100
1000
0010
1000
0001
0100
0010
1000
0100
1000
0010
,
0100
0000
0000
0000
0000
0000
0000
0000
0001
0000
0000
0000
0000
0000
0000
0000
0010
0000
0000
0000
0000
0000
0000
0000
0001
0000
0000
0000
0000
0000
0000
0000
1000
0000
0000
0000
0000
0000
0000
0000
0100
0000
0000
0000
0000
0000
0000
0000
1000
0000
0000
0000
0000
0000
0000
0000
0000
0000
0000
0000
0001
0000
0000
0000
0000
0000
0000
0000
0000
0000
0000
0000
0100
0000
0000
0000
0000
0000
0010
0000
0000
0000
0000
0000
0000
0000
0000
0000
0000
0000
0000
0000
0000
0000
0000
0000
1000
0000
0000
0000
0000
0000
0000
0000
0000
0000
0000
0000
0001
0000
0000
0000
0000
0000
0000
0000
0000
0000
0000
0000
0100
0000
0000
0000
0000
0000
0010
0000
0000
0000
0000
0000
0000
0000
0000
0000
0000
0000
0000
0000
0000
0000
0000
0000
1000
0000
0000
0000
0000
0000
0000
0000
0100
0000
0000
0000
0000
0000
0000
0000
0010
0000
0000
0000
0000
0000
0000
0000
0001
0000
0000
0000
0000
0000
0000
0000
1000
0000
0000
0000
0000
0000
0000
0000
0001
0000
0000
0000
0000
0000
0000
0000
,
1000
0000
0001
0000
0100
0010
0000
0000
1000
0000
0100
0000
0010
0001
0000
0000
1000
0010
0000
0000
0100
0001
0000
0000
1000
0100
0000
0000
0010
0001
0000
0000
,
1000
0001
0100
0001
0010
0100
1000
0001
2000
0000
0000
0000
3100
0000
0010
0000
,
0001
1000
0010
0100
0002
0000
0203
0000
,
0310
0000
0000
0000
0000
0000
0000
0000
1000
0000
0000
0000
0000
0000
0000
0000
0010
0000
0000
0000
0000
0000
0000
0000
1000
0000
0000
0000
0000
0000
0000
0000
0100
0000
0000
0000
0000
0000
0000
0000
0010
0000
0000
0000
0000
0000
0000
0000
0001
0000
0000
0000
0000
0000
0000
0000
0000
0000
0000
0000
1000
0000
0000
0000
0000
0000
0000
0000
0000
0000
0000
0000
0100
0000
0000
0000
0000
0000
0010
0000
0000
0000
0000
0000
0000
0000
0000
0000
0000
0000
0000
0000
0000
0000
0000
0000
0001
0000
0000
0000
0000
0000
0000
0000
0000
0000
0000
0000
1000
0000
0000
0000
0000
0000
0000
0000
0000
0000
0000
0000
0001
0000
0000
0000
0000
0000
0100
0000
0000
0000
0000
0000
0000
0000
0000
0000
0000
0000
0000
0000
0000
0000
0000
0000
0010
0000
0000
0000
0000
0000
0000
0000
1000
0000
0000
0000
0000
0000
0000
0000
0100
0000
0000
0000
0000
0000
0000
0000
1000
0000
0000
0000
0000
0000
0000
0000
0010
0000
0000
0000
0000
0000
0000
0000
0100
0000
0000
0000
0000
0000
0000
0000
,
0001
0000
1000
0000
0001
0100
0000
0000
0010
0000
1000
0000
0100
0010
0000
0000
0001
0100
0000
0000
0010
1000
0000
0000
0001
0100
0000
0000
0001
0010
0000
0000
,
0100
1000
0001
0100
0001
1000
0100
0010
0002
0000
0000
0000
0103
0000
0010
0000
,
2000
3200
0320
0032
2003
3200
0320
0032
,
1003
0100
1000
0010
0100
0001
0010
0001
1000
0100
0010
0001
1000
0001
0100
0001
,
1000
0001
1000
0001
0000
0000
1000
0010
1000
0010
0000
0000
0100
0001
0100
0001
0000
0000
1000
0100
1000
0100
0000
0000
0010
0001
0010
0001
0000
0000
1000
0100
,
1000
0001
0100
0001
0010
0001
1000
0001
0100
0001
1000
0100
1000
0001
0010
0001
,
1000
0010
1000
0010
0000
0000
0100
0001
0100
0001
0000
0000
0010
0100
0010
0100
0000
0000
1000
0010
1000
0010
0000
0000
0100
0001
0100
0001
0000
0000
1000
0100
,
0010
0001
0100
0001
0010
0100
1000
0010
0100
0010
1000
0100
0010
0001
1000
0001
,
1000
0010
1000
0010
0000
0000
0100
0001
0100
0001
0000
0000
1000
0100
1000
0100
0000
0000
0010
0001
0010
0001
0000
0000
1000
0010
1000
0010
0000
0000
0100
0001
,
1000
0100
1000
0010
0100
0010
1000
0100
0010
0001
1000
0001
0100
0001
0010
0100
,
1000
0001
1000
0001
0000
0000
1000
0010
1000
0010
0000
0000
0100
0001
0100
0001
0000
0000
1000
0100
1000
0100
0000
0000
0010
0001
0020
0031
0000
0000
1000
0001
,
0100
0010
1000
0100
1000
0010
0100
0001
0010
0001
1000
0100
0010
0001
1000
0001
,
0100
0010
0100
0010
0000
0000
1000
0100
1000
0100
0000
0000
0010
0001
0010
0001
0000
0000
1000
0010
1000
0010
0000
0000
0100
0001
0100
0001
0000
0000
1000
0100
,
1000
0000
0002
0003
1000
0000
0020
0030
0200
0300
0001
0000
0020
0030
0100
0000
,
1000
0100
1000
0100
0010
0001
0010
0001
1000
0010
1000
0010
0100
0001
0010
0100
,
1000
0010
1000
0010
0000
0000
0100
0001
0100
0001
0000
0000
1000
0100
1000
0100
0000
0000
0010
0001
0010
0001
0000
0000
1000
0010
1000
0010
0000
0000
0100
0001
,
1000
0000
0200
0300
0010
0000
0002
0003
1000
0010
0100
0001
1000
0010
0100
0001
,
1000
0100
1000
0010
0100
0001
0010
0001
1000
0100
0010
0001
1000
0001
0100
0001
,
1000
0100
1000
0010
1000
0010
0100
0001
0010
0100
1000
0001
0100
0001
0100
0010
,
1000
0100
0010
0100
1000
0001
1000
0001
0010
0001
1000
0010
0100
0010
1000
0100
,
1000
0100
0010
0001
1000
0001
0100
0010
1000
0001
0010
0001
0010
0100
1000
0010
,
0100
0010
1000
0001
0100
0001
0010
0100
1000
0010
0100
0010
1000
0100
0010
0001
,
1000
0001
0010
0001
0010
0100
1000
0001
0100
0001
1000
0100
1000
0100
0010
0001
,
1000
0010
1000
0100
1000
0010
0100
0001
0010
0100
1000
0001
0100
0001
1000
0100
,
0010
0001
1000
0001
1000
0010
0100
0010
1000
0100
0010
0001
0010
0001
1000
0100
,
1000
0010
0100
0001
0010
0100
1000
0001
0100
0001
0010
0001
1000
0100
0010
0100
,
1000
0100
1000
0010
0100
0010
1000
0100
0010
0001
1000
0001
0010
0001
1000
0100
,
0010
0001
1000
0001
0100
0010
1000
0100
1000
0010
0100
0001
0010
0001
0010
0100
,
1000
0010
0100
0010
1000
0100
0010
0001
1000
0001
0100
0001
0010
0001
0010
0100
,
1000
0010
0100
0010
1000
0100
0010
0001
1000
0001
0100
0001
0010
0001
1000
0100
,
0010
0001
1000
0001
0100
0001
0010
0001
0010
0100
1000
0010
0100
0010
1000
0100
,
0010
0001
1000
0001
0100
0001
0100
0010
1000
0100
0010
0001
1000
0010
1000
0001
,
0010
0001
1000
0100
1000
0010
0100
0001
0010
0100
1000
0001
0010
0100
1000
0001
,
0100
0001
1000
0100
1000
0010
0100
0010
1000
0100
0010
0001
1000
0010
0100
0010
,
1000
0001
0010
0100
1000
0001
0100
0001
1000
0100
0010
0001
1000
0010
0100
0001
,
2000
0000
0000
3200
0000
0000
0000
0000
,
0320
0000
0000
0032
0000
0000
0000
0000
,
2003
0000
0000
3020
0000
0000
0000
0000
,
0230
0000
0000
0302
0000
0023
0000
0000
,
0230
0000
0000
2300
0000
0000
0000
0000
,
3002
0000
0000
0203
0000
0000
0000
0000
,
0320
0000
0000
2030
0000
0000
0000
0000
,
3200
0000
0000
0000
0000
0000
0000
0000
0000
0000
0320
0030
0020
0030
0020
0030
,
0002
0000
0000
2003
0000
0000
0000
0000
,
3002
0000
0000
0203
0000
0000
0000
0000
,
0320
0000
0000
2030
0000
0000
0000
0000
,
3200
0000
0000
0320
0000
0032
0000
0000
,
2003
0000
0000
3002
0000
0000
0000
0000
,
0203
0000
0000
0320
0000
0000
0000
0000
,
2030
0000
0000
3200
0000
0000
0000
0000
,
0320
0000
0000
0000
0000
0032
0203
0320
,
0000
0000
0000
0000
0000
0000
0000
0030
;
