#TITLE:Climactic Battle;
#SUBTITLE:Turtles in Time;
#ARTIST:Kazuhiko Uehara, Harumi Ueko;
#TITLETRANSLIT:;
#SUBTITLETRANSLIT:;
#ARTISTTRANSLIT:;
#CREDIT:;
#BANNER:turtle-banner.jpg;
#BACKGROUND:turtles-in-time-bg-copy.jpg;
#LYRICSPATH:;
#CDTITLE:tint.png;
#MUSIC:battle.mp3;
#OFFSET:-0.860;
#SAMPLESTART:37.349;
#SAMPLELENGTH:12.000;
#SELECTABLE:YES;
#BPMS:0.000=148.500;
#STOPS:;
#BGCHANGES:;
// cache tags:
#FIRSTBEAT:0.000;
#LASTBEAT:143.750;
#SONGFILENAME:Songs/Community Keyboard Megapack - Volume 3/(aarian69) Turtles in Time/battle.sm;
#HASMUSIC:1;
#HASBANNER:1;
#MUSICLENGTH:73.822;
// end cache tags

//---------------dance-single - Challenge----------------
#NOTES:
     dance-single:
     Challenge:
     Challenge:
     10:
     0.902,0.803,0.826,0.230,1.000,388.000,61.000,17.000,0.000,1.000:

0010
0010
0001
0000
1000
0000
0100
0010
0000
0010
0001
0000
0010
0000
0001
0000
,
1000
1000
0001
0000
0100
0000
0010
1000
0000
0010
1000
0000
0110
0000
1010
0000
,
0100
0100
0001
0000
1000
0000
0100
1000
0000
1000
0100
0000
0010
0000
0100
0000
,
1010
0001
0010
0000
0110
0000
0001
0110
0000
0000
0100
0001
0100
0001
0100
0000
,
1000
1000
0001
0000
0010
1000
0100
0000
0001
0010
0100
1000
0000
0010
0100
0010
,
1000
1000
0011
0000
0100
0000
0011
0100
0000
1000
0011
0000
0100
0000
1100
0000
,
1000
1000
0100
0000
0010
0001
0010
0000
0100
0100
0001
0001
0000
1000
0010
0100
,
1000
1000
0011
0000
0100
0000
0011
0100
0000
1000
0011
0000
0100
0000
1100
0000
,
0010
0010
0001
0000
0100
0100
0010
0000
1000
0100
0010
0002
0003
0010
0100
1000
,
0100
0100
0011
0000
1000
0000
0011
0100
0000
1000
0011
0000
0100
0000
1100
0000
,
1000
1000
0001
0000
1000
0100
0010
0000
0100
0010
0001
0001
0000
0010
0100
1000
,
1000
0100
1000
0100
0010
0100
0010
0100
1001
0000
0000
1001
0000
0000
1001
0000
,
0200
0000
0000
0000
0000
0000
0000
0000
0010
0001
0010
0001
0000
0010
0001
0010
,
0302
0000
0000
0000
0000
0000
0000
0000
1000
0100
1000
0010
0100
0100
1000
0100
,
0023
0000
0000
0000
0000
0000
0000
0000
1000
0001
1000
0200
0300
1000
0031
1000
,
0202
0000
0000
0000
0000
0000
0303
0000
0011
0100
1000
0100
0011
0100
1000
0100
,
0101
0000
0101
0101
0000
1000
0010
0100
0110
0000
0010
0001
0000
1010
1010
0100
,
1000
0000
1000
0100
0000
1000
0100
1000
0010
0001
0100
0001
0100
0010
1000
0100
,
0010
0010
0001
0000
1000
0000
0100
0010
0000
0010
0001
0000
0010
0000
0001
0000
,
1000
1000
0001
0000
0100
0000
0010
1000
0000
0010
1000
0000
0110
0000
1010
0000
,
0100
0100
0001
0000
1000
0000
0100
1000
0000
1000
0100
0000
0010
0000
0100
0000
,
1010
0001
0010
0000
0110
0000
0001
0110
0000
0000
0100
0001
0100
0001
0100
0000
,
1000
1000
0001
0000
0010
1000
0100
0000
0001
0010
0100
1000
0000
0010
0100
0010
,
1000
1000
0011
0000
0100
0000
0011
0100
0000
1000
0011
0000
0100
0000
1100
0000
,
1000
1000
0100
0000
0010
0001
0010
0000
0100
0100
0001
0001
0000
1000
0010
0100
,
1000
1000
0011
0000
0100
0000
0011
0100
0000
1000
0011
0000
0100
0000
1100
0000
,
0010
0010
0001
0000
0100
0100
0010
0000
1000
0100
0010
0002
0003
0010
0100
1000
,
0100
0100
0011
0000
1000
0000
0011
0100
0000
1000
0011
0000
0100
0000
1100
0000
,
1000
1000
0001
0000
1000
0100
0010
0000
0100
0010
0001
0001
0000
1000
0100
0010
,
1000
0100
1000
0100
0010
0100
0010
0100
1001
0000
0000
1001
0000
0000
1001
0000
,
0220
0000
0000
0000
0000
0000
0030
0000
0010
0001
0010
0001
0000
0010
0301
0010
,
2002
0000
0000
0000
0000
0000
3000
0000
1000
0100
1000
0010
0100
0100
1000
0100
,
2023
0000
0000
0000
0000
0000
3000
0000
1000
0001
1000
0200
0300
1000
0031
1000
,
0202
0000
0000
0000
0000
0000
0303
0000
1001
0100
0001
0100
1001
0010
0001
0010
,
0101
0000
0101
0101
0000
1000
0010
0100
0110
0000
0010
0001
0000
1010
1010
0100
,
1000
0000
1000
0100
0000
1000
0100
1000
0010
0001
0100
0001
0100
0010
1000
0010;
