#TITLE:Crazy Loop (Mm ma ma);
#SUBTITLE:;
#ARTIST:Some guy with weird shades (Crazy Loop);
#TITLETRANSLIT:;
#SUBTITLETRANSLIT:;
#ARTISTTRANSLIT:;
#CREDIT:;
#BANNER:crazyloop-bn.png;
#BACKGROUND:crazyloop.png;
#LYRICSPATH:;
#CDTITLE:!cdTitle.png;
#MUSIC:06.ogg;
#OFFSET:-0.333;
#SAMPLESTART:45.453;
#SAMPLELENGTH:12.000;
#SELECTABLE:YES;
#BPMS:0.000=133.000;
#STOPS:;
#BGCHANGES:;
// cache tags:
#FIRSTBEAT:20.000;
#LASTBEAT:464.500;
#SONGFILENAME:Songs/Index Tournament 1/Crazy Loop (Mm ma ma)/06.sm;
#HASMUSIC:1;
#HASBANNER:1;
#MUSICLENGTH:213.038;
// end cache tags

//---------------dance-single - ----------------
#NOTES:
     dance-single:
     :
     Challenge:
     11:
     0.770,0.899,0.188,0.183,0.770,1070.000,40.000,39.000,28.000,8.000:

0000
0000
0000
0000
,
0000
0000
0000
0000
,
0000
0000
0000
0000
,
0000
0000
0000
0000
,
0000
0000
0000
0000
,
0001
1000
0000
0001
0000
0100
0010
1000
,
0000
1000
0000
0001
0000
1000
0000
0100
,
0000
0000
0000
0010
0000
0001
0000
1000
,
0000
MM11
M11M
11MM
,
0001
0000
1000
0000
0001
0000
0100
0000
0010
0000
1000
0001
0100
0000
0010
0000
,
1000
0010
0100
0001
0001
0010
0001
0001
,
0100
0010
1000
0100
0010
0001
0100
0010
,
0100
0000
0001
0000
0010
0000
0100
0000
1000
0000
0001
0000
1000
0001
1000
0001
,
1000
0100
0010
0001
0001
0100
0100
0001
,
1000
0100
1000
0010
0000
1000
0000
0001
,
0000
0000
0000
0110
0000
0101
0000
1001
,
0000
0000
0000
0000
0001
0000
0010
0000
0100
0000
0000
0100
1000
0000
0001
0000
,
0100
0000
0000
0100
0000
0000
0001
0000
1000
0000
0100
0010
0000
0010
0001
0000
,
1000
0000
0001
1000
0001
0000
1000
0000
0001
0000
0000
0100
0000
0000
0010
0000
,
0100
0000
0000
0001
0000
0000
0001
0000
0100
0000
0100
0010
0000
0010
1000
0000
,
1010
0000
0010
1000
0001
0000
0100
0010
1000
0000
0100
0010
0001
0000
0010
0100
,
1000
0000
0010
0100
0001
0000
0100
0010
0100
0000
0001
0100
0001
0000
0100
0010
,
1000
0000
0010
0100
0001
0000
1000
0001
0100
0000
0010
1000
0010
0000
1000
0002
,
2000
0000
0000
0000
0010
3003
0000
0000
,
0011
0000
0000
0000
0101
0000
0100
0000
0010
0000
0010
1000
0000
1000
0001
0000
,
1000
0000
0001
0100
0010
0000
1000
0010
1000
0000
0010
0100
0001
0000
1000
0001
,
0100
0000
0000
0001
0001
0100
0100
0010
,
1010
0000
1000
0010
0100
0000
0010
0100
0001
0000
0100
0000
0010
0000
1000
0100
,
0010
0000
0001
0010
0100
0000
1000
0000
0100
0000
0010
0001
0100
0000
0010
1000
,
0100
0000
0010
0000
0001
0000
1000
0001
1000
0000
0001
0100
0010
0000
0100
0000
,
0010
0000
1000
0000
0001
0100
0010
1000
0010
0000
1000
0000
0001
0100
0000
0010
,
1000
0000
0100
0000
0010
0001
1000
0100
0010
0000
0001
0000
0100
0000
0010
1000
,
0001
0000
1000
0000
0001
0100
0010
1000
0001
0000
1000
0100
0010
0000
0001
0000
,
0100
0000
0001
0100
0010
0100
0010
0000
1000
0000
0001
0000
0100
0000
0010
1000
,
0001
0000
0001
0100
0010
1000
0001
0100
0010
0000
1000
0100
0010
0001
0100
0010
,
1000
0000
1000
0001
0000
0100
0010
0000
1000
0000
0001
0100
0010
1000
0001
0100
,
0010
0000
1000
0000
0001
0000
0100
0010
1000
0000
0100
0000
0010
0000
0001
0000
,
0200
0000
0000
0002
0000
0010
0000
1010
,
0303
0000
0000
0000
0000
0000
0101
0000
0000
0000
0000
0000
1010
0000
0000
0010
1000
0010
1000
0000
0000
0001
0000
0000
,
1000
0000
0001
0000
0100
0000
0010
1000
0001
0100
0001
0100
0010
0100
0001
0100
,
0010
1000
0100
0010
0001
1000
0001
0100
,
0001
0000
0100
0000
0010
0000
1000
0001
1000
0100
1000
0100
0010
0001
0100
0001
,
0100
0000
0001
0001
0100
0100
0000
1010
,
0000
0000
0010
0000
1000
0000
0001
1000
0001
0000
0100
0010
0000
1000
0100
0000
,
0000
0000
0000
0000
0010
0000
0001
0000
0100
0000
0010
0000
1000
0100
0010
0001
,
1000
0010
0100
0010
0000
1000
0010
0100
,
0010
0000
0000
0000
0000
0000
1010
0000
0000
0000
0000
0000
0101
0000
0000
0001
0100
0001
0100
0000
0000
0001
0000
0000
,
1000
0000
0100
0000
0010
0000
0001
1000
0001
1000
0010
1000
0010
0100
0001
0100
,
0001
1000
0001
0100
0010
0100
0001
1000
,
0100
0000
1000
0000
0001
0000
0100
0001
0100
0001
1000
0010
1000
0010
0100
0001
,
1000
0000
0011
0001
0110
0100
0000
1100
,
0000
0000
1000
0000
0001
0000
0100
0010
1000
0000
0010
0100
0000
0010
1000
0000
,
0000
0000
0000
0000
0001
0000
1000
0000
0001
0000
0100
0000
0010
0000
1000
0001
,
0100
0010
1000
0001
0000
1000
0000
0100
,
0000
M1M1
1M1M
11MM
,
1000
0010
1000
0001
0100
0010
1000
0001
0100
0001
1000
0010
1000
0001
1000
0001
,
0010
0001
0010
0100
0010
0100
1000
0001
1000
0001
1000
0010
1000
0010
0100
0001
,
0100
0010
0100
0001
1000
0010
1000
0010
0100
0001
0100
0001
1000
0001
1000
0010
,
0100
0001
0100
0001
1000
0010
0100
0001
1000
0010
0100
0001
1000
0000
0001
0000
,
1000
0100
0010
0001
1000
0010
0100
0001
1000
0010
0100
0001
1000
0010
1000
0001
,
1000
0010
1000
0010
0100
0001
1000
0010
0100
0001
1000
0010
1000
0001
1000
0002
,
2000
0000
0000
0010
3000
1000
0000
1000
,
0003
0000
0000
0000
1000
0000
0100
0000
0010
0000
0000
0010
0000
0000
0001
0000
,
1000
0000
0000
0001
0000
0000
1000
0000
0001
0000
0010
0100
0000
0100
1000
0000
,
0001
0000
1000
0001
1000
0000
0001
0000
1000
0000
0000
0010
0000
0000
0100
0000
,
0010
0000
0000
1000
0000
0000
1000
0000
0001
0000
1000
0001
0000
0001
0000
0100
,
0001
0000
0100
0001
2000
3000
0010
0100
0001
0000
0010
0100
2000
3000
0100
0010
,
0001
0000
0100
0010
2000
3000
0010
0100
0010
0000
1000
0010
2000
3000
0010
0100
,
0001
0000
0100
0010
2000
3000
0001
1000
0010
0000
0100
0001
0200
0300
0001
2000
,
0002
0000
0000
0000
0000
0000
0000
0000
0000
0000
0000
0003
0010
3000
0000
0000
,
1100
0000
0000
0000
1010
0000
0010
0000
0100
0000
0100
0001
0000
0001
1000
0000
,
0001
0000
1000
0010
0100
0000
0001
0100
0001
0000
0100
0010
1000
0000
0001
1000
,
0010
0000
0000
1000
1000
0010
0010
0100
,
0101
0000
0001
0100
0020
0030
0100
0010
1000
0000
0010
0000
2000
3000
0001
0010
,
0100
0000
1000
0100
0020
0030
0001
0000
0010
0000
0100
1000
0020
0030
0100
0001
,
0010
0000
0100
0000
2000
3000
0001
1000
0001
0000
1000
0010
0200
0300
0010
0000
,
0100
0000
0001
0000
2000
3010
0100
0001
0100
0000
0001
0000
2000
3010
0000
0100
,
0001
0000
0010
0000
0200
1300
0001
0010
0100
0000
1000
0000
0020
0030
0100
0001
,
1000
0000
0001
0000
2000
3010
0100
0001
1000
0000
0001
0010
0200
0300
1000
0000
,
0010
0000
1000
0010
0200
0310
0100
0000
0001
0000
1000
0000
0020
0030
0100
0001
,
1000
0000
1000
0010
0200
0301
1000
0010
0100
0000
0001
0010
0200
1300
0010
0100
,
0001
0000
0001
1000
0000
0010
0100
0000
0001
0000
1000
0010
0200
0301
1000
0010
,
0100
0000
0001
0000
2000
3000
0010
0100
0001
0000
0010
0000
0200
0300
1000
0000
,
0200
0000
0000
2000
0000
0001
0000
0011
,
3300
0000
0000
0000
0000
0000
1010
0000
0000
0000
0000
0000
0101
0000
0000
0100
0001
0100
0001
0000
0000
1000
0000
0000
,
0001
0000
1000
0000
0010
0000
0100
0001
1000
0010
1000
0010
0100
0010
1000
0010
,
0100
0001
0010
0100
1000
0001
1000
0010
,
1000
0000
0010
0000
0100
0000
0001
1000
0001
0010
0001
0010
0100
1000
0010
1000
,
0010
0000
1000
1000
0010
0010
0000
0101
,
0000
0000
0100
0000
0001
0000
1000
0001
1000
0000
0010
0100
0000
0001
0010
0000
,
0000
0000
0000
0000
0100
0000
1000
0000
0010
0000
0100
0000
0001
0010
0100
1000
,
0001
0100
0010
0100
0000
0001
0100
0010
,
0100
0000
0000
0000
0000
0000
0101
0000
0000
0000
0000
0000
1010
0000
0000
1000
0010
1000
0010
0000
0000
1000
0000
0000
,
0001
0000
0010
0000
0100
0000
1000
0001
1000
0001
0100
0001
0100
0010
1000
0010
,
1000
0001
1000
0010
0100
0010
1000
0001
,
0010
0000
0001
0000
1000
0000
0010
1000
0010
1000
0001
0100
0001
0100
0010
1000
,
0001
0000
1100
1000
0110
0010
0000
0011
,
0000
0000
0001
0000
1000
0000
0010
0100
0001
0000
0100
0010
0000
0100
0001
0000
,
0000
0000
0000
0000
1000
0000
0001
0000
1000
0000
0010
0000
0100
0000
0001
1000
,
0010
0100
0001
1000
0000
0001
0000
0010
,
0000
M1M1
1M1M
11MM
,
0001
0100
0001
1000
0010
0100
0001
1000
0010
1000
0001
0100
0001
1000
0001
1000
,
0100
1000
0100
0010
0100
0010
0001
1000
0001
1000
0001
0100
0001
0100
0010
1000
,
0010
0100
0010
1000
0001
0100
0001
0100
0010
1000
0010
1000
0001
1000
0001
0100
,
0010
1000
0010
1000
0001
0100
0010
1000
0001
0100
0010
1000
0001
0000
1000
0000
,
0001
0010
0100
1000
0001
0100
0010
1000
0001
0100
0010
1000
0001
0100
0001
1000
,
0001
0100
0001
0100
0010
1000
0001
0100
0010
1000
0001
0100
0001
1000
0001
0200
,
0002
0000
0000
0010
0003
0001
0000
0001
,
0300
MM11
M1M1
11MM
,
0001
1000
0100
0010
0001
1000
0100
0010
0001
0010
0100
1000
0100
0010
0100
0010
,
0001
1000
0001
1000
0001
0100
0010
1000
0001
0100
0001
1000
0100
1000
0001
0010
,
0001
1000
0001
0010
0100
1000
0100
1000
0001
0010
0001
0010
0100
0010
0100
1000
,
0001
0010
0001
0010
0100
1000
0001
0010
0100
1000
0001
0010
0100
0000
1000
0000
,
0001
0100
0001
0010
0100
1000
0001
0010
0100
1000
0001
0010
0100
1000
0100
0010
,
0100
1000
0100
1000
0001
0010
0100
1000
0001
0010
0100
1000
0100
0010
0100
2000
,
0200
0000
0000
0000
0000
0000
0001
0000
0000
0300
0100
0000
0000
0000
0100
0000
,
3000
MMMM
0000
0000
0000
0000
0000
0000
;
