#TITLE:Turn Up The Bass;
#SUBTITLE:C-Mod = Ok;
#ARTIST:Bounce;
#TITLETRANSLIT:;
#SUBTITLETRANSLIT:;
#ARTISTTRANSLIT:;
#CREDIT:;
#BANNER:../fallback-bn.png;
#BACKGROUND:../fallback-bg.png;
#LYRICSPATH:;
#CDTITLE:!A2Pcdtitle.png;
#MUSIC:46-bounce - turn up the bass (short_edit).ogg;
#OFFSET:-0.055;
#SAMPLESTART:41.103;
#SAMPLELENGTH:12.000;
#SELECTABLE:YES;
#BPMS:0.000=146.000,68.000=73.000,84.000=36.500,90.000=146.000,95.000=583.997,107.000=73.000,139.000=146.000;
#STOPS:175.000=0.311
,175.250=0.311
,175.500=0.311
,175.750=0.145
,175.875=0.145
;
#BGCHANGES:;
// cache tags:
#FIRSTBEAT:4.000;
#LASTBEAT:367.563;
#SONGFILENAME:Songs/SSSC PACK/[A2P] - Turn up the Bass/turnupthebass.sm;
#HASMUSIC:1;
#HASBANNER:1;
#MUSICLENGTH:105.000;
// end cache tags

//---------------dance-single - ----------------
#NOTES:
     dance-single:
     :
     Challenge:
     13:
     1.000,1.000,1.000,0.276,1.000,1007.000,163.000,29.000,40.000,1.000:

0000
0000
0000
0000
,
1000
0000
0000
0001
0000
0000
0000
0000
0000
0001
0000
0000
1000
0000
0100
0000
0010
0000
0001
0000
0010
0000
0100
0000
1000
0000
0000
0100
0000
0000
0000
0000
0000
0000
0000
0000
0000
0000
0000
0000
0000
0000
0001
0000
0000
1000
0000
0000
,
0000
1000
0010
0000
0010
0000
0000
0000
0000
0000
1MM1
0000
0000
0000
0000
0000
,
1000
0100
0000
0100
0010
0000
0110
0000
0100
1000
0000
1000
0001
1000
0001
1000
,
0001
0000
0010
0000
0100
0000
1000
0000
0100
0000
0010
0000
0001
0000
1000
0000
0001
0000
0100
0000
0001
0000
1000
0000
0010
0000
0000
0100
0000
0000
0000
0000
0000
0001
0000
0000
1001
0000
0000
1000
0000
0000
0001
0000
0000
1000
0000
0000
,
0001
0000
0000
1000
0000
0000
0000
0000
0000
1000
0000
0000
0001
0000
0010
0000
0100
0000
1000
0000
0100
0000
0010
0000
0001
0000
0000
0010
0000
0000
0000
0000
0000
0010
0000
0000
0100
0000
0000
0000
0000
0000
0000
0000
0000
0000
0000
0000
,
1000
0001
1000
0001
1000
0000
0000
0000
0000
0000
1MM1
0000
0000
0000
0000
0000
,
0001
0010
0000
0010
0100
0000
0110
0000
0010
0001
0000
0001
1000
0001
1000
0001
,
1000
0000
MMMM
MMMM
MMMM
MMMM
MMMM
0000
,
1001
0000
0000
0000
0000
0000
1000
0100
0010
0001
0010
0100
1000
0000
0000
0000
0000
0000
1001
0000
0000
0000
0000
0000
,
0001
0000
0000
1000
0000
0000
0100
0000
0000
0020
0000
0000
0000
0000
0000
0031
0000
0000
0001
0010
0100
1000
0100
0010
,
0001
0000
0000
0000
0100
0000
0100
0000
1001
0000
0000
0000
1000
0100
0010
0001
,
4000
0000
0000
0000
3000
0000
1000
0010
1000
0001
1000
0010
1000
0000
0000
0001
0000
0000
0202
0000
0000
0303
0000
0000
,
1001
0000
0000
0000
0000
0000
0001
0010
0100
0010
0001
1000
0001
0000
0000
0000
0000
0000
0001
0000
0000
1000
0000
0000
,
0010
0000
0000
1000
0000
0000
0100
0000
0000
2000
0000
0000
0000
0000
0000
3001
0000
0000
1000
0100
0010
0100
1000
0001
,
1000
0000
0000
0000
0100
0000
0100
0000
1000
0000
0000
0000
0001
0010
0100
1000
,
0040
0000
0000
0000
0000
0000
0000
0000
0000
0030
0000
0000
0010
0000
0100
0000
0010
0000
1000
0000
0010
0000
0100
0000
0010
0000
0000
0000
0000
0000
0100
0000
0000
0000
0000
0000
0101
0000
0000
0000
0000
0000
0101
0000
0000
0000
0000
0000
,
1001
0000
0000
0000
0000
0000
1000
0100
0010
0001
0010
0100
1000
0000
0000
0000
0000
0000
1001
0000
0000
0010
0000
0000
1001
0000
0000
0000
0000
0000
0100
0000
0000
0020
0000
0000
0000
0000
0000
1030
0000
0000
1000
0100
1000
0001
1000
0010
,
1000
0000
0000
0000
0000
0000
0000
0000
0000
0000
0000
0000
0000
0000
0000
0000
0000
0000
0000
0000
0000
0000
0000
0000
0100
0000
0000
0000
0000
0000
0000
0000
0000
0000
0000
0000
0100
0000
0000
0000
0000
0000
0000
0000
0000
0000
0000
0000
1001
0000
0000
0000
0000
0000
0000
0000
0000
0000
0000
0000
0000
0000
0000
0000
0000
0000
0000
0000
0000
0000
0000
0000
0001
0000
0000
0000
0000
0000
0100
0000
0000
0000
0000
0000
0010
0000
0000
0000
0000
0000
0100
0000
0000
0000
0000
0000
0004
0000
0000
0000
0000
0000
0000
0000
0000
0000
0000
0000
0003
0000
0000
0000
0000
0000
0000
0000
0000
0000
0000
0000
0001
0000
0000
0000
0100
0000
0000
0000
0010
0000
0000
0000
1000
0000
0000
0000
0010
0000
0000
0000
0100
0000
0000
0000
0010
0000
0000
0000
0000
0000
0000
0000
0000
0000
0000
0000
1000
0000
0000
0000
0000
0000
0000
0000
0000
0000
0000
0000
2200
0000
0000
0000
0000
0000
0000
0000
0000
0000
0000
0000
3300
0000
0000
0000
0000
0000
0000
0000
0000
0000
0000
0000
,
1001
0000
0000
0000
0000
0000
0001
0010
0100
0010
0001
1000
0010
0000
0000
0000
0000
0000
0110
0000
0000
0000
0000
0000
0110
0000
0000
0000
0000
0000
1100
0000
0000
0002
0000
0000
0000
0000
0000
1003
0000
0000
1000
0100
0010
0100
0010
0001
,
1000
0000
0000
0000
0000
0000
0000
0000
0000
0000
0000
0000
0000
0000
0000
0000
0000
0000
0000
0000
0000
0000
0000
0000
0001
0000
0000
0000
0000
0000
0000
0000
0000
0000
0000
0000
0001
0000
0000
0000
0000
0000
0000
0000
0000
0000
0000
0000
0001
0000
0000
0000
0000
0000
0000
0000
0000
0000
0000
0000
0000
0000
0000
0000
0000
0000
0000
0000
0000
0000
0000
0000
0001
0000
0000
0000
0000
0000
0010
0000
0000
0000
0000
0000
0100
0000
0000
0000
0000
0000
1000
0000
0000
0000
0000
0000
0400
0000
0000
0000
0000
0000
0000
0000
0000
0000
0000
0000
0000
0000
0000
0000
0000
0000
0300
0000
0000
0000
0000
0000
0100
0000
0000
0000
0010
0000
0000
0000
0001
0000
0000
0000
0010
0000
0000
0000
0100
0000
0000
0000
1000
0000
0000
0000
0001
0000
0000
0000
0000
0000
0000
0000
0000
0000
0000
0000
0000
0000
0000
0000
0000
0000
0000
0000
0000
0000
0000
0000
0110
0000
0000
0000
0000
0000
0000
0000
0000
0000
0000
0000
0110
0000
0000
0000
0000
0000
0000
0000
0000
0000
0000
0000
,
2002
0000
0000
0000
,
0000
0MM0
0MM0
0MM0
,
0MM0
0000
0000
0000
0000
0000
0000
0000
0000
0000
0000
0000
0000
0000
0000
0000
0MM0
0000
0000
0000
0000
0000
0000
0000
0000
0000
0000
0000
0000
0000
0000
0000
0MM0
0000
0000
0000
0000
0000
0000
0000
0000
0000
0000
0000
0000
0000
0000
3003
4004
0000
0000
0000
0000
0000
0000
0000
0000
0000
0000
0000
0000
0000
0000
0000
,
0000
0000
0000
0000
,
0000
0000
0000
0000
,
0000
0000
0000
0000
0000
0000
0000
0000
0000
0000
0000
3003
0000
0000
0000
0000
,
0020
0000
0000
0000
0230
0000
0000
0000
0302
0000
0000
0003
0002
0000
0000
0000
,
0023
0000
0000
0000
0000
0000
0000
0000
0230
0000
0000
0000
0000
0000
0000
0000
2300
0000
0000
0000
0000
0000
3000
0000
1000
0100
0000
1000
0001
0000
0000
0000
,
1000
0100
0000
1000
0001
0000
0000
0000
1000
0100
0000
1000
0001
0000
0000
0000
1000
0100
0000
1000
0001
0000
0000
0000
1000
0100
0000
1000
0001
0000
0000
0000
,
0001
0000
0100
0000
0000
0000
0001
0000
1000
0000
0000
0000
0000
0000
0000
0000
0001
0000
0100
0000
0000
0000
0001
0000
1000
0000
0000
0000
0000
0000
0000
0000
0001
0000
0100
0000
0000
0000
0001
0000
1000
0000
0000
0000
0000
0000
0000
0000
2222
3333
0000
0000
0000
0000
0000
0000
0000
0000
0000
0000
0000
0000
0000
0000
,
0000
0000
0001
1000
0100
0000
0100
1000
0001
1000
0010
0100
0001
0000
1000
0100
,
0001
0000
0100
1000
0010
0000
1000
0001
0010
0100
1000
0100
1000
0000
0001
0100
,
0001
0000
1000
0001
1000
0000
0100
0010
0001
1000
0010
0001
0010
0000
1000
0100
,
1000
0000
1000
0100
0010
0000
0001
0010
0100
1000
0100
0000
1000
0100
0010
0001
,
1000
0000
0100
0000
0010
0000
0100
0000
1000
0000
0100
0000
0010
0000
0000
0001
0000
0000
0100
0000
0000
0010
0000
0000
0100
0000
0000
0001
0000
0000
0010
0000
0000
0100
0000
0000
1000
0000
0000
0100
0000
0000
0010
0000
0000
0001
0000
0000
,
1000
0000
0000
0001
0000
0000
1000
0000
0000
0010
0000
0000
0100
0000
0000
0010
0000
0000
1000
0000
0000
0100
0000
0000
0010
0000
0001
0000
0010
0000
0100
0000
1000
0000
0100
0000
1000
0000
0000
0100
0000
0000
1000
0000
0000
0010
0000
0000
,
0100
0000
0000
0010
0000
0000
1000
0000
0000
0001
0000
0000
0010
0000
0000
0100
0000
0000
0010
0000
0000
0001
0000
0000
1000
0000
0000
0100
0000
0000
0010
0000
0000
0001
0000
0000
0100
0000
0010
0000
1000
0000
0010
0000
0100
0000
0001
0000
,
1000
0000
0001
0000
0010
0000
0100
0000
1000
0000
0100
0000
0010
0000
0000
0001
0000
0000
1000
0000
0000
0001
0000
0000
0100
0000
0000
0001
0000
0000
0100
0000
0000
0001
0000
0000
1000
0000
0000
0100
0000
0000
0010
0000
0000
0100
0000
0000
,
1000
0000
0001
0000
1000
0000
0001
0000
1000
0000
0001
0000
0100
0000
0000
0001
0000
0000
1000
0000
0000
0001
0000
0000
0100
0000
0000
0001
0000
0000
0100
0000
0000
0001
0000
0000
0010
0000
0000
0100
0000
0000
1000
0000
0000
0100
0000
0000
,
0010
0000
0000
0001
0000
0000
1000
0000
0000
0010
0000
0000
0100
0000
0000
0010
0000
0000
1000
0000
0000
0001
0000
0000
1000
0000
0100
0000
1000
0000
0001
0000
0100
0000
0001
0000
1000
0000
0000
0010
0000
0000
0100
0000
0000
0010
0000
0000
,
1000
0000
0000
0001
0000
0000
0010
0000
0000
0001
0000
0000
0100
0000
0000
0001
0000
0000
0010
0000
0000
0100
0000
0000
1000
0000
0000
0100
0000
0000
1000
0000
0000
0100
0000
0000
1000
0000
0100
0000
0010
0000
0001
0000
0010
0000
0100
0000
,
1000
0001
1000
0100
0010
0001
0010
0100
1000
0001
1000
0100
0010
0001
0010
0100
1000
0001
1000
0000
0000
0000
0000
0000
,
MMMM
0000
0000
0000
0000
0000
0000
0000
0000
0000
0000
0000
0000
0000
0000
0000
0000
0000
0000
0000
0000
0000
0000
0000
1100
0000
1001
0000
0101
0000
0110
0110
,
1100
1000
1001
1100
1010
0010
0110
0110
,
0101
0000
0001
0000
0011
0000
0101
0000
1001
0000
1000
0010
1010
0000
1001
0000
,
0101
0001
0101
1100
1001
1000
1100
0110
,
0011
0000
0010
0100
0110
0000
0100
1000
1001
0000
0011
0000
1000
0001
1000
0001
,
0110
0010
1010
0101
0110
0100
0101
0110
,
1010
0000
1000
0000
1001
0000
1010
0000
1001
0000
0100
1000
1100
0000
0110
0000
,
1001
1000
1001
1100
1001
0001
1001
0011
,
0110
0000
0010
0100
1100
0000
1000
0100
0110
0000
0011
0000
1000
0001
1000
0001
,
1001
0011
1000
0011
1000
0101
1000
0101
,
0001
1100
0001
1100
0001
1010
0001
1010
,
1000
0011
1000
0011
1000
0101
1000
0101
,
0001
0000
1100
1000
0001
0000
1100
1000
0001
0000
1100
0000
0001
1000
0100
1000
,
1001
1010
0001
1010
0001
1100
0001
1100
,
1000
0101
1000
0101
1000
0011
1000
0011
,
0001
1010
0001
1010
0001
1010
0001
1010
,
1000
0000
0011
0001
1000
0000
0011
0001
1000
0000
0011
0000
1000
0001
1000
0001
,
1000
0100
0000
0100
0010
0000
0110
0000
0010
0001
0000
0001
1000
0000
1001
0000
,
1000
0001
0000
0100
0001
0000
1001
0000
0001
0010
0100
1000
0001
0000
1001
0000
,
0001
0100
0000
0100
0010
0000
0110
0000
0010
1000
0000
1000
0001
0000
1001
0000
,
1000
0010
0000
1000
0100
0000
0110
0010
0001
0000
1001
0000
0001
0010
0001
0010
,
1100
0000
1100
0000
0100
0000
1001
0000
0001
0100
0000
0100
0010
0000
0110
0000
,
0010
1000
0000
0001
0010
0000
0110
0000
1000
0001
0000
0001
1000
0000
1001
0000
,
1100
0100
1100
0101
1100
0001
0101
1100
,
1001
0000
1000
0100
0110
0000
0001
0010
0110
0000
0110
0000
1000
0001
1000
0001
,
1001
1000
0100
0010
0100
1000
0010
0100
0001
0100
0010
1000
0100
1000
0010
0100
,
0001
0010
0001
0010
0100
1000
0100
1000
0010
1000
0001
1000
0100
0010
0001
0010
,
0100
0010
0001
1000
0001
0100
0010
1000
0010
0100
0001
0010
0001
1000
0001
1000
,
0001
1000
0010
1000
0100
0010
0001
0010
0100
1000
0100
0010
0100
1000
0010
0100
,
0001
0100
0010
0100
0001
0010
0100
1000
0100
1000
0001
1000
0010
1000
0100
1000
,
0010
0100
0001
0100
0010
0100
0001
0010
0001
1000
0001
1000
0010
1000
0100
1000
,
0001
0010
0100
1000
0001
0100
0010
1000
0010
0100
0001
0010
0100
1000
0100
0010
,
0001
0010
0001
0010
0001
0010
0100
1000
0100
1000
0100
1000
0001
1000
0001
0010
0100
0010
0001
1000
0001
0010
0100
0010
,
0001
0101
1001
1100
,
0110
0000
0000
0000
0011
0000
0000
0000
1001
0000
0000
0100
1100
0000
1100
0000
,
1001
0110
0011
1100
,
0110
0000
0000
0001
0011
0000
0000
0001
1001
0000
1001
0000
1000
0100
0010
0001
,
0011
0000
2002
3003
1100
0000
2002
3003
,
0110
0000
0000
0000
2002
0000
3003
0000
1100
0000
0210
0310
0001
0000
1001
0000
,
1000
0100
0010
0001
1000
0010
0100
0001
1000
0001
1000
0001
0010
0001
0010
0001
,
0010
0100
0010
0100
1000
0001
0010
0001
0010
0100
1000
0010
0100
0010
1000
0001
,
1001
1000
0100
0010
0100
1000
0010
1000
0001
0010
0100
1000
0001
0100
0010
0100
,
0010
1000
0100
0010
0001
1000
0010
1000
0100
0010
0001
1000
0001
0010
0100
1000
,
0100
0010
0001
1000
0001
1000
0001
0010
0100
1000
0100
0010
0001
1000
0001
1000
,
0010
1000
0100
0010
0001
0100
0010
0100
1000
0100
0010
0100
0001
0010
0100
1000
,
0100
0010
0001
0010
0100
1000
0001
1000
0001
1000
0010
1000
0100
0010
0001
0010
,
0100
0000
0010
0000
0001
0000
0010
0000
0100
0000
1000
0000
0100
0000
0010
0000
0001
0000
0010
0000
0100
0000
1000
0000
0004
0000
4000
0000
0000
0000
0000
0000
0000
0000
0000
0000
0000
0000
0000
0000
0000
0000
0000
0000
0000
0003
3000
0000
,
0001
0000
0101
1001
1010
0000
1100
0110
,
0001
0000
0000
0000
0000
0000
0000
0000
0000
0000
0000
0000
0000
0000
0000
0000
0001
0000
0000
0000
0000
0000
0000
0000
0100
0000
0000
0000
0000
0000
0000
0000
0010
0000
0000
0000
0000
0000
0000
0000
0100
0000
0000
0000
0000
0000
0000
0000
0001
0000
0000
0000
0000
0000
0000
0000
0200
0300
0000
0000
0000
0000
0000
0000
;
