#TITLE:Super Mario;
#SUBTITLE:Euro Mix;
#ARTIST:Zino M'J;
#TITLETRANSLIT:;
#SUBTITLETRANSLIT:;
#ARTISTTRANSLIT:;
#CREDIT:;
#BANNER:Super Mario [Euro Mix].png;
#BACKGROUND:Super Mario [Euro Mix]-BG.png;
#LYRICSPATH:;
#CDTITLE:kyka.png;
#MUSIC:Super Mario [Euro Mix].mp3;
#OFFSET:-1.360;
#SAMPLESTART:33.807;
#SAMPLELENGTH:18.360;
#SELECTABLE:YES;
#BPMS:0.000=182.000;
#STOPS:;
#BGCHANGES:;
// cache tags:
#FIRSTBEAT:0.000;
#LASTBEAT:219.063;
#SONGFILENAME:Songs/newbie/Super Mario [Euro Mix]/Super Mario [Euro Mix].sm;
#HASMUSIC:1;
#HASBANNER:1;
#MUSICLENGTH:74.692;
// end cache tags

//---------------dance-single - ----------------
#NOTES:
     dance-single:
     :
     Challenge:
     12:
     1.000,1.000,1.000,0.134,0.857,464.000,160.000,10.000,0.000,0.000:
1001
0100
0010
0000
1000
0100
0010
0000
0101
0010
1000
0000
0100
0010
0001
0000
,
1001
0100
0010
0000
0100
0001
0100
0000
1010
0100
0001
0000
0100
0010
0001
0000
,
1010
0100
0001
0000
0101
0010
1000
0000
1001
0100
0010
0000
1001
0100
0010
0000
,
1000
0010
0000
0101
0000
0010
1001
0000
0110
0000
0000
0000
1001
0000
0000
0000
,
1000
0100
1000
0100
0000
0010
0001
0000
0100
0010
0100
0010
0100
0001
0100
0001
,
1000
0010
1000
0000
0001
0100
0001
0000
1000
0100
0010
0001
1000
0010
0100
0001
,
1000
0100
0010
0001
1000
0100
0010
0001
0100
0010
0100
0010
1000
0001
1000
0001
,
1000
0010
0100
0001
1000
0001
1000
0001
1001
0000
1001
0000
1001
0000
1001
0000
,
0001
1000
0001
1000
0000
0100
0010
0000
1000
0100
1000
0100
1000
0010
1000
0010
,
0001
0100
0001
0000
0010
1000
0010
0000
0001
1000
0100
0010
0001
0100
1000
0010
,
0001
1000
0100
0010
0001
1000
0100
0010
1000
0100
1000
0100
0001
0010
0001
0010
,
0001
0100
0000
0010
0000
0010
0001
0010
0001
0000
0010
0000
0011
0000
0000
0000
,
1001
1100
0110
0101
0110
1001
0110
1001
,
1100
0110
0101
0110
0000
1001
1100
0110
,
0101
0110
1001
0110
1001
1100
0110
0101
,
0110
1001
0110
1100
0000
0110
0101
0000
,
1001
1100
0110
1001
1100
0110
0101
1001
,
0110
1001
1100
0110
0000
0101
1001
0110
,
2010
0010
0010
3010
0201
0001
0001
0301
,
0120
0100
0100
0130
1002
1000
1000
1003
,
0201
0001
0001
0301
0102
0100
0100
0103
,
2002
0000
0000
0000
0000
0000
0000
3003
,
1001
0000
1100
0000
,
0101
0110
1001
0000
0000
0000
0000
0000
,
1000
0100
0010
0001
1001
0000
0000
0000
0000
0000
0000
0000
0000
0000
0000
0000
,
1100
0101
0110
1001
,
1001
1100
1001
1001
,
1100
1100
0110
0110
0101
0101
0110
0110
,
1000
0100
0010
0001
0010
0000
0000
0000
0010
0001
0010
0100
1000
0000
0000
0000
,
1000
0100
0010
0001
0010
0100
1000
0000
0000
1001
0000
0000
,
1001
1000
1000
1001
0001
0001
0110
0010
,
1100
0110
0000
0101
0110
0000
0000
0000
,
0010
1100
0000
0110
0000
0101
0000
0110
,
1100
0110
0000
0101
0110
0000
0000
0000
,
1001
0001
0001
1001
1000
1000
0110
0100
,
0011
0110
0000
1010
0110
0000
0000
0000
,
0100
0011
0000
0110
0000
1010
0000
0110
,
0011
0110
0000
1010
0110
0000
0000
0000
,
0101
0001
0001
0101
0100
0100
1010
1000
,
0011
1010
0000
0110
1010
0000
0000
0000
,
1000
0011
0000
1010
0000
0110
0000
1010
,
0011
1010
0000
0110
1010
0000
0000
0000
,
0101
0100
0100
0101
0001
0001
1010
0010
,
1100
1010
0000
1001
1010
0000
0000
0000
,
0010
1100
0000
1010
0000
1001
0000
1010
,
1100
1010
0000
1001
1010
0000
0000
0000
,
0100
0010
0000
1001
0000
0010
0101
0000
1010
0000
0000
0000
0101
0000
0000
0000
,
0100
1000
0100
1000
0000
0010
0001
0000
1000
0010
1000
0010
1000
0001
1000
0001
,
0100
0010
0100
0000
0001
1000
0001
0000
0100
1000
0010
0001
0100
0010
1000
0001
,
0100
1000
0010
0001
0100
1000
0010
0001
1000
0010
1000
0010
0100
0001
0100
0001
,
0100
0010
1000
0001
0100
0001
0100
0001
0101
0000
0101
0000
0101
0000
0101
0000
,
0001
0100
0001
0100
0000
1000
0010
0000
0100
1000
0100
1000
0100
0010
0100
0010
,
0001
1000
0001
0000
0010
0100
0010
0000
0001
0100
1000
0010
0001
1000
0100
0010
,
0001
0100
0010
0001
1000
0100
0010
0001
0100
0001
1000
0001
0100
0010
1000
0001
,
0100
0000
0000
0000
0000
0000
0000
0000
0000
0000
0000
0000
0000
0000
0000
0000
0001
0000
0000
0000
0000
0000
0000
0000
0000
0000
0000
0000
0000
0000
0000
0000
0100
0000
0000
0000
0000
0000
0000
0000
0000
0000
0000
0000
0000
0000
0000
0000
0010
0000
0000
0000
0000
0000
0000
0000
0000
0000
0000
0000
0000
0000
0000
0000
1000
0000
0000
0000
0000
0000
0000
0000
0000
0000
0000
0000
0000
0000
0000
0000
0010
0000
0000
0000
0000
0000
0000
0000
0000
0000
0000
0000
0000
0000
0000
0000
0001
0000
0000
0000
0000
0000
0000
0000
0000
0000
0000
0000
0000
0000
0000
0000
0000
0000
0000
0000
0000
0000
0000
0000
0000
0000
0000
0000
0000
0000
0000
0000
0000
0000
0000
0000
0000
0000
0000
0000
0000
0000
0000
0000
0000
0000
0000
0000
0202
0000
0000
0303
0000
0000
0000
0000
0000
0000
0000
0000
0000
0000
0000
0000
0000
0000
0000
0000
0000
0000
0000
0000
0000
0000
0000
0000
0000
0000
0000
0000
0000
0000
0000
0000
0000
0000
0000
0000
0000
0000
0000
0000
0000
0000
0000
0000
;
