#TITLE:Catastrophe;
#SUBTITLE:;
#ARTIST:FALCHiON;
#TITLETRANSLIT:;
#SUBTITLETRANSLIT:;
#ARTISTTRANSLIT:;
#CREDIT:owenviau1;
#BANNER:../BN.png;
#BACKGROUND:../BG.PNG;
#LYRICSPATH:;
#CDTITLE:../CDTitleOV1.png;
#MUSIC:FALCHiON - Catastrophe.ogg;
#OFFSET:-0.508;
#SAMPLESTART:81.343;
#SAMPLELENGTH:24.742;
#SELECTABLE:YES;
#DISPLAYBPM:145.500:291.000;
#BPMS:0.000=72.758,1.000=72.756,2.000=72.754,3.000=72.752,4.000=72.750,7.000=72.748,8.000=72.750,9.000=72.752,10.000=72.750,11.000=72.752,12.000=72.750,14.000=72.748,15.000=72.750,16.000=218.263,17.000=218.245,19.000=218.263,20.000=218.245,22.000=218.263,24.000=218.245,26.000=218.263,27.000=218.245,29.000=218.263,31.000=218.245,33.000=218.263,34.000=218.245,36.000=218.263,37.000=218.245,39.000=218.263,41.000=218.245,43.000=218.263,44.000=218.245,46.000=218.263,48.000=218.245,50.000=218.263,51.000=218.245,54.000=218.263,55.000=218.245,57.000=218.263,58.000=218.245,61.000=218.263,62.000=218.245,64.000=218.263,65.000=218.245,68.000=218.263,69.000=218.245,71.000=218.263,72.000=218.245,75.000=218.263,76.000=218.245,78.000=218.263,79.000=218.245,82.000=218.263,83.000=218.245,85.000=218.263,86.000=218.245,88.000=145.505,89.000=145.497,90.000=145.505,91.000=145.497,92.000=145.505,93.000=145.497,94.000=145.505,95.000=145.513,96.000=145.497,97.000=145.505,98.000=145.497,99.000=145.505,100.000=145.497,101.000=145.505,102.000=145.513,103.000=145.497,104.000=145.505,105.000=145.497,106.000=145.505,107.000=145.497,108.000=291.025,109.000=290.993,112.000=291.025,113.000=290.993,117.000=291.025,118.000=290.993,122.000=291.025,123.000=290.993,126.000=291.025,127.000=290.993,131.000=291.025,132.000=290.993,136.000=291.025,137.000=290.993,140.000=291.025,141.000=290.993,145.000=291.025,146.000=290.993,150.000=291.025,151.000=290.993,154.000=291.025,155.000=290.993,159.000=291.025,160.000=290.993,164.000=291.025,165.000=290.993,168.000=291.025,169.000=290.993,173.000=291.025,174.000=290.993,178.000=291.025,179.000=290.993,182.000=291.025,183.000=290.993,187.000=291.025,188.000=290.993,192.000=291.025,193.000=290.993,196.000=291.025,197.000=290.993,201.000=291.025,202.000=290.993,205.000=291.025,206.000=290.993,210.000=291.025,211.000=290.993,214.000=291.025,215.000=290.993,219.000=291.025,220.000=290.993,224.000=291.025,225.000=290.993,228.000=291.025,229.000=290.993,233.000=291.025,234.000=290.993,235.000=291.025,236.000=145.505,237.000=145.497,238.000=145.505,239.000=145.497,240.000=145.505,241.000=145.497,243.000=145.505,244.000=145.497,245.000=145.505,246.000=145.497,247.000=145.505,248.000=145.497,250.000=145.505,251.000=145.497,252.000=145.505,253.000=145.497,254.000=145.505,255.000=145.497,257.000=145.505,258.000=145.497,259.000=145.505,260.000=145.497,261.000=145.505,262.000=145.497,264.000=145.505,265.000=145.497,266.000=145.505,267.000=145.497,268.000=291.025,269.000=290.993,273.000=291.025,274.000=290.993,277.000=291.025,278.000=290.993,282.000=291.025,283.000=290.993,287.000=291.025,288.000=290.993,291.000=291.025,292.000=290.993,296.000=291.025,297.000=290.993,300.000=291.025,301.000=290.993,305.000=291.025,306.000=290.993,310.000=291.025,311.000=290.993,314.000=291.025,315.000=290.993,319.000=291.025,320.000=290.993,324.000=291.025,325.000=290.993,328.000=291.025,329.000=290.993,333.000=291.025,334.000=290.993,338.000=291.025,339.000=290.993,343.000=291.025,344.000=290.993,347.000=291.025,348.000=290.993,352.000=291.025,353.000=290.993,357.000=291.025,358.000=290.993,360.000=145.505,361.000=145.497,362.000=290.993,364.000=291.025,365.000=290.993,368.000=291.025,369.000=290.993,373.000=291.025,374.000=290.993,378.000=291.025,379.000=290.993,382.000=291.025,383.000=290.993,386.000=72.750,391.000=72.748,392.000=72.750,398.000=72.748,399.000=72.750,406.000=72.748,407.000=72.750,413.000=72.748,414.000=72.750,416.000=145.505,417.000=145.497,419.000=145.505,420.000=145.497,421.000=145.505,422.000=145.497,423.000=145.505,424.000=145.497,426.000=145.505,427.000=145.497,428.000=145.505,429.000=145.497,430.000=145.505,431.000=145.497,433.000=145.505,434.000=145.497,435.000=145.505,436.000=145.497,437.000=145.505,438.000=145.497,440.000=145.505,441.000=145.497,442.000=145.505,443.000=145.497,444.000=145.505,445.000=145.497,446.000=145.505,447.000=145.497,448.000=290.993,449.000=291.025,450.000=290.993,453.000=291.025,454.000=290.993,458.000=291.025,459.000=290.993,463.000=291.025,464.000=290.993,467.000=291.025,468.000=290.993,472.000=291.025,473.000=290.993,476.000=291.025,477.000=290.993,481.000=291.025,482.000=290.993,486.000=291.025,487.000=290.993,490.000=291.025,491.000=290.993,495.000=291.025,496.000=290.993,500.000=291.025,501.000=290.993,504.000=291.025,505.000=290.993,509.000=291.025,510.000=290.993,512.000=145.505,513.000=145.497,514.000=145.505,515.000=145.497,517.000=145.505,518.000=145.497,519.000=145.505,520.000=145.497,521.000=145.505,522.000=145.497,524.000=145.505,525.000=145.497,526.000=145.505,527.000=145.497,528.000=145.505,529.000=145.497,531.000=145.505,532.000=145.497,533.000=145.505,534.000=145.497,535.000=145.505,536.000=145.497,538.000=145.505,539.000=145.497,540.000=145.505,541.000=145.497,542.000=145.505,543.000=145.497,544.000=145.505,545.000=145.497,547.000=145.505,548.000=145.497,549.000=145.505,550.000=145.497,551.000=145.505,552.000=145.497,554.000=145.505,555.000=145.497,556.000=145.505,557.000=145.497,558.000=145.505,559.000=145.497,561.000=145.505,562.000=145.497,563.000=145.505,564.000=145.497,565.000=145.505,566.000=145.497,568.000=145.505,569.000=145.497,570.000=145.505,571.000=145.497,572.000=145.505,573.000=145.497,575.000=145.505,576.000=145.497,577.000=145.505,578.000=145.497,579.000=145.505,580.000=290.993,581.000=291.025,582.000=290.993,585.000=291.025,586.000=290.993,590.000=291.025,591.000=290.993,595.000=291.025,596.000=290.993,599.000=291.025,600.000=290.993,605.000=291.025,606.000=290.993,610.000=291.025,611.000=290.993,614.000=291.025,615.000=290.993,619.000=291.025,620.000=290.993,623.000=291.025,624.000=290.993,628.000=291.025,629.000=290.993,633.000=291.025,634.000=290.993,637.000=291.025,638.000=290.993,642.000=291.025,643.000=290.993,646.000=291.025,647.000=290.993,651.000=291.025,652.000=290.993,656.000=291.025,657.000=290.993,661.000=291.025,662.000=290.993,665.000=291.025,666.000=290.993,670.000=291.025,671.000=290.993,674.000=291.025,675.000=290.993,679.000=291.025,680.000=290.993,684.000=291.025,685.000=290.993,688.000=291.025,689.000=290.993,692.000=291.025,693.000=290.993,697.000=291.025,698.000=290.993,702.000=291.025,703.000=290.993,707.000=291.025,708.000=290.993,711.000=291.025,712.000=290.993,716.000=291.025,717.000=290.993,720.000=291.025,721.000=290.993,725.000=291.025,726.000=290.993,730.000=291.025,731.000=290.993,735.000=291.025,736.000=290.993,739.000=291.025,740.000=290.993,743.000=291.025,744.000=290.993,748.000=291.025,749.000=290.993,753.000=291.025,754.000=290.993,758.000=291.025,759.000=290.993,762.000=291.025,763.000=290.993,766.000=291.025,767.000=290.993,771.000=291.025,772.000=194.002,774.000=193.988,775.000=194.002,780.000=193.988,781.000=194.002,786.000=193.988,787.000=194.002,791.000=193.988,792.000=194.002,797.000=193.988,798.000=194.002,803.000=193.988,804.000=194.002,809.000=193.988,810.000=194.002,815.000=193.988,816.000=145.505,817.000=145.497,818.000=145.505,819.000=145.497,820.000=145.505,821.000=145.497,823.000=145.505,824.000=145.497,825.000=145.505,826.000=145.497,827.000=145.505,828.000=145.497,830.000=145.505,831.000=72.750,834.000=72.748,835.000=72.750,841.000=72.748,842.000=72.750,849.000=72.748,850.000=72.750;
#STOPS:;
#BGCHANGES:;
// cache tags:
#FIRSTBEAT:16.000;
#LASTBEAT:853.000;
#SONGFILENAME:Songs/Index Gradation/Catastrophe - [Owen71]/Catastrophe.sm;
#HASMUSIC:1;
#HASBANNER:1;
#MUSICLENGTH:266.370;
// end cache tags

//---------------dance-single - ----------------
#NOTES:
     dance-single:
     :
     Challenge:
     17:
     0.964,1.000,0.109,0.274,0.783,1670.000,29.000,73.000,269.000,4.000:
0000
0000
0000
0000
,
0000
0000
0000
0000
,
0000
0000
0000
0000
,
0000
0000
0000
0000
,
1000
0000
0010
0100
0000
0001
0100
0000
,
0000
0010
1000
0000
1000
0000
0100
0010
,
0000
0000
0001
0000
0100
0000
0010
0000
1000
0000
0010
0000
0100
0001
0100
0001
,
0100
0000
0010
1000
0000
0100
0010
0000
,
0000
0001
0100
0000
0100
0010
0100
0001
,
0000
0000
0000
0000
0000
0000
1000
0000
0000
0000
0000
0000
0010
0000
0000
0100
0000
0000
0001
0000
0000
0000
0000
0000
1000
0000
0100
0000
1000
0000
0100
0000
0000
0000
0000
0000
0010
0000
0000
0001
0000
0000
0010
0000
0000
0001
0000
0000
,
0010
0000
0100
1000
0000
0001
0100
0000
,
0000
0010
0100
0000
0100
0000
0001
1000
,
0000
0000
0010
0000
0100
0000
0001
0000
1000
0000
0001
0000
0100
0010
0100
0010
,
0100
0000
0001
1000
0000
0100
0010
0000
,
0000
0001
1000
0000
1000
0001
1000
0100
,
0000
0000
0000
0000
0000
0000
0010
0000
0000
0000
0000
0000
0001
0000
0000
1000
0000
0000
0001
0000
0000
0000
0000
0000
0100
0000
0010
0000
0100
0000
0010
0000
0000
0000
0000
0000
1000
0000
0000
0001
0000
0000
0100
0000
0000
0010
0000
0000
,
1000
0000
0000
0000
0000
0000
0000
0000
0100
0000
0000
0000
0010
0000
0000
0000
0000
0000
M000
0000
0001
0000
0000
0000
0100
0000
0000
00M0
0000
0000
0000
0000
,
0000
0M00
0000
0000
0010
0000
0000
0000
100M
0000
0M00
000M
0M00
000M
0M00
000M
1M00
0000
0000
0000
0000
0000
0000
0000
0010
0000
0000
0000
0100
0000
0000
M000
,
0000
0000
0000
0000
0001
0000
0000
0000
1000
0000
0000
00M0
0100
0000
0000
0000
0010
0000
0000
0M00
0001
0000
0M00
0M00
1M00
0M00
0010
0000
100M
0000
001M
0000
,
1000
0000
0000
0000
00M0
000M
00M0
0000
0100
M000
0000
0000
0010
0000
0000
0000
0000
0000
0000
0000
0M01
0000
0000
0000
0010
0000
M000
M000
M000
M000
000M
000M
,
000M
000M
0000
0000
0100
0000
M000
0000
00M0
0000
0000
0000
0M00
0000
0000
0000
0000
000M
0000
0000
0000
0M00
0000
00M0
1000
0M00
0000
0000
000M
M000
000M
M000
,
000M
0000
M000
0000
000M
0000
M000
0000
0100
0000
0000
0000
000M
0000
M000
0000
000M
0000
M000
0000
000M
0000
M000
000M
M010
000M
M000
0000
0000
0M00
M000
0M00
M000
0M00
M000
0M00
0000
0000
M000
0M00
M001
0000
0000
0000
0000
M000
0000
0000
M100
0000
0000
0000
0010
0000
0000
0000
010M
0000
M000
0000
001M
0000
M000
0000
,
010M
0000
0000
0000
,
0000
0000
0000
0000
,
0000
0000
0000
0000
,
0000
0000
0000
0000
0000
0000
0000
0000
0000
0000
0000
0000
0000
0000
0000
0000
0000
0000
0000
0000
0000
0000
0000
0000
0000
0000
0000
0000
0000
0000
0000
0000
0000
0000
0000
0000
0000
0000
0000
0000
0000
0000
0000
0000
0000
0000
0000
0000
0000
MMMM
0000
0000
0000
0000
0000
0000
0000
0000
0000
0000
0000
0000
0000
0000
,
0000
0000
0000
0000
0000
0000
0000
0000
0000
0000
0000
0000
0000
0000
0000
0000
0000
0000
0000
0000
0000
0000
0000
0000
0000
0000
0000
0000
0000
0000
0000
0000
0000
0000
0000
0000
0000
0000
0000
0000
0000
0000
0000
0000
0000
0000
0000
0000
1000
0000
0000
0000
0100
0000
0000
0000
0010
0000
0000
0000
0001
0000
0000
0000
1000
0000
0000
0000
0010
0000
0000
0000
0100
0000
0000
0001
0000
0000
1000
0000
0000
0001
0000
0000
0100
0000
0000
0010
0000
0000
1000
0000
0000
0010
0000
0000
,
0200
0000
0000
0001
0300
0000
0010
0000
,
0100
0000
1000
0100
1000
0000
0010
0000
,
0100
0000
0001
1000
0001
0000
0010
0000
,
0100
0000
1000
0010
1000
0000
0001
0000
,
1000
0000
0010
0100
0010
0000
1000
0000
,
0100
0010
0001
1000
0001
0000
0100
0000
,
0010
0000
1000
0001
1000
0000
0010
0100
,
0001
1000
0001
0010
0100
0000
1000
0000
,
00M2
0000
1003
0010
1000
0000
0100
0010
,
0001
1000
0010
0100
0001
0000
1000
0000
,
0100
0000
0010
0001
1000
0000
0010
0100
,
0001
1000
0100
1000
0010
0000
0100
0000
,
0001
0000
1000
0100
1000
0000
0010
0100
,
0001
0100
0010
1000
0001
0000
0010
0000
,
0100
0000
0000
0000
0000
0000
0000
0000
1000
0000
0000
0000
0001
0000
0000
0000
2000
0000
0000
0000
0000
0000
0000
0000
0000
0000
0000
3000
0020
0000
0000
0000
,
0000
0000
0000
0030
0100
0000
0000
0000
0001
0000
0000
0000
1000
0000
0000
0000
0002
0000
0000
0000
0000
0000
0000
0003
0020
0000
0000
0000
0000
0000
0000
0030
,
0100
1000
0001
1000
0010
0100
0001
1000
,
0100
1000
0001
0100
0010
1000
0001
0010
,
0001
0100
0010
1000
0001
1000
0100
0010
,
0001
0000
1000
0000
0010
0000
0100
0000
0001
0000
1000
0010
1000
0000
0100
0000
,
0010
0001
0100
0010
0100
0001
1000
0010
,
1000
0100
0010
0001
1000
0100
1000
0001
,
0100
0010
0100
0001
1000
0010
1000
0001
,
0100
0010
0100
0000
0001
0000
1000
0000
0200
0000
0000
0000
0000
0000
0300
0000
,
0010
0001
1000
0010
1000
0100
0010
0001
,
1000
0010
0100
0001
0100
0010
1000
0001
,
1000
0100
0010
0001
1000
0100
1000
0001
,
0100
0000
0010
0000
1000
0000
0010
0000
0100
0000
0001
0010
0001
0000
1000
0000
,
0100
1000
0001
0100
0010
1000
0010
0100
,
0001
1000
0100
0010
0001
1000
0100
1000
,
0001
0100
0010
1000
0010
0100
0001
0100
,
0010
0000
0000
1000
0000
0000
0010
0000
0000
0000
0000
0000
0100
0000
0000
0000
0000
0000
0000
0000
0000
0001
0000
0000
0000
0000
0000
0000
0000
0000
1000
0000
0000
0000
0000
0000
0010
0000
0000
0000
0000
0000
0100
0000
0001
0000
0100
0000
,
0002
0000
1003
0100
0010
0001
1000
1000
,
0010
0100
0001
0100
0010
1000
0001
0010
,
0001
1000
0010
0100
0010
1000
0100
0100
,
0010
0001
1000
0100
1000
0001
0100
0010
,
0100
0001
1000
0100
0010
0001
0100
0100
,
0010
1000
0001
1000
0100
0010
0001
0100
,
0001
1000
0010
0100
0001
1000
0100
0100
,
0010
0000
0000
0000
0000
0000
0000
0000
0000
0000
0000
0000
0000
0000
0000
0000
0000
0000
0000
0000
0000
0000
0000
0000
0001
0000
0000
0000
0000
0000
0000
0000
0000
0000
0000
0000
0000
0000
0000
0000
0000
0000
0000
0000
0000
0000
0000
0000
1000
0000
0000
0000
0000
0000
0000
0000
0000
0000
0000
0000
0000
0000
0000
0000
0000
0000
0000
0000
0000
0000
0000
0000
0010
0000
0000
0000
0000
0000
0000
0000
0000
0000
0000
0000
0000
0000
0000
0000
0000
0000
0000
0000
0000
0000
0000
0000
0100
0000
0000
0000
0000
0000
0000
0000
0000
0000
0000
0000
0000
0000
0000
0000
0000
0000
0000
0000
0000
0000
0000
0000
0010
0000
0000
0000
0000
0000
0000
0000
0000
0000
0000
0000
1000
0000
0000
0000
0000
0000
0000
0000
0000
0000
0000
0000
0001
0000
0000
0000
0000
0000
0100
0000
0000
0000
0000
0000
0001
0000
0000
0000
0000
0000
0100
0000
0000
0000
0000
0000
0004
0000
0000
0000
0000
0000
0000
0000
0000
0000
0000
0003
4000
0000
0000
0000
0000
0000
0000
0000
0000
0000
0000
3000
,
0100
0010
0001
1000
0010
0100
0001
1000
,
0100
1000
0001
0100
0010
1000
0001
0100
,
0001
0010
0100
1000
0001
0100
0010
1000
,
0001
0100
0001
0010
0100
1000
0001
0100
,
0010
1000
0010
0100
0001
1000
0100
0010
,
0001
1000
0100
1000
0001
0100
0010
1000
,
0010
0100
0001
1000
0100
1000
0001
0100
,
0010
1000
0010
0100
0001
1000
0001
0010
0100
1000
0020
0030
0200
0000
0000
0000
,
0301
1000
0001
0000
0010
0000
0100
0000
1000
0000
0010
0000
0100
0000
0001
0000
,
1000
0100
1000
0001
0100
0010
0100
0001
,
1000
0100
0010
0001
1000
0100
1000
0001
,
0100
0010
0100
0001
1000
0010
1000
0100
,
0010
0001
1000
0100
1000
0001
0100
0010
,
0100
0001
1000
0010
1000
0100
0010
0001
,
1000
0100
1000
0001
0100
0010
0100
0001
,
1000
0000
0000
0000
0400
0000
0000
0000
0000
0000
0000
0300
0020
0000
0000
0030
0001
0000
1000
0000
0001
0000
1000
0000
0001
0000
0000
0000
0100
0000
0000
0000
,
0010
1000
0010
0100
0001
0000
1000
0000
0010
0000
0100
0000
0001
0000
0100
0000
,
0010
1000
0001
1000
0100
0010
0001
1000
,
0100
0000
1000
0000
0001
0000
0010
0000
0100
0000
1000
0000
0010
0100
0001
1000
,
0010
0100
0001
1000
0100
0010
0001
1000
,
0010
0100
0010
1000
0001
0000
0010
0000
0100
0000
1000
0000
0010
0000
0100
0000
,
0001
1000
0010
1000
0001
0100
0010
0100
,
0001
0010
0001
1000
0100
0000
0010
0000
0001
0000
1000
0000
0010
0100
0001
1000
,
0002
0000
0003
2000
0000
3000
0004
0000
1003
0000
0100
0000
0010
0000
0001
0000
,
1000
0000
0010
0100
0010
0000
1000
0000
0010
0000
0100
0001
0100
0000
0010
0000
,
1000
0000
0001
0000
1000
0000
0100
0000
0010
0000
0001
1000
0001
0000
0100
0000
,
0010
0000
1000
0100
1000
0000
0001
0000
0100
0000
0010
0000
1000
0001
1000
0000
,
0100
0000
0010
0000
0001
0000
1000
0000
0010
0100
0010
0000
1000
0001
1000
0100
,
0010
0001
1000
0000
0010
0100
0010
1000
0001
0100
0010
1000
0010
0100
0001
1000
,
0010
0100
0010
1000
0001
0100
0010
1000
0000
0000
0000
0000
0000
0000
0000
0000
,
0000
0000
0000
0000
,
0000
0000
0000
0000
,
0000
0000
0000
0000
,
0000
0000
0000
0000
,
0000
0000
0000
0000
,
0000
0000
0000
0000
0000
0000
0000
0000
0000
0000
0000
0000
0000
0001
1000
0001
,
0010
0000
1100
0000
0000
1000
0010
0100
0001
0000
1001
0000
0000
1000
0100
0010
,
0011
0000
0001
0000
0000
1000
0010
1000
0001
0000
0010
0000
0000
0100
1000
0001
,
1000
0000
0010
0000
0000
0100
0001
1000
0100
0000
0010
0000
0001
1000
0001
0100
,
0010
0000
1000
0000
0000
0100
0010
0001
1000
0000
0010
0000
0000
0100
0001
0100
,
0010
0000
0000
0000
1000
0000
0000
0000
0000
0000
0100
0000
0010
0000
0001
0000
1000
0000
0000
0000
0010
0000
0000
0000
0100
0001
0100
0010
1000
0001
1000
0100
,
0010
0001
0000
1000
0000
0010
0100
0010
1000
0000
0001
0100
0010
0100
0000
0001
,
1000
0100
0010
0001
1000
0000
0010
0200
0002
0300
1003
0200
0310
0001
0000
1000
,
0010
0100
0001
1000
0000
0100
0010
0002
2000
0003
3010
0100
0001
1000
0001
0100
,
M11M
0000
0010
0000
1000
0000
1MM1
0000
0001
0000
0000
0000
21MM
0000
0000
0000
3010
0000
0000
0000
0100
0000
0001
0000
0100
0000
0010
0000
1000
0100
1000
0001
,
0100
0000
0010
1000
0010
0000
0100
0000
0001
0000
1000
0010
1000
0000
0100
0010
,
0001
0000
0100
0000
0010
1000
0010
0000
0100
0000
0001
0000
1000
0000
0100
0000
,
1000
0000
0001
0010
0001
0000
0100
0000
0010
0000
1000
0001
1000
0000
0010
0100
,
0001
0000
0010
0000
0100
1000
0100
0000
0010
0000
0001
0000
1000
0000
0001
0000
,
0100
0000
0010
1000
0010
0000
0100
0000
0001
0000
1000
0100
1000
0000
0100
0010
,
0001
0000
1000
0000
0010
0100
0010
0000
1000
0000
0001
0000
1000
0000
0100
0000
,
0010
0000
0001
1000
0001
0000
0100
0000
0010
0000
1000
0100
1000
0000
0010
0100
,
0001
0000
1000
0000
0100
0010
0001
1000
0001
0000
0100
0000
0010
1000
0010
0100
,
0001
0000
1000
0000
0010
0000
0100
0000
0001
0000
1000
0100
1000
0000
0010
0100
,
0001
0000
1000
0000
0010
0100
0010
0000
1000
0000
0001
0000
1000
0000
0100
0000
,
0010
0000
0001
0100
0001
0000
1000
0000
0010
0000
0100
0001
0100
0000
0010
1000
,
0001
0100
0010
1000
0010
0100
0001
1000
,
0001
0000
0100
0000
0010
0000
0100
0000
0001
1000
0001
0100
0010
0000
0100
0001
,
0100
0010
1000
0100
1000
0001
0010
0100
,
1000
0010
1000
0000
0001
0000
0100
0000
0010
0000
1000
0001
0100
0000
0010
1000
,
0010
0000
0100
0001
1000
0000
0010
0100
0001
1000
0010
1000
0100
0010
0001
1000
,
0020
0000
0000
0100
0030
0100
0001
0000
1000
0000
0100
0010
0000
0001
0100
0000
,
0010
0000
1000
0100
0000
0010
0000
0001
1000
0000
0010
0100
0000
0001
0100
0000
,
0010
0000
1000
0100
0000
1000
0010
0000
0100
0000
0001
0100
0000
0010
1000
0000
,
0001
0000
0000
0010
0000
0100
1000
0000
0010
0000
0000
0100
0000
0001
0100
0000
,
0M20
0000
1030
0100
0000
1000
0010
0000
0100
0000
0001
1000
0000
0100
0010
0000
,
0001
0000
1000
0010
0000
0100
0000
0001
1000
0000
0100
0010
0000
0001
1000
0000
,
0010
0000
1000
0010
0000
0100
0001
0000
1000
0000
0100
1000
0000
0010
0100
0000
,
0001
0000
0000
0000
0000
0000
4000
0000
0000
3000
0000
0000
0010
0000
0000
0000
0100
0000
0000
0000
0000
0000
0001
0000
0000
0000
0000
0000
1000
0000
0000
0000
,
0100
0010
0001
1000
0010
0100
0010
1000
0001
0100
0001
1000
0100
0010
0001
1000
,
0001
0100
0010
1000
0010
0100
0001
1000
0100
1000
0001
0100
0010
1000
0001
0100
,
0001
1000
0100
0010
0001
1000
0100
1000
0010
0100
0001
1000
0001
0100
0010
1000
,
0010
0100
0001
1000
0100
1000
0001
0010
0100
0010
0001
1000
0010
0100
0001
1000
,
0001
0000
0010
0100
0000
0100
1000
0000
1000
0010
0100
0001
1000
0000
0100
0000
,
0010
0000
0001
0010
0000
0100
1000
0000
1000
0010
0000
0100
0010
0000
1000
0000
,
0001
0000
1000
0100
0000
0010
0001
0000
1000
0010
0100
0001
0100
0010
1000
0000
,
0001
0000
0000
0000
1000
0000
0100
0000
0010
0000
0001
1000
0001
0000
0100
0000
0010
0000
0000
0000
1000
0000
0000
0000
0001
0000
0000
0000
0100
0000
0000
0000
,
0040
0000
0000
0000
0000
0000
0030
0000
0020
0000
0000
0000
0000
0000
0000
0000
1030
0000
0100
0000
1000
0000
0001
0000
0100
0010
0100
0001
1000
0100
0010
0001
,
1000
0100
1000
0010
0100
0001
1000
0001
,
0100
0010
1000
0010
0100
0001
1000
0100
,
0010
0001
1000
0100
1000
0001
0100
0010
,
1000
0000
0001
0000
0010
0000
0001
0000
1000
0000
0010
0100
0010
0000
1000
0000
,
0001
0100
0001
1000
0100
0010
0001
1000
,
0100
1000
0010
0100
0001
1000
0100
1000
,
0020
0130
0002
1003
0002
0103
0020
1030
,
0001
0100
0001
0000
1000
0000
0000
0010
0000
0000
0100
0000
0001
0000
1000
0010
,
1000
0100
0010
0001
1000
0010
0100
0001
,
1000
0100
1000
0001
0100
0010
1000
0001
,
0100
0000
0010
0000
1000
0001
1000
0000
0100
0000
0010
0000
0001
0000
1000
0000
,
0100
1000
0001
0020
0031
0200
0320
1030
,
0001
0100
0001
1000
0100
1000
0010
0100
,
0010
0000
1000
0000
0001
0000
0010
0000
0100
0000
1000
0000
0001
0100
0001
0000
,
0020
0130
2000
3001
0200
0310
2000
3001
,
1000
0100
1000
0000
0010
0000
0000
0100
0000
0000
0001
0000
1000
0000
0010
0100
,
0010
1000
0001
0010
0100
1000
0001
0100
,
0001
0010
0100
1000
0001
1000
0010
0100
,
0001
1000
0100
1000
0010
0100
0010
1000
,
0001
0000
0010
0000
0100
0000
1000
0000
0001
0000
0100
0010
0100
0000
0001
0000
,
1000
0010
1000
0100
0010
0001
1000
0100
,
1000
0001
0100
0010
1000
0010
0100
0001
,
2000
3100
2000
3010
0200
0301
2000
3010
,
0100
0001
0100
0000
0010
0000
0000
1000
0000
0000
0001
0000
1000
0000
0010
0100
,
0010
0000
1000
0000
0001
0000
0100
0000
0001
0000
0010
0000
0100
0000
1000
0001
,
1000
0000
0010
0000
0100
0000
0010
0000
1000
0000
0001
0100
0001
0000
1000
0010
,
1000
0000
0100
0000
0010
0001
0010
0000
0100
0000
1000
0001
1000
0000
0010
1000
,
0010
0000
0100
0001
0100
0000
0010
0000
1000
0000
0001
0000
1000
0000
0100
0000
,
0010
0001
1000
0100
0010
0100
1000
0001
,
0100
0001
1000
0010
0100
0001
1000
0100
,
2000
3001
0200
0310
0200
0301
2000
3010
,
0100
0001
0100
0000
0000
0010
0000
0000
1000
0000
0001
0000
1000
0000
0010
0100
,
0010
0000
1000
0000
0001
0000
0100
0000
0010
0000
1000
0001
1000
0000
0100
0000
,
0010
0000
0001
0100
0001
0000
1000
0000
0010
0000
0100
0000
0001
0000
1000
0000
,
0010
0000
1000
0100
1000
0000
0001
0100
0001
1000
0010
0000
0100
0000
0001
0000
,
1000
0000
0100
0000
0010
0001
1000
0001
0100
0000
0010
1000
0010
0000
0100
0001
,
0100
0000
0010
0000
1000
0001
1000
0000
0100
0000
0010
0001
0010
0000
0100
0000
,
1000
0000
0001
0000
0100
0010
0100
0000
0001
0000
1000
0000
0100
0000
0010
0000
,
0001
1000
0001
0100
0010
0000
1000
0000
0001
0000
0010
0100
1000
0001
1000
0010
,
0100
0000
0001
0000
1000
0100
0010
0001
0100
0001
1000
0010
0100
0010
1000
0001
,
0010
0000
0100
0000
1000
0001
1000
0010
0100
0001
1000
0000
0100
0010
0001
1000
,
0001
0000
0100
0000
0010
0000
1000
0001
1000
0100
0010
0001
1000
0000
0010
0100
,
0010
0000
1000
0001
0100
0010
0100
0000
0001
0000
1000
0100
0010
0001
1000
0100
,
1000
0000
0010
0000
0100
0001
0100
0000
0010
0000
1000
0000
0001
0010
0001
0000
,
0100
0000
0010
1000
0010
0000
0100
0000
0001
0000
1000
0100
1000
0000
0010
0100
,
0001
0000
1000
0000
0100
0010
0001
0000
1000
0000
0010
0100
0010
0000
0100
0000
,
0001
0000
1000
0010
1000
0000
0100
0010
0001
0000
1000
0010
0100
0010
1000
0001
,
1000
0100
0010
0001
1000
0100
1000
0001
0100
0010
1000
0010
0100
0001
1000
0100
,
0020
0000
0030
MMMM
21M4
0000
3003
MMMM
,
241M
0000
3300
MMMM
4M21
0000
3030
MMMM
,
42M4
0000
3303
MMMM
M222
0000
0333
MMMM
,
2204
0000
33M3
MMMM
4042
0000
3M33
MMMM
,
444M
0000
3330
MMMM
22M4
0000
3303
MMMM
,
242M
0000
3330
MMMM
2M12
0000
3003
MMMM
,
2242
0000
3333
MMMM
4240
0000
3330
MMMM
,
1012
0000
0003
MMMM
0220
0000
0330
MMMM
,
4404
0000
3303
MMMM
4242
0000
3333
MMMM
,
0242
0000
0333
MMMM
2000
0000
3000
MMMM
,
2402
0000
0000
0000
3303
0000
MMMM
0000
1010
0000
0000
1001
0000
0000
0001
0000
,
0100
0000
0010
0000
1000
0000
0001
0000
0100
0000
0010
1000
0010
0000
0100
0000
,
0001
0000
1000
0000
0100
0010
0001
0000
1000
0000
0010
0100
0010
0000
1000
0000
,
0001
0000
0010
0000
0100
0000
1000
0000
0001
0000
1000
0000
0010
0000
0100
0001
,
1000
0000
0100
0000
0010
0001
1000
0000
0001
0000
0100
0010
2000
0000
3000
0000
,
0000
0000
0000
0000
0000
0000
0000
0000
0000
0000
0000
0000
MMMM
M00M
M00M
MMMM
,
0000
M00M
M00M
MMMM
M00M
0000
MMMM
M000
MMM0
M000
MMMM
0000
M00M
MMMM
M00M
M00M
,
0000
0000
0000
0000
,
M00M
M00M
MMMM
M00M
M00M
0000
MMMM
M000
MMM0
M000
MMMM
0000
M000
M000
M000
M000
,
MMMM
0000
M000
M000
M000
M000
MMMM
0000
0000
0000
0000
0000
0000
0000
0000
0000
,
0000
000M
0000
0000
,
0000
0000
0000
0000
;
