#TITLE:Kono spoon, suteki desu ne;
#SUBTITLE:;
#ARTIST:Loli Ripe;
#TITLETRANSLIT:;
#SUBTITLETRANSLIT:;
#ARTISTTRANSLIT:;
#CREDIT:;
#BANNER:../fthescorept1bn.png;
#BACKGROUND:../fthescorept1bg.png;
#LYRICSPATH:;
#CDTITLE:;
#MUSIC:Kono Spoon.ogg;
#OFFSET:-0.034;
#SAMPLESTART:11.660;
#SAMPLELENGTH:13.430;
#SELECTABLE:YES;
#BPMS:0.000=319.920;
#STOPS:;
#BGCHANGES:;
// cache tags:
#FIRSTBEAT:0.000;
#LASTBEAT:349.000;
#SONGFILENAME:Songs/Fuck The Score Part I/Kono Spoon [Dossar]/Kono Spoon.sm;
#HASMUSIC:1;
#HASBANNER:1;
#MUSICLENGTH:65.776;
// end cache tags

//---------------dance-single - ----------------
#NOTES:
     dance-single:
     :
     Challenge:
     23:
     1.000,1.000,0.000,0.198,0.829,680.000,0.000,13.000,0.000,0.000:
1000
0010
0100
0001
1000
0000
0001
0000
,
0001
0000
1000
0100
0010
0000
0001
0000
,
1000
0010
1000
0001
0100
0001
1000
0000
0000
0010
0000
0000
,
0100
0000
0001
0000
0100
0000
0010
0000
1000
0000
0010
0000
0100
0000
0000
0000
0000
0000
0010
0000
0000
1000
0000
0000
,
0001
0000
0100
0000
0010
0000
1000
0000
0001
0000
0000
0000
1000
0000
0001
0100
,
0001
0000
1000
0100
0010
0000
0001
0000
,
1000
0010
1000
0001
0100
0001
1000
0010
0100
0001
1000
0010
1000
0001
0100
0010
,
1000
0001
0100
0001
1000
0010
0100
0001
0100
0010
1000
0001
0100
0001
1000
0000
,
0001
0000
0000
0000
1000
0100
1000
0000
,
0001
0000
0010
0100
0010
0000
0001
1000
,
0001
0000
0000
0000
0100
0010
0100
0000
,
0001
0000
1000
0100
1000
0000
0001
0000
,
1000
0010
0100
0001
0000
0000
0000
0000
,
0000
0000
1000
0100
0010
0001
0000
0000
,
1000
0010
0100
0001
0000
0000
0000
0000
,
0000
0000
1000
0100
0010
0001
0000
0000
,
1000
0100
0010
0100
1000
0001
0100
0010
,
1000
0001
0010
0100
0010
0001
1000
0010
,
0100
0001
1000
0100
0010
0100
1000
0001
,
1000
0010
0100
0001
0010
0100
1000
0010
,
0100
0001
0100
0010
1000
0001
0010
0100
,
0010
0001
1000
0010
1000
0001
0100
0010
,
1000
0100
0010
0100
1000
0001
0100
0010
,
1000
0001
0010
0100
0010
0001
1000
0010
,
0100
0001
1000
0100
0010
0100
1000
0001
,
0100
0010
1000
0001
0010
0001
0100
0010
,
1000
0001
0100
0010
1000
0100
1000
0001
,
0100
0010
1000
0100
0010
0001
0010
0100
,
0010
0001
0100
0010
1000
0001
1000
0100
,
0010
0001
1000
0100
1000
0001
0010
0001
,
1000
0100
0010
0001
1000
0010
0100
0001
,
1000
0010
0100
0001
1000
0010
0100
0001
0100
0001
1000
0010
1000
0001
0100
0010
,
1000
0001
0100
0001
1000
0010
0100
0001
1000
0010
1000
0001
0100
0010
1000
0001
,
0100
0010
0100
0001
1000
0010
0100
0001
1000
0001
0100
0010
1000
0000
0001
0000
,
0100
0010
0100
0000
0001
1000
0001
0000
,
1000
0100
1000
0100
0000
0000
0000
0000
,
0010
0001
0010
0000
0100
1000
0100
1000
,
0000
0000
0000
0000
,
0001
0100
0001
0000
1000
0010
1000
0010
,
0000
0000
0000
0000
,
1000
0000
1000
0000
0001
0100
0001
0100
,
0000
0000
0000
0001
,
1000
0100
0010
0001
1000
0100
1000
0001
,
0100
0010
1000
0001
0100
0010
1000
0001
,
0010
0001
0100
0010
1000
0001
1000
0100
,
1000
0001
0100
0010
1000
0001
0010
0001
,
1000
0100
0010
0001
1000
0100
0010
0001
,
1000
0100
0010
0001
1000
0010
0100
0001
,
1000
0010
0100
0001
1000
0001
1000
0010
0100
0001
1000
0010
0100
0001
1000
0001
,
0100
0010
0100
0001
1000
0001
0100
0010
1000
0001
1000
0010
0100
0001
1000
0010
,
0100
0001
0100
0001
1000
0010
0100
0001
1000
0001
0100
0010
1000
0001
1000
0010
,
0100
0001
1000
0010
0100
0001
0100
0001
1000
0000
0000
0000
0001
0000
0000
0000
,
2000
3000
0000
0000
2000
3000
0000
0000
,
0200
0300
0000
0000
0200
0300
0000
0000
,
1000
0100
0010
0001
1000
0100
0010
0001
1000
0100
1000
0001
1000
0100
0010
0001
,
1000
0100
1000
0001
0010
0100
1000
0001
0010
0001
1000
0100
1000
0000
0000
0000
,
0001
0100
0010
1000
0001
0100
0001
1000
,
0100
1000
0001
0100
0010
1000
0001
0100
,
0001
1000
0100
0010
0001
0010
0100
1000
,
0001
1000
0100
0010
0100
1000
0001
1000
,
0001
0100
0001
1000
0010
0000
0100
0000
0010
1000
0010
0100
0001
1000
0010
1000
,
0001
0100
0001
1000
0010
0100
0001
1000
0010
0000
0100
0000
0001
0000
1000
0000
,
0010
0100
0010
1000
0001
0010
0100
1000
,
0001
0010
0100
0010
0001
1000
0100
0010
,
0001
1000
0010
1000
0001
0100
0010
1000
,
0100
0010
0001
1000
0010
1000
0100
0010
,
0002
0003
0002
0003
2000
3000
2000
3000
,
0020
0030
0200
0300
0002
1003
0010
0100
,
0001
0000
1000
0000
0100
0000
0010
0000
0002
0000
0000
1003
0010
1000
0001
0100
,
0010
1000
0001
0100
0001
1000
0010
0100
0001
1000
0010
1000
0001
0100
0010
1000
,
0001
0100
0010
0000
1000
0010
0100
0000
,
0001
0100
0010
0000
1000
0010
0100
0000
,
0001
0010
0100
1000
0001
0010
0100
1000
,
0001
0010
0100
1000
0001
0010
0100
1000
,
0001
0100
0010
0000
1000
0010
0100
0000
,
0001
0100
0010
0000
1000
0010
0100
0000
,
0001
0010
0100
0000
1000
0100
0010
0001
,
1000
0100
0010
0001
,
1000
0010
0100
0000
0001
0100
0010
0000
,
1000
0010
0100
0000
0001
0100
0010
0000
,
1000
0100
0010
0000
0001
0010
0100
0000
,
1000
0100
0010
0000
0001
0010
0100
0000
,
1000
0010
0100
0000
0001
0100
0010
0000
,
1000
0010
0100
0000
0001
0100
0010
0000
,
1000
0100
0010
0001
1000
0100
0010
0001
,
1000
0010
0100
0001
0010
0100
0010
0001
,
1000
0010
0100
0001
1000
0100
1000
0000
,
0002
0003
0000
0000
;
