#TITLE:Dragon Blade;
#SUBTITLE:;
#ARTIST:Kozo Nakamura;
#TITLETRANSLIT:;
#SUBTITLETRANSLIT:;
#ARTISTTRANSLIT:;
#CREDIT:;
#BANNER:Dragon Blade.png;
#BACKGROUND:Dragon Blade-bg.png;
#LYRICSPATH:;
#CDTITLE:!Dokuroridertitle.png;
#MUSIC:Guitar Freaks 11th Mix & Drummania 10th Mix - Dragon Blade.mp3;
#OFFSET:-2.040;
#SAMPLESTART:31.500;
#SAMPLELENGTH:12.500;
#SELECTABLE:YES;
#BPMS:0.000=240.000,389.000=120.000,390.000=240.000;
#STOPS:;
#BGCHANGES:;
// cache tags:
#FIRSTBEAT:0.000;
#LASTBEAT:461.000;
#SONGFILENAME:Songs/dragon/Dragon Blade v.2.1/Dragon Blade.sm;
#HASMUSIC:1;
#HASBANNER:1;
#MUSICLENGTH:118.943;
// end cache tags

//---------------dance-single - ----------------
#NOTES:
     dance-single:
     :
     Easy:
     5:
     0.350,0.434,0.034,0.042,0.000,282.000,4.000,5.000,0.000,0.000:
1000
0000
0000
0001
,
0000
0001
0000
0000
,
1000
0000
0000
0001
,
0000
0001
0000
0000
,
1000
0000
0000
1000
,
0000
0001
0000
0000
,
0001
0000
0000
1000
,
0000
0001
0100
0001
,
0100
0000
0100
0000
,
0010
0000
0010
0000
,
1000
0000
1000
0000
,
0001
0000
0001
1000
,
0100
0000
0100
0000
,
0010
0000
0010
0000
,
0001
0000
0001
0000
,
1000
0001
0100
0000
,
0001
0001
0000
0000
,
0000
1000
1000
0000
,
0100
0010
0100
0000
,
1000
0000
0001
0000
,
0010
0100
0010
0000
,
0001
0000
1000
0000
,
0100
0010
0100
1000
,
0001
0000
0100
0000
,
0000
0001
0000
0100
0000
0001
0000
0000
,
0000
1000
0000
0100
0000
1000
0000
0000
,
0001
0000
0100
0000
,
0010
0000
1000
0000
,
0100
0000
0010
0000
,
0001
0000
1000
0000
,
0100
0100
0010
0001
,
1000
0000
0001
1000
,
0001
0000
1000
0001
,
1000
0000
1000
0000
,
1000
0000
0001
0010
,
0000
0000
0000
0000
,
0100
0000
0000
0010
0000
0000
0100
0000
,
0000
0000
0000
0000
,
1000
0001
0001
0000
,
0100
0010
0010
0000
,
1000
0100
0100
0000
,
0010
0001
0001
0000
,
1000
0000
0001
0000
,
0000
1000
0000
0001
0000
0001
0000
0000
,
1000
0000
0000
0100
0000
0000
1000
0000
,
0000
0000
0000
0000
,
1000
0100
0010
0100
,
1000
0001
1000
0000
,
0001
0000
0000
0100
0000
0000
0001
0000
,
0000
0100
0000
0000
0001
0000
1000
0000
,
0001
0000
0000
1000
0000
0000
0001
0000
,
0000
0000
0000
0000
,
1100
0000
0000
0000
,
0000
0000
0011
0000
,
0000
0000
0000
0000
,
0000
0000
1001
0000
,
1000
0000
0001
0000
,
1000
0000
1001
0000
,
0001
0100
0001
0000
,
1000
0000
0100
0000
,
1000
0010
0100
0000
,
0010
1000
0100
0000
,
0010
0001
0100
0000
,
0010
0100
0001
0000
,
1000
1000
0100
0000
,
0001
0001
0100
0000
,
1000
1000
0010
0000
,
0001
0001
0010
0000
,
2000
0000
0000
3000
,
0001
0000
0000
0100
0000
0000
0001
0000
,
0200
0000
0000
0300
,
0010
0000
0000
1000
0000
0000
0010
0000
,
0200
0000
0000
0300
,
0001
0000
0000
1000
0000
0000
0001
0000
,
2000
0000
0000
3000
,
0200
0000
0000
0000
,
0310
0000
0000
0000
,
0000
0000
0000
0000
,
1000
0000
0000
0001
0000
0000
1000
0000
,
0000
0001
0100
0000
,
0010
1000
0010
0100
,
0001
0000
1000
0100
,
1000
0001
0100
0000
,
0010
1000
0010
0100
,
0001
0000
0001
0000
,
1000
0000
1000
0000
,
0000
0010
0000
0100
0000
0010
0000
0000
,
0000
1000
0000
0001
0000
1000
0000
0000
,
0100
0010
0001
0000
,
1000
0100
0010
0000
,
0001
0100
0010
0000
,
0100
0010
1000
0000
,
0001
0001
1000
0100
,
1000
0000
0001
0100
,
0001
0100
0001
1000
,
0001
0000
0100
0000
,
0001
0000
0000
0000
0100
0000
0000
0001
,
0000
0000
0000
1000
,
0000
1000
0001
0100
,
0000
0100
0010
1000
,
0000
0100
1000
0001
,
0000
0100
0010
1000
,
0000
1000
0001
0100
,
0000
0010
1000
0001
,
0000
0010
0100
1000
,
0000
0001
0000
0000
1000
0000
0001
0000
,
0000
0100
0100
0010
,
0000
1000
1000
0001
,
0000
0010
0010
0100
,
0000
1000
1000
1000
,
0000
0001
0001
0001
,
0000
1000
0000
0100
,
1000
0100
1000
0100
,
1000
0001
1000
0001
,
1000
0100
0010
0001
;

//---------------dance-single - ----------------
#NOTES:
     dance-single:
     :
     Medium:
     7:
     0.468,0.482,0.126,0.000,0.029,375.000,15.000,0.000,0.000,0.000:
1000
0000
1000
0100
0000
0000
0010
0001
,
0000
0000
0001
0000
0001
0100
0000
0000
,
0010
0000
0010
1000
0000
0000
1000
0100
,
0000
0000
0010
0000
0010
0001
0000
0000
,
0001
0000
0001
0100
0000
0000
0010
1000
,
0000
0000
1000
0000
1000
0001
0000
0000
,
0001
0000
0001
0100
0000
0000
0010
1000
,
0000
1000
0100
1000
,
0100
0000
0100
0010
,
0001
0001
0000
0100
,
0010
1000
0100
0010
,
0010
0000
0001
0100
,
0010
1000
0001
0001
,
0000
0010
0100
1000
,
0010
0100
0100
0000
,
0100
0001
1000
0001
,
1000
0000
1000
0000
0000
0001
0000
0000
,
1000
0000
1000
0000
0000
0001
0000
0000
,
0010
0100
1000
0100
,
1000
0000
0001
0000
,
0100
0010
0100
0010
,
1000
0000
0001
0000
,
0010
0100
1000
0001
,
1000
0001
1000
0001
,
0000
0100
0000
0001
0000
1000
0000
0100
,
0000
1000
0000
0001
0000
1000
0000
0000
,
0001
0100
0010
0100
,
0001
0010
0100
0000
,
1000
0010
0100
0010
,
1000
0100
0010
0000
,
0001
0000
0001
0000
1000
0000
0001
1000
,
0000
0000
0001
0000
0001
0000
1000
0001
,
0000
0000
1000
0000
1000
0000
0001
1000
,
0000
0100
0100
0100
,
0010
0000
0000
0000
0010
0000
0010
0001
,
0000
0000
0000
0000
,
1000
0000
0000
0001
0000
0000
1000
0000
,
0000
0010
0100
0001
,
1000
0100
0100
1000
,
0001
0100
0100
0001
,
1000
0100
0100
1000
,
0001
0100
0100
0001
,
1000
0000
0000
0000
0001
1000
0000
0001
,
0000
1000
0000
0100
0000
1000
0000
0000
,
0010
0000
0000
0010
0000
0000
0010
0000
,
0000
0000
0000
0000
,
1000
0000
0000
1000
0100
0000
0000
0100
,
0010
0000
0000
0010
0001
0000
0000
0001
,
1000
0000
0000
0100
1000
0000
0100
1000
,
0000
0100
1000
0000
0000
0000
0010
0000
,
0100
0001
0000
0100
0001
0000
0100
0001
,
0000
0000
0000
0000
,
1001
0000
0000
0000
,
0000
0000
1100
0000
,
0101
0000
0000
0000
,
0000
0000
1100
0000
,
0010
0100
0000
0000
0010
0100
0000
0000
,
0010
0100
0000
0000
1001
0000
0000
0000
,
1000
0100
1000
0100
,
1000
0001
0100
0001
,
0100
0100
0010
0010
,
0100
0100
0001
0001
,
1000
1000
0001
0001
,
1000
1000
0001
0000
,
1000
1000
0100
0100
,
0010
0010
0001
0001
,
0100
0100
0010
0010
,
1000
1000
0001
0000
,
1100
0000
0000
0000
,
0010
0000
0000
0001
0000
0000
0100
0000
,
1010
0000
0000
0000
,
0100
0000
0000
0010
0000
0000
0100
0000
,
1001
0000
0000
0000
,
0010
0000
0000
1000
0000
0000
0001
0000
,
1100
0000
0000
0000
,
0011
0000
0000
0000
,
1001
0000
0000
0000
,
0000
0000
0000
0000
,
1000
0000
0000
0100
0000
0000
0010
0000
,
0000
0001
1000
0000
,
0010
0100
0001
0010
,
0100
1000
0001
0000
,
0100
0010
1000
0100
,
0010
0100
1000
0000
,
0010
0100
0001
1000
,
0001
1000
0100
0000
,
0000
0010
0000
0001
0000
0010
0000
0100
,
0000
1000
0000
0100
0000
0010
0000
0000
,
0001
0100
0010
1000
,
0100
1000
0001
0000
,
0100
0010
1000
0100
,
0010
0100
1000
0000
,
0001
0000
0100
0000
0100
0000
0001
1000
,
0000
0000
0100
0000
0100
0000
1000
0001
,
0000
0100
0100
0001
,
1000
0000
0000
0100
0000
1000
0000
0000
0100
0000
0000
1000
0000
0100
0000
0000
,
1000
0000
0000
0100
0000
1000
0000
0000
0100
0000
0000
1000
0000
0000
0100
0000
,
0000
0000
0000
0010
,
0000
0100
0010
0100
,
0001
1000
0001
1000
,
0100
1000
0100
0010
,
0001
0010
0001
1000
,
0000
0100
0010
0100
,
1000
0001
1000
0100
,
0010
0100
1000
0001
,
0000
0110
0000
0000
0001
0000
1000
0000
,
0100
1000
0000
0001
,
0100
0001
0000
1000
,
0010
1000
0000
0001
,
0010
0001
0000
1001
,
0000
1000
0100
0110
,
0000
0001
0100
0010
,
1000
0010
1000
0010
,
0100
0010
0100
0010
,
0100
0001
1000
1001
;

//---------------dance-single - ----------------
#NOTES:
     dance-single:
     :
     Hard:
     9:
     0.716,0.872,0.277,0.135,0.029,547.000,33.000,16.000,0.000,0.000:
1000
0100
1000
0100
0000
0000
0010
0001
,
0000
0000
0100
0001
0100
0001
0000
0000
,
0010
0100
0010
0100
0000
0000
1000
0001
,
0000
0000
0100
0010
0100
0010
0000
0000
,
1000
0100
1000
0100
0000
0000
0010
0001
,
0000
0000
0100
0010
0100
0010
0000
0000
,
1000
0001
1000
0001
0000
0000
0010
0100
,
0000
0000
1000
0100
0010
0001
0100
0010
,
1000
0010
0100
0001
,
0010
0100
0010
0001
,
0100
0010
1000
0100
,
1000
0010
0100
0002
,
0013
0100
1000
0001
,
0100
0010
1000
0010
,
0100
0001
0010
0100
,
0010
0002
1003
0001
,
1001
0000
1001
0000
0000
0110
0000
0000
,
1000
0000
0010
0000
0100
0100
0000
0000
,
0001
0010
0001
0010
0001
0010
0001
0010
,
0001
0100
0010
1000
,
0100
0010
0001
0010
,
0100
0010
0001
0100
,
0110
0000
1000
0010
1000
0000
0100
0010
,
0100
0000
1000
0001
1000
0000
0010
0100
,
0010
0100
0000
0001
0000
0010
0000
0011
,
0000
0100
0000
1000
0000
1100
0000
0000
,
0001
0010
0100
0010
0001
1000
0001
0000
,
0100
0010
1000
0100
,
0010
0001
0010
0100
1000
0001
1000
0000
,
0010
0100
0001
0010
,
0100
1000
0100
0010
0001
0100
0010
0100
,
0000
0001
0010
0100
0010
0001
1000
0001
,
0000
0100
0010
1000
0100
1000
0010
0100
,
0010
1000
0001
1000
0001
0100
0010
0100
,
0020
0000
0000
0000
1030
0100
1000
0001
,
0000
0000
0100
0010
1000
0100
1000
0100
,
0010
0000
0000
0011
0000
0000
1001
0000
,
0000
1000
0010
0100
,
1001
0000
1000
0100
1000
0100
1000
0100
,
1100
0000
0010
0001
0010
0001
0010
0001
,
0011
0000
1000
0001
1000
0001
1000
0001
,
1001
0000
0100
0010
0100
0010
0100
0010
,
0110
0000
0000
0000
1000
0100
0010
0001
,
0000
1000
0000
0010
0000
1010
0000
1000
,
0001
0000
0000
0100
0000
0000
0101
0000
,
0000
1000
0001
1000
,
0100
0000
1000
0100
1000
0000
0010
0100
,
0010
0000
0100
0001
0100
0000
0010
0100
,
0010
0100
0000
0100
0001
0000
0001
0010
,
0000
0010
0100
0000
1000
0100
1000
0000
,
1000
0100
0000
0100
0010
0000
0010
0001
,
0000
1000
0001
1000
,
0010
0100
0000
0000
0000
0000
0000
0000
,
0000
0000
0000
0000
0001
1000
0000
0000
,
0100
1000
0000
0000
0000
0000
0000
0000
,
0010
0001
0011
0000
,
1000
0001
0000
0000
1000
0001
0000
0000
,
1000
0001
0000
0000
1000
0010
0000
0000
,
0100
0001
0100
0001
,
0010
0000
0100
0000
0010
0100
0010
0100
,
0010
0001
0100
0010
,
1000
0100
0010
0001
,
0100
0010
1000
0010
,
0100
0001
0010
0100
,
1000
0100
1000
0000
0010
1000
0010
0000
,
0100
0001
0100
0000
0010
1000
0010
0000
,
1000
0100
1000
0000
0001
0010
0001
0000
,
0100
1000
0100
1000
0100
0000
0010
0000
,
2002
0000
0000
3003
,
0010
0100
0001
0010
0000
0010
0100
0000
,
2200
0000
0000
3300
,
0010
0000
0000
1001
0000
0000
0100
0000
,
0220
0000
0000
0330
,
1000
0000
0000
1100
0000
0000
0010
0000
,
0022
0000
0000
0033
,
2000
0001
0001
3001
,
0100
0000
0100
0000
0001
1000
0000
0000
,
0100
0000
0010
0000
0001
1000
0000
0000
,
1100
0000
0000
1001
0000
0000
0101
0000
,
0000
1000
0001
0000
,
0100
0001
0100
0001
0100
0001
0100
0001
,
1000
0100
0010
0001
,
0100
0001
0010
0100
,
1000
0100
1000
0010
,
0100
0001
0100
0000
0010
1000
0010
0000
,
1000
0100
1000
0000
0010
0100
0010
0000
,
0100
0001
0000
1000
0000
1001
0000
0010
,
0000
1000
0000
1010
0000
0001
0000
0000
,
0010
0100
1000
0100
1000
0100
1000
0100
,
0010
0001
0100
0010
,
0100
0001
0010
0100
,
1000
0010
0100
0001
,
1000
0100
1000
0100
1000
0100
1000
0100
,
0000
0010
0001
0010
0001
0010
0001
0010
,
0100
1000
0001
1000
0001
1000
0001
1000
,
0001
0000
0000
1000
0000
0001
0000
0000
0010
0000
0000
0100
0000
1000
0000
0000
,
0010
0000
0000
0100
0000
0001
0000
0000
0010
0000
0000
0100
0000
0000
1000
0000
,
0000
2002
3003
0010
,
0000
0000
1000
0001
1000
0000
0100
0000
,
0010
0001
0010
0100
,
1000
0100
1000
0010
,
0100
0001
0010
0011
,
0000
1000
0010
0100
,
0001
0010
0100
1000
,
0100
1000
0010
0110
,
0000
0101
0000
0000
1001
0000
1000
0100
,
1000
0000
0010
0000
0100
0000
0001
0010
,
0001
0000
1000
0000
0100
0000
0010
0100
,
0010
0000
0100
0000
1000
0000
0010
0100
,
0010
0100
0010
0100
0001
1000
0001
0000
,
0010
0100
1000
0010
,
0100
0000
0001
0000
0010
0000
0100
1000
,
0100
1000
0010
0100
0010
0100
0001
1000
,
0001
1000
0100
0010
0100
0010
0001
0100
,
0001
0100
0010
1000
0010
1000
2200
0000
,
0000
3300
0000
0000
;
