#TITLE:Electro Rush X8;
#SUBTITLE:;
#ARTIST:OSTER Project;
#TITLETRANSLIT:;
#SUBTITLETRANSLIT:;
#ARTISTTRANSLIT:;
#CREDIT:;
#BANNER:Electro Rush X8-bn.png;
#BACKGROUND:Electro Rush X8.png;
#LYRICSPATH:;
#CDTITLE:;
#MUSIC:Electro Rush X8.ogg;
#OFFSET:0.937;
#SAMPLESTART:98.700;
#SAMPLELENGTH:12.000;
#SELECTABLE:YES;
#BPMS:0.000=260.000,176.000=130.000,208.000=260.000,272.000=130.000,304.000=260.000;
#STOPS:;
#BGCHANGES:;
// cache tags:
#FIRSTBEAT:12.000;
#LASTBEAT:433.000;
#SONGFILENAME:Songs/SSSC PACK/[debit13] - Electro Rush X8/Electro Rush X8.sm;
#HASMUSIC:1;
#HASBANNER:0;
#MUSICLENGTH:117.838;
// end cache tags

//---------------dance-single - debit13----------------
#NOTES:
     dance-single:
     debit13:
     Challenge:
     16:
     1.000,1.000,0.306,0.093,1.000,940.000,36.000,11.000,202.000,0.000:






0000
0000
0000
0000
,
0000
0000
0000
0000
,
0000
0000
0000
0000
,
1000
0000
0001
0000
1000
0000
0001
0000
1000
0000
0001
0000
1000
0010
0100
0000
,
1001
0M00
00M0
0000
00M0
M001
0000
M000
,
0M00
00M0
000M
1000
0M00
00M1
0000
00M0
,
1000
000M
0M00
0000
0M00
M010
0000
000M
,
0M00
00M0
M000
0100
000M
0M00
1001
0M00
,
M011
0000
0M00
1001
0000
00M0
100M
0000
,
0M01
0000
0000
0000
M000
0000
0110
0000
000M
0000
0100
0000
0001
0100
M010
0100
,
0001
0000
0000
0000
0000
0000
M000
0000
0000
0000
0000
0000
0000
0000
0000
0000
0000
0000
0100
0000
0000
0000
0000
0000
0001
0000
0000
0000
1000
0000
0000
0000
0010
0000
0000
0000
0100
0000
0000
0010
0000
0000
1000
0000
0000
0001
0000
0000
,
4000
00M0
000M
3400
00M0
M000
0310
0000
,
M011
0000
1001
0000
0001
0100
M0M0
0100
,
0001
0000
1000
0000
0100
0000
0010
0000
0100
0000
1000
0000
0010
0000
1000
0010
,
0100
0000
1001
0000
0001
0010
M00M
0100
,
0010
0000
0100
0000
0010
0000
0001
0000
0010
0000
0001
0010
0100
0000
1000
0010
,
0100
0000
1001
0000
1000
0010
M00M
0010
,
0100
0000
0001
0000
1000
0000
0010
0000
0100
0000
0010
0000
1000
0000
0100
1000
,
0001
0000
1100
0000
1000
0010
M000
0010
,
0400
0000
0000
0304
0000
0000
1003
0000
,
1010
0000
1001
0000
0001
0100
M0M0
0100
,
0010
0000
1000
0000
0100
0000
0010
0000
0100
0000
0010
0000
0001
0000
1000
0001
,
0100
0000
1001
0000
0001
1000
0MM0
1000
,
0001
0000
0100
0000
0010
0000
1000
0000
0010
0000
1000
0000
0001
0010
0100
1000
,
0001
0000
1001
0000
1000
0010
0M0M
0010
,
0100
0000
0010
0000
0100
0000
0001
0000
1000
0000
0100
0000
0010
0000
0001
0100
,
0010
0000
1000
0000
0010
0000
0100
0000
0001
0100
0010
1000
0001
0100
0010
1000
,
0001
0000
000M
1100
0000
MM00
0011
0000
,
10MM
0100
0010
0001
0100
10M0
0100
0001
,
0010
0100
100M
0100
0010
0001
0M10
1000
,
0010
0100
0010
M001
0010
0001
0100
1000
,
010M
0000
0010
0000
0100
0000
0001
0000
0010
0000
0001
0100
0010
1000
0100
0000
,
1000
0001
0010
0100
1000
00M1
0100
1000
,
0100
0000
0000
0000
0000
0000
0001
0000
0000
M000
0000
0000
0010
0000
0000
0000
0000
0000
0100
0000
0000
0000
0000
0000
1000
0000
0000
0000
0000
0000
0001
0000
0000
0000
0000
0000
1000
0000
0000
0000
0100
0000
0000
0000
0010
0000
0000
0000
,
0001
0000
0000
0100
0000
0000
0001
0000
0010
0000
0100
0000
1000
0000
0000
0100
0000
0000
1000
0000
0100
0000
0010
0000
,
0004
1M00
1000
0403
M010
0010
M301
0010
,
M001
0100
0001
0100
10M0
0100
10M0
0100
,
0001
0010
0001
0010
1M00
0010
1M00
0010
,
0001
0100
0001
0100
M010
0100
M010
0100
,
1000
0000
0100
0000
100M
0000
0100
0000
001M
0000
0100
0000
0010
0100
0001
0000
,
0100
0001
0100
0001
0100
0010
1M1M
0000
,
1MM1
0000
0001
0000
0100
0000
0001
0000
0100
0000
0010
0000
1M00
0001
0010
0001
,
1000
0100
0100
M010
0001
0001
M010
0100
,
0200
0000
100M
0000
13M0
0000
0001
0000
1000
0100
1000
0010
1000
0001
1000
0010
,
1000
0000
0000
1000
0100
0010
0100
1000
0000
0001
0100
0010
0000
1000
0001
1000
,
0010
0100
0010
1000
0000
0001
0100
0010
0000
1000
0100
1000
0001
0100
1000
0100
,
0001
0010
0100
1000
0000
0100
0010
0100
0000
1000
0100
0010
0000
0001
1000
0001
,
0010
0100
0010
0001
0000
1000
0100
0010
0000
0001
0100
0010
1000
0100
0001
0100
,
1000
0010
0100
0001
M000
0001
0100
0010
1000
0100
0010
0001
M000
0001
0010
0100
,
1000
0001
1000
0100
00M0
0100
1000
0100
0010
0001
0100
0001
1000
0001
0010
0100
,
1000
0001
1000
0010
0M00
0010
1000
0100
0010
0001
0010
0001
M000
0001
0010
0100
,
1000
0001
1000
0001
0M00
0001
0010
0100
0010
0110
0110
0000
1001
1001
0000
0101
,
0001
0010
0100
1000
001M
M100
001M
M100
,
0001
1000
0100
1000
0M01
M010
0M01
M010
,
0100
1000
0001
1000
00M1
M100
M001
01M0
,
1000
0000
0000
0100
0000
0000
1000
0000
0000
0100
0000
0000
0010
0000
0000
0100
0000
0000
0010
0000
0100
0000
0001
0000
,
1000
0001
1000
0001
M100
001M
M100
001M
,
1000
0001
0100
0010
100M
01M0
100M
010M
,
0010
0001
0100
0010
1M00
00M1
1M00
00M1
,
1000
0000
0000
0100
0000
0000
0001
0000
0000
0100
0000
0000
1000
0000
0000
0100
0000
0000
0010
0000
0001
0000
1000
0000
,
0010
0100
0001
1000
01M0
M001
01M0
M001
,
0100
1000
0010
0100
M010
0M01
M010
0M01
,
0010
0100
0001
0010
100M
0M10
100M
0M10
,
0001
0000
0000
0100
0000
0000
0010
0000
0000
0100
0000
0000
0001
0000
0000
1000
0000
0000
0001
0000
0010
0000
0100
0000
,
0010
0100
1000
0001
01M0
100M
01M0
100M
,
0100
0010
1000
0100
00M1
M100
00M1
01M0
,
1000
1000
0MM0
0001
0001
MM00
0010
0010
,
M00M
0000
0100
0000
0100
0000
00MM
0000
1000
0000
1000
0000
0MM1
1000
0010
0100
,
0002
0000
M103
0020
0000
1030
020M
0000
,
0310
0002
M000
0013
0100
1000
00M1
0100
,
0002
0000
10M3
0200
0000
1300
002M
0000
,
0130
0000
0002
0000
0M00
0000
0003
1000
0000
1000
1000
0000
01M0
0100
0000
0010
,
0001
0000
0000
0001
M100
0010
0100
0001
0000
1000
0001
1000
00M1
0100
0000
0100
,
0010
0000
0000
1000
001M
1000
0010
0100
0000
0001
0100
0000
00M1
1000
0000
1000
,
0010
0000
0000
0000
0000
0000
0000
0000
0000
0000
0000
0000
0000
0000
0000
0000
0000
0000
0000
0000
0000
0000
0000
0000
0010
0000
0000
0000
0000
0000
0000
0000
0000
0000
0000
0000
0000
0000
0000
0000
0000
0000
0000
0000
0000
0000
0000
0000
M010
0000
0000
0000
0000
0000
0000
0000
0000
0000
0000
0000
0000
0000
0000
0000
0000
0000
0000
0000
0000
0000
0000
0000
0010
0000
0000
0000
0000
0000
0000
0000
0000
0000
0000
0000
0000
0000
0000
0000
0000
0000
0000
0000
0000
0000
0000
0000
0100
0000
0000
0000
0000
0000
0000
0000
0000
0000
0000
0000
0010
0000
0000
0000
0000
0000
0000
0000
0000
0000
0000
0000
0100
0000
0000
0000
0000
0000
0000
0000
0000
0000
0000
0000
0010
0000
0000
0000
0000
0000
0000
0000
0000
0000
0000
0000
M10M
0000
0000
0000
0000
0000
0000
0000
0010
0000
0000
0000
0000
0000
0000
0000
0100
0000
0000
0000
0000
0000
0000
0000
0010
0000
0000
0000
0000
0000
0100
0000
0000
0000
0000
0000
0010
0000
0000
0000
0000
0000
0100
0000
0000
0000
0000
0000
,
M01M
0000
0000
0000
0000
0000
0000
0000
0000
0000
0000
0000
0000
0000
1000
0000
0100
0000
0010
0000
0001
0000
0010
0000
0100
0000
0000
1000
0000
0000
0000
0000
0000
1000
0000
0000
0100
0000
0000
0000
0000
0000
0011
0000
0000
0001
0000
0000
,
M010
0000
01M0
0000
1M00
0000
00M1
1000
,
0M01
0010
M100
0000
001M
0000
0M01
1000
,
00M1
0000
M100
0000
001M
0000
100M
0100
,
001M
0100
100M
0000
00M1
0000
M1M1
0000
,
M11M
0000
010M
0000
00M1
0000
1M00
0001
,
1M00
0010
M100
0000
00M1
0000
10M0
0001
,
01M0
0001
1M00
0000
M001
0010
010M
1000
,
1M01
00M0
00M0
1001
0MM0
M000
0101
0000
,
101M
0000
1000
0000
1000
0100
M000
0100
,
1000
0100
0010
0100
0001
0100
0010
0100
,
1000
0000
0001
0000
0001
0100
000M
0100
,
0001
0010
0100
0010
1000
0010
0100
0010
,
0001
0000
0100
0000
0010
1000
00M0
1000
,
0010
0100
1000
0100
0010
0100
0001
0100
,
0010
0010
0000
10M0
1000
0000
M001
0001
,
0000
0000
010M
0000
0100
0000
0000
0000
0001
0100
0001
0100
0001
0100
0001
0100
,
0001
0010
0100
1000
0001
1000
0100
0010
0001
0010
0100
1000
0001
1000
0100
0010
,
0001
0100
0010
1000
0001
1000
0010
0100
0001
0100
0010
1000
0001
1000
0010
0100
,
0001
0100
0010
0100
0001
1000
0010
1000
0001
1000
0100
1000
0001
0100
0010
0100
,
0001
0010
0100
1000
0100
0010
0001
1000
0001
0010
0100
1000
0100
0010
0001
0100
,
0010
1000
0010
0100
0001
0100
0010
1000
0100
0010
0100
0010
0001
1000
0001
0010
,
0100
1000
0001
1000
0100
0010
0100
0010
0001
1000
0010
0100
0010
1000
0100
0010
,
0100
0010
0001
0100
0010
1000
0001
0010
0100
0010
0001
1000
0100
0010
0100
1000
,
1100
0100
0010
0011
0001
0010
0110
0100
,
1000
0010
0100
0001
1000
0100
0010
0001
1000
0100
1000
0001
0100
0010
0100
0001
,
0010
0100
1000
0001
1000
0100
0010
0100
0010
0001
1000
0010
0100
0010
1000
0001
,
0100
0010
0100
0001
1000
0100
0010
0001
0010
0100
1000
0001
1000
0010
0100
0010
,
1000
0001
0100
0010
0100
0001
0010
0100
1000
0100
0010
0001
1000
0010
0100
0010
,
1000
0100
0010
0001
0010
0100
1000
0001
1000
0010
0100
0010
1000
0001
0100
0010
,
0100
0001
0010
0100
0010
0001
1000
0010
0100
0010
1000
0100
0010
0100
1000
0001
,
0100
0010
0100
0001
1000
0010
0100
0010
1000
0100
0010
0001
0010
0100
1000
0001
,
0100
0010
0100
0010
0100
0010
0100
0010
0100
0010
0100
0010
0100
0010
0100
0020
,
0200
0330
0000
0000
;
