#TITLE:Next Time;
#SUBTITLE:;
#ARTIST:Emotional Joystick;
#TITLETRANSLIT:;
#SUBTITLETRANSLIT:;
#ARTISTTRANSLIT:;
#CREDIT:;
#BANNER:Next Time.png;
#BACKGROUND:Next Time-bg.png;
#LYRICSPATH:;
#CDTITLE:!tear-cdtitle.png;
#MUSIC:Emotional Joystick - Next Time.mp3;
#OFFSET:-12.884;
#SAMPLESTART:25.475;
#SAMPLELENGTH:12.000;
#SELECTABLE:YES;
#BPMS:0.000=152.000;
#STOPS:;
#BGCHANGES:;
// cache tags:
#FIRSTBEAT:0.000;
#LASTBEAT:521.750;
#SONGFILENAME:Songs/Fabulously Fresh Flock of Fantastic Files F5/(Tear) Next Time/Next Time.sm;
#HASMUSIC:1;
#HASBANNER:1;
#MUSICLENGTH:218.880;
// end cache tags

//---------------dance-single - ----------------
#NOTES:
     dance-single:
     :
     Hard:
     12:
     1.000,1.000,1.000,0.064,1.000,1384.000,445.000,14.000,0.000,0.000:  // measure 1
1000
0010
1000
0001
0100
0010
0100
0001
,  // measure 2
1000
0010
1000
0001
0100
0010
0100
0001
,  // measure 3
1000
0010
1000
0001
0100
0010
0100
0001
,  // measure 4
1000
0010
1000
0001
0100
0010
0100
0001
,  // measure 5
1000
0010
1000
0001
0100
0010
0100
0001
,  // measure 6
1000
0010
1000
0001
0100
0010
0100
0001
,  // measure 7
1000
0010
1000
0001
0100
0010
0100
0001
,  // measure 8
1000
0010
1000
0001
0100
0010
0100
0001
,  // measure 9
1001
0000
1000
0000
0010
0000
0100
0001
1000
0000
0010
0000
0110
0000
1000
0100
,  // measure 10
0011
0000
1000
0000
0010
0000
1000
0100
1000
0000
0001
0000
0100
0010
1000
0001
,  // measure 11
1100
0000
0001
0000
0100
0000
0010
0100
0001
0000
1100
0000
0001
0000
1000
0010
,  // measure 12
0101
0000
0000
0000
0000
0000
1000
0000
0000
0000
0000
0000
0100
0000
0000
0010
0000
0000
0001
0000
0000
1000
0000
0000
0010
0000
0000
0000
0100
0000
0000
0000
0001
0000
0000
0000
1000
0000
0000
0000
0100
0000
0000
0000
1000
0000
0000
0000
,  // measure 13
0011
0000
0000
0000
0000
0000
0000
0000
0000
0000
0000
0000
0000
0000
0000
0000
1000
0000
0000
0000
0000
0000
0000
0000
0000
0000
0000
0000
0000
0000
0000
0000
1000
0000
0000
0000
0000
0000
0000
0000
0000
0000
0000
0000
0000
0000
0000
0000
0101
0000
0000
0000
0000
0000
0000
0000
0000
0000
0000
0000
0000
0000
0000
0000
0000
0000
0000
0000
0000
0000
0000
0000
1000
0000
0000
0000
0000
0000
0000
0000
0000
0000
0000
0000
0000
0000
0000
0000
0000
0000
0000
0000
0000
0000
0000
0000
0010
0000
0000
0000
0000
0000
0000
0000
0000
0000
0000
0000
0100
0000
0000
0000
0000
0000
0000
0000
0000
0000
0000
0000
0001
0000
0000
0000
0000
0000
0000
0000
0000
0000
0000
0000
0000
0000
0000
0000
0000
0000
0000
0000
0000
0000
0000
0000
1100
0000
0000
0000
0000
0000
0000
0000
0000
0000
0000
0000
0000
0000
0000
0000
0000
0000
0000
0000
0000
0000
0000
0000
0001
0000
0000
0000
0000
0000
1000
0000
0000
0000
0000
0000
0100
0000
0000
0000
0000
0000
0010
0000
0000
0000
0000
0000
,  // measure 14
0001
0000
1000
0000
0010
0000
0100
0000
0001
0010
0001
0010
0001
0010
0001
0010
,  // measure 15
1100
0000
0001
0000
0010
0000
1100
0000
0001
0000
1010
0000
0100
0000
0001
1000
,  // measure 16
0100
0000
0000
0000
0000
0000
0010
0000
0000
0001
0000
0000
0100
0000
0000
0000
0000
0000
0010
0000
0000
1000
0000
0000
0001
0000
0000
0000
0100
0000
0000
0000
0010
0000
0000
0000
0100
0000
0000
0000
0001
0000
0000
0000
1000
0000
0000
0000
,  // measure 17
0110
0000
0000
0000
0110
0000
0001
1000
0100
1000
0001
0000
0110
0000
2000
0000
,  // measure 18
0000
0000
0000
0000
0010
0000
0000
0000
0000
0000
0010
0000
0000
0000
0000
3000
,  // measure 19
0011
1000
0110
0001
1100
0001
1010
0100
,  // measure 20
1001
0000
1000
0001
1010
0000
0100
0000
1001
0010
0001
0100
0010
1000
0001
0000
,  // measure 21
1100
0000
0000
0000
0001
0000
1010
0100
0001
1000
0100
0000
0011
0000
1000
0010
,  // measure 22
1100
0001
0010
0100
1000
0001
0010
0100
1000
0000
0001
0000
0100
0000
0001
0000
0100
0000
0000
0000
0011
0000
0000
0000
1000
0000
0011
0000
0100
0000
0000
0000
,  // measure 23
1001
0000
0100
0000
0000
0000
0010
0000
0001
0000
0100
0000
0010
0000
1000
0000
0100
0000
1000
0000
0010
0000
0100
0000
0001
1000
0001
1000
0001
1000
0001
1000
,  // measure 24
0110
0000
0110
0000
1010
0000
0101
1000
0010
0000
0100
0000
0011
0000
1000
0010
,  // measure 25
1100
0000
0101
0000
0011
0000
0100
0010
1000
0000
0001
1000
0110
0001
1000
0001
,  // measure 26
1010
0000
0000
0000
1001
0000
0100
0001
1100
0010
1000
0001
1010
0100
0001
0010
,  // measure 27
1100
0000
0001
0100
1010
0000
0001
0010
0001
0000
0101
1000
0010
1001
0000
1000
,  // measure 28
1001
0000
1000
0100
0011
0000
1000
0110
0110
0000
1001
0100
0010
1001
0000
1000
,  // measure 29
1001
0000
0110
0000
1001
0000
0100
0010
1001
0000
0010
0000
1100
0000
0001
1000
,  // measure 30
0110
0000
0000
1001
0000
0000
1100
0000
0000
0001
0000
0000
0011
0000
0000
0000
1000
0000
0000
0000
0100
0000
0000
0000
,  // measure 31
1001
0000
0100
0010
0000
1000
0001
0010
0001
0000
0100
0000
0010
1000
0010
1000
,  // measure 32
0101
0000
0000
0000
1000
0000
0100
0010
0001
0000
0000
0000
1010
0000
0000
0000
0001
0000
0000
0000
0100
0010
1000
0000
0001
0000
0010
0000
0000
0000
0001
0000
,  // measure 33
0101
0000
0010
0000
1100
0001
0010
0000
0110
0000
1000
0000
0010
1001
0100
0000
,  // measure 34
1001
0000
0000
0000
0000
0000
0000
0000
0000
0000
0000
0000
1001
0000
0000
0000
0000
0000
0000
0000
0000
0000
0000
0000
1001
0000
0000
0000
0000
0000
0000
0000
0000
0000
0000
0000
1001
0000
0000
0000
0000
0000
0000
0000
0000
0000
0000
0000
1001
0000
0000
0000
0000
0000
0000
0000
0000
0000
0000
0000
0000
0000
0000
0000
0000
0000
0000
0000
0000
0000
0000
0000
0100
0000
0000
0000
0000
0000
0000
0000
0000
0000
0000
0000
0010
0000
0000
0000
0000
0000
0000
0000
0000
0000
0000
0000
1001
0000
0000
0000
0000
0000
0000
0000
0000
0000
0000
0000
0000
0000
0000
0000
0000
0000
0000
0000
0000
0000
0000
0000
1010
0000
0000
0000
0000
0000
0000
0000
0000
0000
0000
0000
0000
0000
0000
0000
0001
0000
0000
0000
0000
0000
0000
0000
0000
0000
0000
0000
0000
0000
0000
0000
0100
0000
0000
0000
0000
0000
0000
0000
0000
0000
0000
0000
0000
0000
0000
0000
1010
0000
0000
0000
0000
0000
0001
0000
0000
0000
0000
0000
0010
0000
0000
0000
0000
0000
0100
0000
0000
0000
0000
0000
,  // measure 35
1000
0000
0000
0000
1001
0000
0000
1000
0110
0001
0110
1000
0011
0000
0100
0000
,  // measure 36
1010
0000
0001
0000
0110
0000
1000
0000
0100
0010
1001
0000
0100
0000
0010
1000
,  // measure 37
0011
0000
0000
0000
0100
0000
0010
0000
1100
0000
0000
0000
0001
0000
0000
0000
1100
0000
0000
0000
0001
0000
0100
0000
0010
0000
0000
0000
1000
0100
0010
0001
,  // measure 38
0200
0000
0000
0300
0110
0000
0110
0000
0000
0000
0110
0000
0110
1001
0000
0000
,  // measure 39
0110
0000
0000
0000
1100
0000
0001
0010
0100
1000
0110
0000
1001
0100
0010
0001
,  // measure 40
0110
0000
0000
0000
1000
0000
0000
0000
0011
0000
1000
0000
0010
0000
0100
0000
0000
0000
0000
0000
1001
0000
0000
0000
1000
0100
0010
1001
0100
0010
0001
1000
,  // measure 41
0110
0000
0001
0000
1010
0000
0100
0000
1001
0000
1000
0100
0011
0000
1000
0000
,  // measure 42
0110
0000
0000
0000
1001
0000
0000
0000
0110
0000
0000
0000
1000
0000
0000
0000
0001
0000
0100
0000
0010
0000
0000
0000
1001
0000
0000
0000
1000
0100
0010
0001
,  // measure 43
0100
0000
0010
0100
0011
0000
1000
0001
0110
0000
1000
0100
0011
0000
0100
0010
,  // measure 44
1001
0000
0000
0000
1100
0000
0000
0000
1001
0000
0000
0000
0100
0000
0010
0000
1001
0000
0000
0000
0010
0000
0000
0000
1100
0000
0000
0000
0001
0010
0100
1000
,  // measure 45
0010
0000
0110
0001
1000
0000
0110
1000
0001
0000
1010
0100
0011
0000
0101
0010
,  // measure 46
1100
0000
0001
0000
1010
0000
0100
0001
1100
0000
0001
0000
1010
0000
0100
0010
,  // measure 47
1001
0000
0100
0000
0011
1000
0100
0000
1000
0100
0010
0001
0110
0110
0110
0110
,  // measure 48
0110
0000
0001
1000
0110
0000
0001
0010
1100
0000
0001
0000
1010
0000
0101
0000
,  // measure 49
1100
0000
0000
0000
0000
0000
0010
0000
0000
0000
0000
0000
1001
0000
0000
0000
0000
0000
0100
0000
0000
0010
0000
0000
1000
0000
0000
0100
0000
0000
0010
0000
0000
0001
0000
0000
1000
0000
0100
0000
1000
0000
0100
0000
1000
0000
0100
0000
,  // measure 50
0011
0000
0000
0000
0000
1001
0110
0000
1000
0000
0011
0000
1000
0000
0110
0000
,  // measure 51
0001
0000
0100
0010
1000
0100
0010
0100
1000
0010
0100
0010
1000
0100
0010
0100
,  // measure 52
1000
0010
1100
0000
0001
0000
1010
0000
0100
0000
0011
0000
1000
0000
0110
0000
,  // measure 53
1001
0000
0001
0010
1100
0000
0001
0000
0101
0000
1000
0100
0011
0000
1000
0000
,  // measure 54
0110
0000
0100
0000
1001
0000
0110
0000
1000
0100
0010
0001
0100
0000
0010
0000
,  // measure 55
1001
0100
0010
1100
1001
0000
0110
0001
1100
0000
0011
0100
1001
0000
0100
0001
,  // measure 56
1100
0000
0010
0000
0000
0000
0000
0000
0110
0000
0000
0000
0001
0010
0100
1000
0001
0010
0100
1000
0001
0010
0100
1000
0011
0000
1000
0000
0110
0000
0110
0000
,  // measure 57
1001
0000
0100
0000
0011
0000
1000
0000
0110
0000
0001
0000
1100
0000
0001
0100
,  // measure 58
0011
0000
1000
0000
0110
0000
0001
0000
1100
0000
0010
0000
0101
0000
1000
0100
,  // measure 59
0011
0000
0000
0000
1000
0000
0100
0000
1000
0000
0010
0000
0100
0001
1000
0100
0011
0000
1000
0000
0011
0000
1000
0000
0101
0000
1000
0000
0100
0000
1000
0000
,  // measure 60
0011
0000
0000
0000
1000
0000
0001
0000
1100
0000
0010
0000
0100
0000
0000
0000
1001
0000
0000
0000
1000
0100
0010
0001
1000
0000
0000
0000
0000
0000
0000
0000
,  // measure 61
1001
0000
0000
0000
0000
0000
0000
0000
0011
0000
0000
0000
1000
0000
0100
0000
1000
0000
0010
0000
0100
0000
0000
0000
1001
0000
0000
0000
0010
1000
0100
0010
,  // measure 62
1001
0100
0010
1001
0010
0100
0010
1001
0010
0100
0010
1001
0110
0110
0110
0110
,  // measure 63
0110
0000
0000
0000
0000
0000
1001
0000
0000
0000
0000
0000
0110
0000
0000
0001
0000
0000
1000
0000
0000
0000
0000
0000
0110
0000
0000
0000
1010
0000
0000
0000
0101
0000
0000
0000
1100
0000
0000
0000
0000
0000
0011
0000
0000
1000
0000
0000
,  // measure 64
0101
0000
0110
0000
1000
0110
1000
0101
1001
0000
0110
0000
1000
0011
0100
0011
,  // measure 65
1001
0000
0000
0000
0000
0000
0110
0000
0000
1000
0000
0000
0001
0000
0010
0000
0000
0000
1100
0000
0000
0000
0000
0000
1001
0000
0000
0000
0000
0000
0100
0000
0000
0000
0000
0000
0011
0000
0000
0000
0000
0000
1000
0000
0000
0100
0000
0000
,  // measure 66
1001
0000
0000
0000
0010
0000
0000
0000
0100
0000
0001
0000
1010
0000
0000
0000
0101
0000
0000
0000
1000
0000
0000
0000
0100
0000
0010
0000
0001
0100
0010
1000
,  // measure 67
0100
0010
1001
0000
0110
0001
1100
0000
1010
0001
0110
0000
1100
0001
1010
0000
,  // measure 68
0110
1000
0011
0000
1001
0100
1001
0000
1010
0000
1010
0000
0101
0010
1000
0000
,  // measure 69
1001
0000
0100
0000
0011
0000
1000
0000
0101
0000
0010
0000
1100
0000
0001
0100
,  // measure 70
1010
0000
0001
0000
1100
0000
0001
0000
0101
1000
0100
1000
0110
0000
0001
1000
,  // measure 71
0101
1000
0001
0010
1100
0001
0100
0010
1001
0000
1001
0000
1001
0000
1001
0000
,  // measure 72
1001
0000
0000
0100
0000
0000
0010
0000
0000
0000
0000
0000
1001
0000
0000
0100
0000
0000
0010
0000
0001
0000
0000
0000
1010
0000
0000
0000
0001
0000
0000
0000
0100
0000
0000
0000
0010
0000
0000
1000
0000
0000
0100
0000
0000
1000
0000
0000
,  // measure 73
0012
0000
0000
0000
,  // measure 74
0203
0000
0320
0000
,  // measure 75
2030
0000
0000
0000
,  // measure 76
0000
0000
0000
0000
,  // measure 77
3200
0000
0000
0000
,  // measure 78
0320
0000
0032
0000
,  // measure 79
0203
0000
0000
0000
,  // measure 80
0320
0000
0000
0000
0000
0000
0000
0000
0000
0000
0000
0000
0000
0000
0000
0000
0000
0000
0000
0000
0000
0000
0000
0000
1030
0000
0100
0000
1000
0100
1000
0100
,  // measure 81
0011
0000
0000
0000
0011
0000
0000
0000
0101
0000
0000
0000
1010
0000
0001
0000
1100
0000
0000
0000
0011
0000
0000
0000
1001
0000
0000
0000
0100
0010
0100
0000
,  // measure 82
1001
0000
0000
0000
1001
0000
0000
0000
0110
0000
0000
0000
0011
0000
1000
0000
0101
1000
0100
0000
0000
0000
0010
0001
0010
0000
0100
0000
1000
0100
1000
0100
,  // measure 83
0011
0000
0011
0000
1001
0000
0100
0010
1001
0000
0100
0000
0011
0000
1000
1000
,  // measure 84
0110
0000
0000
0000
0000
0000
0001
0000
0000
0010
0000
0000
0001
0000
0000
0001
0000
0000
0100
0000
0000
0010
0000
0000
1001
0000
0000
0000
0110
0000
0000
0000
1001
0000
0000
0000
0110
0000
0000
0000
0000
0000
2000
0000
0000
3000
0000
0000
,  // measure 85
1001
0000
0000
0000
0000
0000
0000
0000
0000
0000
0000
0000
0000
0000
0000
0000
0100
0000
0000
0000
0000
0000
0000
0000
0000
0000
0000
0000
0000
0000
0000
0000
0010
0000
0000
0000
0000
0000
0000
0000
0000
0000
0000
0000
0000
0000
0000
0000
1001
0000
0000
0000
0000
0000
0000
0000
0000
0000
0000
0000
0000
0000
0000
0000
0000
0000
0000
0000
0000
0000
0000
0000
0110
0000
0000
0000
0000
0000
0000
0000
0000
0000
0000
0000
0000
0000
0000
0000
0000
0000
0000
0000
0000
0000
0000
0000
1001
0000
0000
0000
0000
0000
0000
0000
0000
0000
0000
0000
0100
0000
0000
0000
0000
0000
0000
0000
0000
0000
0000
0000
0010
0000
0000
0000
0000
0000
0000
0000
0000
0000
0000
0000
0100
0000
0000
0000
0000
0000
0000
0000
0000
0000
0000
0000
1001
0000
0000
0000
0000
0000
0000
0000
0000
0000
0000
0000
0000
0000
0000
0000
0000
0000
0000
0000
0000
0000
0000
0000
1000
0000
0000
0000
0000
0000
0100
0000
0000
0000
0000
0000
1000
0000
0000
0000
0000
0000
0000
0000
0000
0000
0000
0000
,  // measure 86
0011
0000
0011
0000
0011
0000
0011
0000
0001
0100
0010
0100
0001
1000
0100
1000
,  // measure 87
0011
0000
0000
0000
0101
0000
1001
0000
0000
0000
0110
0000
1000
0000
0001
0100
,  // measure 88
0011
0000
0000
1000
0000
0000
0100
0000
0000
1000
0000
0000
0110
0000
0000
0001
0000
0000
0100
0000
0000
0001
0000
0000
1100
0000
0000
0000
1010
0000
0000
0000
0101
0000
0000
0000
1001
0000
0000
0000
0011
0000
0000
0000
0110
0000
0000
0000
,  // measure 89
1001
0000
0000
0000
0000
0000
0000
0000
0110
0000
0000
0000
1000
0000
0100
0000
1010
0000
0001
0000
0100
0000
0010
0000
1001
0000
0000
0000
0100
0010
0100
0000
,  // measure 90
1002
0000
0000
0000
0000
0000
0000
0000
0000
0000
0000
0000
0000
0000
0000
0003
,  // measure 91
1100
0000
0011
0000
1001
0000
0110
0001
1100
0000
1001
0000
1010
0000
0101
0000
,  // measure 92
0101
0000
1010
0100
0011
0000
1100
0000
0011
1000
0100
1000
0010
0100
0010
1000
,  // measure 93
0120
0000
0000
0000
0000
0000
0000
0000
1030
0000
0000
0000
0001
0000
0010
0000
0001
0000
0100
0000
0010
0000
1000
0000
1000
0000
0000
0000
0001
0010
0001
0000
,  // measure 94
1000
0010
1000
0010
1000
0010
1000
0010
1000
0000
0010
0000
0100
0000
0001
0000
0010
0000
0000
0000
0100
0000
0000
0000
1000
0000
0001
0000
0110
0000
0110
0000
,  // measure 95
1001
0000
0000
0000
0110
0000
0001
0000
1000
0000
0000
0000
0011
0000
1000
0000
0100
0000
0000
0000
0010
0000
0001
0000
1000
0001
1000
0001
1000
0001
1000
0001
,  // measure 96
0110
0000
1010
0000
0101
0000
1000
0100
0011
0000
1010
0000
0001
0100
0001
0010
,  // measure 97
1100
0000
0000
0000
,  // measure 98
0000
0000
0000
0000
,  // measure 99
1001
0000
1000
0000
1001
0000
1000
0000
1000
0000
1001
0000
1000
0000
1000
0100
,  // measure 100
1001
0000
1000
0000
1001
0000
1000
0000
1000
0000
1001
0000
1000
0000
1000
0100
,  // measure 101
1001
0000
0000
0000
0100
0000
0010
0000
0001
0000
1000
0000
0010
0100
0010
0100
1001
0000
0010
0000
1001
0000
0010
0000
0100
0000
0010
0000
1000
0000
0100
0000
,  // measure 102
0011
0000
0000
0000
1000
0000
0010
0000
1100
0000
0001
0000
0010
0000
0100
0000
1000
0000
0000
0000
0010
0100
0001
0010
0100
0000
0000
0000
0000
0000
0000
0000
,  // measure 103
0110
0000
0000
0000
0100
0000
0000
0000
0110
0000
0000
0000
1000
0000
0001
0000
0100
0000
0010
0000
1000
0000
0000
0000
0110
0000
0000
0000
0001
1000
0100
0010
,  // measure 104
0001
0000
1000
0100
1000
0000
0100
1000
0100
0000
1000
0100
1000
0010
0100
0001
,  // measure 105
1100
0000
0000
0000
0000
0000
0001
0000
0000
0000
0000
0000
1010
0000
0000
0001
0000
0000
0100
0000
0000
0000
0000
0000
0011
0000
0000
0000
0011
0000
0000
0000
0011
0000
0000
0000
0011
0000
0000
0000
0000
0000
0100
0000
0000
0010
0000
0000
,  // measure 106
1001
0000
0100
0000
0011
1000
0100
1001
0010
0000
0110
0000
0001
0100
0010
0000
,  // measure 107
1001
0000
0100
0000
0010
0001
1100
0001
0100
0000
0010
0000
0110
0000
0001
1000
,  // measure 108
0110
0000
0000
0000
1000
0000
0000
0000
0011
0000
1000
0000
0110
0000
0001
0000
1000
0000
0000
0000
0001
0000
0000
0000
0100
0000
0010
0000
1000
0001
1000
0001
,  // measure 109
0110
1000
0101
0000
0011
0100
1010
0000
1100
0001
0110
0000
1001
0100
0011
0000
,  // measure 110
0110
1000
0011
0000
1010
0100
1001
0000
0100
0000
0100
0000
0010
0100
0000
0000
,  // measure 111
0011
0000
1000
0000
0110
0000
1001
0100
1001
0000
0100
0000
1010
0000
0001
0100
,  // measure 112
0011
0000
1000
0000
1100
0000
0110
0000
0001
1000
0100
1000
0010
0000
0100
0010
,  // measure 113
1001
0000
0100
0010
1001
0000
0100
0010
1001
0000
1001
0000
1001
0000
1001
0000
,  // measure 114
1001
0000
0000
0100
0000
0000
0010
0000
0000
0000
0000
0000
1001
0000
0000
0000
0100
0000
0000
0000
0010
0000
0000
0000
1100
0000
0000
0000
0001
0000
0000
0000
0100
0000
0000
0000
0010
0000
0000
0000
0000
0000
1000
0000
0000
0100
0000
0000
,  // measure 115
1001
0000
0000
0000
0110
0000
1000
0000
0011
0000
1000
0010
1001
0000
0100
0000
,  // measure 116
1010
0000
0000
0000
1010
0000
0000
0000
1001
0000
0000
0000
0100
0000
0000
0000
0001
0000
0010
0000
0001
0000
0000
0000
1100
0000
0000
0000
0010
1000
0100
0010
,  // measure 117
0001
0000
1000
0010
1100
0000
0001
0100
0011
0000
1000
0100
0011
0000
1000
0001
,  // measure 118
0110
0000
0000
0000
1000
0000
0000
0000
0101
0000
0000
0000
0010
0000
1000
0000
0011
0000
0000
0000
0100
0000
0010
0000
1001
0000
0000
0000
0010
1000
0100
0010
,  // measure 119
0001
0000
1000
0010
0100
0000
0001
0010
1100
0000
1100
0000
1100
0000
1100
0000
,  // measure 120
1001
0000
0100
0000
1010
0000
0100
0010
1001
0000
0100
0000
0011
0000
1000
0010
,  // measure 121
1100
0000
0011
0000
0110
0001
1000
0000
0011
0000
1000
0100
0010
0001
0100
0010
,  // measure 122
1001
0100
1010
0100
0011
0100
1001
0100
,  // measure 123
1010
0000
0000
0000
0101
0000
0000
0000
1100
0000
0000
0000
0001
0000
0100
0000
0011
0000
1000
0000
0010
0000
0100
0000
0001
1000
0001
1000
0001
1000
0001
1000
,  // measure 124
0110
0000
0000
0000
0000
1100
1100
0000
0011
0000
1001
0000
0100
0000
1010
0011
,  // measure 125
1000
0100
0000
0011
1000
0100
0000
0011
1000
0100
0000
0011
1000
0100
0011
0100
,  // measure 126
1001
0110
1001
0110
1001
0110
1001
0110
,  // measure 127
1001
0000
0000
0100
1001
0000
0100
0000
0011
0000
0000
0100
1001
0000
0010
0000
,  // measure 128
1100
0000
0001
0000
0110
0000
0110
0000
0001
1000
0100
0010
0001
0100
0010
0100
,  // measure 129
1001
0000
0000
0100
0000
0000
0010
0000
0000
0100
0000
0000
1001
0000
0000
0100
0000
0000
0010
0000
0000
1000
0000
0000
0011
0000
0000
0000
0000
0000
0011
0000
0000
0100
0000
0000
0011
0000
0000
0000
0000
0000
1000
0000
0100
0000
0010
0000
,  // measure 130
0001
0000
1000
0000
0010
0000
0100
0000
0010
0000
1000
0000
0100
0010
0001
1000
0100
0010
0001
1000
0100
0010
0001
1000
0010
0000
0100
0000
0010
0000
0100
0000
,  // measure 131
0010
0100
0010
0100
0010
0100
0010
0100
0000
0000
0000
0000
0000
0000
0000
0000
;
