#TITLE:Holy Forest;
#SUBTITLE:;
#ARTIST:Sarastro;
#TITLETRANSLIT:;
#SUBTITLETRANSLIT:;
#ARTISTTRANSLIT:;
#CREDIT:;
#BANNER:HolyForest.PNG;
#BACKGROUND:HolyForest-BG.PNG;
#LYRICSPATH:;
#CDTITLE:GMTitle.PNG;
#MUSIC:26.Symphonic Metal - Holy Forest.mp3;
#OFFSET:0.000;
#SAMPLESTART:65.200;
#SAMPLELENGTH:13.000;
#SELECTABLE:YES;
#DISPLAYBPM:185.000;
#BPMS:0.000=185.000;
#STOPS:;
#BGCHANGES:;
// cache tags:
#FIRSTBEAT:4.000;
#LASTBEAT:331.500;
#SONGFILENAME:Songs/Ace Megapack/HOLY_FOREST/HolyForest.sm;
#HASMUSIC:1;
#HASBANNER:1;
#MUSICLENGTH:113.247;
// end cache tags

//---------------dance-single - ----------------
#NOTES:
     dance-single:
     :
     Hard:
     9:
     0.713,0.695,0.848,0.221,0.097,444.000,96.000,25.000,0.000,0.000:
0000
0000
0000
0000
,
0002
0000
1003
0101
,
1010
1100
0001
0110
,
1100
0101
1000
0011
,
1001
0101
0010
0110
,
1100
0011
0100
1010
,
1100
0101
1000
1100
,
0101
0011
0100
1010
,
1001
0000
0101
0000
1000
0001
0001
1000
,
0010
0010
1100
0000
0001
0011
0000
0000
,
1000
1100
0000
0000
0110
0000
0010
0200
,
0000
0300
0000
0000
2000
0000
3020
0000
,
0230
0000
0302
0000
2003
0000
3100
0020
,
0000
0030
0000
0000
1001
0000
1001
0000
,
1001
0000
0010
0000
0001
0000
0001
0200
,
0000
0300
0000
0000
0010
1000
0000
0100
,
0000
0001
0000
0010
0000
1000
0000
0001
,
0000
0010
0100
0000
1000
1010
0000
0000
,
0001
0101
0000
0000
1001
0000
1000
0002
,
0000
0003
0000
0000
2000
0000
3020
0000
,
0230
0000
0302
0000
2003
0000
3100
0020
,
0000
0030
0000
0000
1010
0000
1010
0000
,
1010
0000
0001
0000
0100
0000
0100
0020
,
0000
0030
0000
0000
0100
0001
0000
1000
,
0000
0010
0000
0100
0000
1000
0000
0001
,
0000
0100
0010
0000
1000
0010
0100
0000
,
0001
0010
0100
0000
1000
0001
0100
0000
,
0010
1000
0001
0000
0010
0100
1000
0000
,
0001
0100
0010
0000
1000
0001
0010
0100
,
1000
0001
0100
0010
1000
0010
0100
0000
,
0001
1000
0100
0000
0010
0001
0100
0000
,
0010
1000
0001
0000
0100
0010
1000
0000
,
0100
0010
0001
0000
0100
0001
0010
0000
,
0100
1000
0001
0001
0010
0000
1100
0000
,
1100
1100
0010
0101
,
0101
0101
0010
0110
,
0110
0110
0010
1001
,
1001
1001
0100
0011
,
0011
0011
0100
1010
,
1010
1010
0100
0110
,
0110
0000
0110
0000
0001
1000
0010
0100
,
0001
1000
0100
0010
0001
0010
0100
1000
,
0001
0100
0010
1000
0002
0000
1003
0010
,
0100
0010
1001
0000
1100
0000
0001
0100
,
0010
0100
1001
0000
0101
0000
0010
0001
,
0200
0010
0310
1000
,
0001
0000
1000
0000
0001
0000
0100
0010
,
1000
0001
1001
0000
0101
0000
1000
0001
,
0100
0010
1001
0000
1010
0000
0101
0000
,
0011
0000
1100
0000
0001
0100
0010
1000
,
0001
0100
0010
1000
1100
0000
0001
0100
,
0010
0100
1001
0000
0011
0000
1000
0010
,
0100
0010
1001
0000
1010
0000
0100
1000
,
0020
0100
0130
0001
,
1000
0001
1000
0010
,
1100
1100
0110
0011
,
0011
1001
0102
1000
,
0010
1000
0103
0010
,
1000
0000
0001
0000
1000
0010
0100
0100
,
0001
1000
0100
0000
0010
0001
0100
0010
,
1000
0100
0010
0100
1000
0001
0100
0001
,
0010
0001
0100
0100
0010
1000
0001
0100
,
0010
1000
0100
0010
1001
0000
1010
0000
,
1001
1100
0110
1100
,
0110
0000
0000
0000
0101
0000
0000
0000
1001
0000
0000
1000
0100
0000
0000
0001
,
0100
0000
0000
1000
0100
0000
0010
0000
1001
0000
0000
0001
0010
0000
0000
1000
,
0010
0000
0000
0001
0010
0000
0100
0000
1001
0000
0000
0100
0010
0000
0000
0010
,
0100
0000
0000
0100
0010
0000
1000
0000
1001
0000
0000
0010
0100
0000
0000
0100
,
0010
0000
0000
0010
0100
0000
0001
0000
1001
0000
0000
1000
0100
0000
0000
0001
,
0100
0000
0000
1000
0100
0000
0010
0000
1001
0000
0000
0001
0010
0000
0000
1000
,
0010
0000
0000
0001
0010
0000
0100
0000
2000
0000
0000
0000
0100
0000
0000
0000
,
0001
0000
0000
0000
0010
0000
0000
0000
3100
0000
0000
0001
0100
0000
0000
0001
,
0100
0000
0000
1000
0100
0000
0001
0000
0002
0000
0000
0000
0010
0000
0000
0000
,
1000
0000
0100
0000
0013
1000
0010
0100
,
0001
1000
0010
0100
0001
1000
0001
0010
,
0001
0100
0001
1000
0001
0010
0001
0100
,
0001
1000
0010
0100
1000
0010
1000
0001
,
1000
0100
1000
0001
1000
0010
1000
0100
,
1000
0001
1000
0010
0100
0001
1000
0000
,
0000
0000
1000
0001
1000
0000
0000
0000
0110
0000
0000
0000
2002
0000
0000
0000
,
0000
0000
3003
0000
0010
1000
0001
0100
,
0010
1000
0001
0100
0010
1000
0100
0010
,
0100
1000
0100
0010
0100
0100
1001
1001
;

//---------------dance-single - ----------------
#NOTES:
     dance-single:
     :
     Challenge:
     10:
     1.000,1.000,1.000,0.097,0.706,751.000,169.000,11.000,0.000,2.000:
0000
0000
0000
0000
,
0001
0010
0001
0010
0001
0010
0100
1000
0101
0000
0010
0000
1100
0000
0010
0000
,
1100
0010
0101
1000
1100
0001
1010
0001
,
1010
0001
1100
1000
0011
1000
0101
1000
,
0101
1000
0011
0001
1010
0100
0011
0100
,
0011
0100
1010
0001
0011
1000
0101
1000
,
0101
1000
0011
0001
1100
0001
1010
0001
,
1010
0001
1100
0010
0101
0010
1100
0010
,
1100
0000
0010
0000
0101
0000
1000
0000
0100
0010
0001
0010
0100
1000
0100
0010
,
0100
1000
0100
0010
0001
0010
0100
1000
0101
0000
0101
0000
0000
0000
0000
0000
,
1010
1010
0000
0000
1001
0000
0101
1100
,
0000
0100
0011
0000
1000
0000
0110
0000
,
0001
0001
1100
0000
0011
0000
0100
0101
,
0000
1000
1010
0000
0001
0000
1010
0000
,
0001
0001
1100
0000
0101
0000
1000
0110
,
0000
0010
0101
0000
0001
1100
0000
0101
,
0000
0110
0000
1010
0000
0101
0000
0110
,
0000
0000
1010
0000
1000
0100
1000
0100
1010
0000
1010
0000
0000
0000
0000
0000
,
0101
0101
0000
0000
1001
0000
1010
0011
,
0000
0010
1100
0000
0001
0000
0110
0000
,
1000
1000
0011
0000
1100
0000
0010
1010
,
0000
0001
0101
0000
1000
0000
0101
0000
,
1000
1000
0011
0000
1010
0000
0001
0110
,
0000
0100
1010
0000
1000
0011
0000
1010
,
0000
0110
0000
0101
0000
1010
0000
0110
,
0000
0000
0101
0000
0001
0010
0001
0010
0100
1000
0010
0100
0001
0000
0001
0010
,
0100
1000
0010
0100
0001
0000
1000
0100
0010
0001
0100
0010
1000
0000
1000
0100
,
0010
0001
0100
0010
1000
0000
0001
0010
0100
1000
0010
0100
0001
0000
0001
0010
,
0100
1000
0010
0100
0001
0000
0001
0010
0100
1000
0100
0010
0100
1000
0100
0010
,
0001
0010
0100
1000
0010
0100
0001
0100
0010
1000
0100
1000
0100
0000
0001
0100
,
0010
1000
0100
1000
0100
0000
1000
0010
0100
0001
0010
0001
0010
0000
1000
0010
,
0100
0001
0010
0001
0010
0000
0010
0100
1000
0001
0100
0001
0100
0000
0010
0100
,
1000
0001
0100
0001
0100
0000
0001
0100
0010
1000
0100
1000
0100
0000
0001
0000
,
1000
0000
0010
0000
0100
0001
0100
0001
0100
0000
0010
0000
1010
0000
0100
0000
,
1010
0100
1010
0100
0001
0100
0101
0010
,
0101
0010
0101
0010
0100
1000
1010
0100
,
1010
0100
1010
0100
0001
0100
0101
0010
,
0101
0010
0101
0010
0001
1000
0011
1000
,
0011
1000
0011
1000
0100
1000
1100
0001
,
1100
0001
1100
0001
1000
0010
0011
1000
,
0011
0000
1000
0000
0011
0000
1000
0000
0010
1000
0001
0100
0010
1000
0100
0010
,
0100
1000
0010
0100
0001
0010
0100
0010
0001
0100
0010
1000
0100
1000
0010
0100
,
0001
1000
0100
1000
0010
0100
0001
0010
1100
0000
1000
0000
0001
0000
1000
0000
,
1001
1000
1100
0010
0011
0001
1000
0001
,
1001
0001
0011
0100
1100
1000
0001
1000
,
1100
1000
0001
1000
0011
0100
0001
0100
,
0101
0010
1010
0100
1100
1000
1000
1000
,
1000
1000
1100
0100
0011
0001
0001
0001
,
0001
0001
0011
0010
1100
1000
1000
1000
,
1000
1000
1000
1000
1000
1000
1000
1000
,
1000
0100
0010
0001
0010
0100
1000
0010
1010
0000
0010
0000
0100
0000
0010
0000
,
0110
0010
1010
0001
0101
0100
0010
0100
,
0110
0100
0101
1000
1010
0010
0100
0010
,
1010
0010
0100
0010
0101
1000
0100
1000
,
1100
0001
0011
1000
0101
0010
1000
0001
,
0101
0010
1010
0100
1100
0010
0011
0001
,
0101
0010
1010
0100
1002
0010
0010
0010
,
0010
1000
1003
1000
1100
0100
0110
0010
,
0011
0001
0101
1020
0100
0100
1000
1000
,
0100
1000
0100
0000
1000
0100
0100
0100
,
1000
0100
1000
0130
0010
0001
0010
0100
,
1000
0010
0100
1000
0100
0010
0001
0010
,
0100
1000
0100
1000
0011
0010
1100
0100
,
0110
0010
0101
0100
1100
0010
0011
0100
,
1001
0000
0010
0000
0110
0000
0100
0000
1001
0000
1000
0100
0001
0000
1000
0100
,
0001
0000
1000
0100
0001
0000
0011
0000
1100
0000
0001
0100
1000
0000
0001
0100
,
1000
0000
0001
0100
1000
0000
0010
0000
0110
0000
1000
0100
0001
0000
1000
0100
,
0001
0000
1000
0100
0001
0000
0011
0000
1100
0000
0001
0100
1000
0000
0001
0100
,
1000
0000
0001
0100
1000
0000
0100
0000
0011
0000
0100
0001
0010
0000
0100
0001
,
0010
0000
0100
0001
0010
0000
0101
0000
1010
0000
1000
0010
0100
0000
1000
0010
,
0100
0000
1000
0010
0100
0001
0010
0100
1002
0000
0000
0000
0200
0000
0300
0000
,
0020
0000
0030
0000
0200
0000
0300
0000
1103
0000
1000
0010
0100
0000
1000
0010
,
0100
0000
1000
0010
0100
0000
0101
0000
2001
0000
0000
0000
0020
0000
0030
0000
,
0200
0300
0020
0030
3011
0010
1100
0100
,
0101
0000
0010
0000
1010
0000
0100
0000
1000
0010
0100
0010
1000
0100
1000
0010
,
0100
0001
0010
0001
0100
0010
1000
0001
0010
0100
0010
0001
1000
0010
0100
0010
,
1000
0100
0010
0001
1000
0100
0010
0001
0001
0100
0010
0100
0001
0010
0001
0100
,
0010
1000
0100
1000
0010
0100
0001
1000
0100
0010
0100
1000
0001
0100
0010
0100
,
0001
0010
0100
1000
0001
0010
0100
1000
0100
0001
0100
0001
0100
0000
0000
0000
,
0000
0000
0000
1000
0100
0010
0001
0000
0000
0000
0000
0000
0101
0000
0000
0000
0000
0000
2001
0000
0000
0000
0000
0000
,
0000
0000
0010
0000
3010
0000
0010
0000
0001
0010
0100
1000
0001
0010
0100
1000
,
0001
0010
0100
1000
0001
0010
0100
1000
1000
0100
0010
0001
1000
0100
0010
0001
,
1000
0100
0010
0001
1000
0100
0010
0001
1001
0000
1000
0010
1001
0000
1001
0000
;
