#TITLE:Fasten Your Seatbelt;
#SUBTITLE:;
#ARTIST:Pendulum ft. The Freestylers;
#TITLETRANSLIT:;
#SUBTITLETRANSLIT:;
#ARTISTTRANSLIT:;
#CREDIT:;
#BANNER:fastenyourseatbeltbn.png;
#BACKGROUND:fastenyourseatbeltbg.png;
#LYRICSPATH:;
#CDTITLE:;
#MUSIC:fastenyourseatbelt.ogg;
#OFFSET:0.009;
#SAMPLESTART:118.260;
#SAMPLELENGTH:13.910;
#SELECTABLE:YES;
#BPMS:0.000=138.000,127.000=69.000,128.000=138.000,302.000=69.000,303.000=138.000;
#STOPS:;
#BGCHANGES:;
// cache tags:
#FIRSTBEAT:32.000;
#LASTBEAT:372.000;
#SONGFILENAME:Songs/Pendulum/Fasten Your Seatbelt/fastenyourseatbelt.sm;
#HASMUSIC:1;
#HASBANNER:1;
#MUSICLENGTH:163.500;
// end cache tags

//---------------dance-single - I. Pyles----------------
#NOTES:
     dance-single:
     I. Pyles:
     Beginner:
     1:
     0.017,0.028,0.000,0.000,0.000,20.000,0.000,0.000,0.000,0.000:

0000
0000
0000
0000
,
0000
0000
0000
0000
,
0000
0000
0000
0000
,
0000
0000
0000
0000
,
0000
0000
0000
0000
,
0000
0000
0000
0000
,
0000
0000
0000
0000
,
0000
0000
0000
0000
,
0001
0000
0000
0000
,
0000
0000
0000
0000
,
0000
0000
0000
0000
,
0000
0000
0000
0000
,
1000
0000
0000
0000
,
0000
0000
0000
0000
,
0000
0000
0000
0000
,
0000
0000
0000
0000
,
0010
0000
0000
0000
,
0000
0000
0000
0000
,
0000
0000
0000
0000
,
0000
0000
0000
0000
,
0001
0000
0000
0000
,
0000
0000
0000
0000
,
0000
0000
0000
0000
,
0000
0000
0000
0000
,
0010
0000
0000
0000
,
0000
0000
0000
0000
,
0000
0000
0000
0000
,
0000
0000
0000
0000
,
0001
0000
0000
0000
,
0000
0000
0000
0000
,
0000
0000
0000
0000
,
0000
0000
0000
0000
,
0000
0000
0000
0000
,
0000
0000
0000
0000
,
0000
0000
0000
0000
,
0000
0000
0000
1000
,
0000
0000
0000
0000
,
0000
0000
0000
0000
,
0000
0000
0000
0000
,
0000
0000
0000
1000
,
0000
0000
0000
0000
,
0000
0000
0000
0000
,
0000
0000
0000
0000
,
0000
0000
0000
0010
,
0000
0000
0000
0000
,
0000
0000
0000
0000
,
0000
0000
0000
0000
,
0000
0000
0000
0010
,
0000
0000
0000
0000
,
0000
0000
0000
0000
,
0000
0000
0000
0000
,
0000
0000
0000
1000
,
0000
0000
0000
0000
,
0000
0000
0000
0000
,
0000
0000
0000
0000
,
0000
0000
0000
1000
,
0000
0000
0000
0000
,
0000
0000
0000
0000
,
0000
0000
0000
0000
,
0000
0000
0000
0010
,
0000
0000
0000
0000
,
0000
0000
0000
0000
,
0000
0000
0000
0000
,
0000
0000
0000
0010
,
0000
0000
0000
0000
,
0000
0000
0000
0000
,
0000
0000
0000
0000
,
0000
0000
0000
0100
,
0000
0000
0000
0000
,
0000
0000
0000
0000
,
0000
0000
0000
0000
,
0000
0000
0000
0001
,
0000
0000
0000
0000
,
0000
0000
0000
0000
,
0000
0000
0000
0000
,
0000
0000
0000
0000
,
0000
0000
0000
0000
,
0000
0000
0000
0000
,
0000
0000
0000
0000
,
0000
0000
0100
0000
,
0000
0000
0000
0000
,
0000
0000
0000
0000
,
0000
0000
0000
0000
,
0000
0000
0001
0000
,
0000
0000
0000
0000
,
0000
0000
0000
0000
,
0000
0000
0000
0000
,
0000
0000
1000
0000
,
0000
0000
0000
0000
,
0000
0000
0000
0000
,
0000
0000
0000
0000
,
0000
0000
0010
0000
;

//---------------dance-single - I. Pyles----------------
#NOTES:
     dance-single:
     I. Pyles:
     Easy:
     2:
     0.158,0.224,0.037,0.000,0.000,175.000,6.000,0.000,0.000,0.000:



0000
0000
0000
0000
,
0000
0000
0000
0000
,
0000
0000
0000
0000
,
0000
0000
0000
0000
,
0000
0000
0000
0000
,
0000
0000
0000
0000
,
0000
0000
0000
0000
,
0000
0000
0000
0000
,
1000
0000
0001
0000
,
1000
0000
0001
0000
,
0010
0000
0100
0000
,
0010
0000
0100
0000
,
1000
1000
0000
0000
,
0001
0000
1000
0000
,
0001
0000
1000
0000
,
0001
1000
0001
0000
,
1000
0000
0000
0000
,
0001
0000
0000
0000
,
0010
0000
0000
0000
,
0100
0000
0000
0000
,
1001
0000
0000
0000
,
0000
0000
0000
0000
,
0000
0000
0000
0000
,
0000
0000
0000
1000
,
0001
0000
0000
0000
,
1000
1000
0000
0001
,
1000
0001
0000
0000
,
0001
0001
0000
1000
,
0100
1000
0000
0000
,
0010
0010
0000
0100
,
0001
0100
0000
0000
,
0001
0010
0100
1000
,
0000
0000
0000
1000
,
1000
0000
0001
0100
,
0001
0000
0000
1000
,
1000
0000
0100
0010
,
0100
0000
0000
1000
,
1000
0000
0001
0100
,
0001
0000
1000
0001
,
0000
0000
0000
0110
,
0000
0000
0000
1001
,
0001
0000
1000
0000
,
0001
0000
0100
0000
,
0010
0000
1000
0000
,
0001
0000
0010
0000
,
0100
0000
1000
0001
,
0000
1000
0000
0001
,
0000
1000
0000
0001
,
0000
0000
0000
1000
,
0000
0000
0000
0010
,
0000
0000
0000
0100
,
0000
0000
0000
0001
,
0001
0001
0000
0000
,
0000
0000
0000
1000
,
1000
1000
0000
0001
,
0001
1000
1000
0010
,
0010
0010
0000
0000
,
0000
0000
0000
0100
,
0100
0100
0000
0001
,
0001
1000
1000
0010
,
0010
0010
0000
0000
,
0000
0000
0000
1000
,
1000
1000
0000
0001
,
0001
1000
1000
0010
,
0010
0010
0000
0000
,
0000
0000
0000
0100
,
0100
0100
0000
0001
,
0001
1000
1000
1001
,
0000
0000
0000
0001
,
0001
0000
0010
0100
,
0010
0000
0000
0001
,
0001
0000
1000
0001
,
1000
0000
0000
0001
,
0001
0000
1000
0100
,
1000
0000
0000
0001
,
1000
0001
1000
0000
,
0000
0000
0001
0001
,
0000
1000
0001
1000
,
0000
0000
0010
0010
,
0000
1000
0001
1000
,
0000
0000
0001
0001
,
0000
1000
0100
1000
,
0000
0001
0000
1000
,
0000
0001
0000
1000
,
0000
0100
0000
0010
,
0000
0100
0000
0010
,
0000
0001
0000
1000
,
0000
0001
0000
1000
,
0000
0010
0000
1000
,
0000
0010
0000
1000
,
0000
0001
0000
1001
,
0000
0001
1001
0000
;

//---------------dance-single - I. Pyles----------------
#NOTES:
     dance-single:
     I. Pyles:
     Medium:
     8:
     0.607,0.739,0.110,1.000,0.070,469.000,18.000,204.000,10.000,0.000:







0000
0000
0000
0000
,
0000
0000
0000
0000
,
0000
0000
0000
0000
,
0000
0000
0000
0000
,
0000
0000
0000
0000
,
0000
0000
0000
0000
,
0000
0000
0000
0000
,
0000
0000
0000
0000
,
0001
0010
0010
0100
1000
0000
1000
0010
,
1000
0100
0100
1000
0001
0000
0001
0100
,
0010
1000
1000
0000
1000
0000
1000
0000
,
0001
0010
0010
0000
0010
0000
0010
0000
,
0001
0100
0100
0010
1000
0000
1000
0100
,
1000
0010
0010
1000
0001
0000
0001
0010
,
0001
0010
0010
0100
1000
0000
1000
0010
,
1000
0100
0100
1000
0001
0000
0001
1000
,
0001
0100
0100
0010
1000
0000
1000
0100
,
0010
0100
0010
0000
,
0001
0000
0010
0000
0001
0000
1000
1000
,
0001
0000
0010
0000
0001
0000
1000
1000
,
0020
0000
0000
0000
0000
0000
0000
0030
,
1000
0001
1000
0001
1000
0001
1000
0001
,
4000
0004
0000
0000
0000
0000
0000
0000
0000
0000
0000
0000
0000
0000
0000
0000
,
0000
0000
0000
0000
0000
0000
0000
0000
0000
0000
0000
0000
0000
0000
0000
3000
0003
0000
0110
0000
0000
0000
0000
0000
,
1001
0000
0002
2003
3200
2300
3020
0030
,
0200
0300
0200
0300
0002
0003
2000
3001
,
0200
0000
0302
2003
3200
2300
3020
0030
,
0200
0300
0200
0300
0020
0030
2000
3001
,
0020
0000
0032
2003
3200
2300
3020
0030
,
0200
0300
0200
0300
0002
0003
2000
3001
,
0200
0000
0302
2003
3200
2300
3020
0030
,
0200
0300
0200
0300
0020
0030
M20M
0302
,
2MM3
3002
0203
0302
0023
0030
0200
0300
,
0200
0300
2000
3000
0002
1003
0200
0000
,
2300
3002
0203
0302
0023
0030
0200
0300
,
0200
0300
0020
0030
0002
1003
0020
0000
,
2030
3002
0203
0302
0023
0030
0200
0300
,
0200
0300
2000
3000
0002
1003
0200
0000
,
2300
3002
0203
0302
0023
0030
0002
0003
,
0002
0003
0010
0100
1000
0010
1001
0000
,
0002
2003
3200
2300
3M2M
0030
0201
0300
,
0200
0300
0002
0003
2000
3001
0200
0000
,
0320
0000
2030
0000
3200
0300
0200
0300
0200
0300
2000
0000
3002
0000
0003
0000
,
0020
0030
0002
0003
2000
3000
0200
0000
,
2300
0000
3002
0000
0203
0000
0300
0000
0020
0000
2030
0000
3002
0000
0023
0030
,
0020
0030
0020
0030
0200
0000
0000
0000
0320
0000
0000
0000
0032
0003
0000
2000
,
3000
0000
0002
0003
0000
2000
3000
0000
0002
0003
0000
2000
3000
0000
0002
0003
,
0000
2000
3000
0000
0002
0003
0000
2000
3000
0000
0000
0000
0001
0000
0001
0000
,
0100
0000
0000
0000
0000
0001
0100
0000
0001
0000
0000
0000
0100
0000
0000
0000
,
0010
0000
0000
0000
0000
0100
0010
0000
0100
0000
0000
0000
0001
0000
0001
0000
,
0010
0000
0000
0000
0000
0001
0010
0000
0001
0000
0000
0000
1000
0000
0000
0000
,
0001
0000
0000
0000
0000
1000
0001
0000
1000
0000
0000
0000
0001
0000
0001
0000
,
0100
0100
0001
1000
0010
1000
0000
0001
,
0010
0001
0000
1000
0100
1000
0001
0001
,
0010
0010
0001
0000
0000
0000
1000
1000
,
0100
0100
0010
0010
0001
0001
0100
0100
,
0001
0001
0100
0000
0000
0000
0001
0001
,
0010
0000
0100
0010
0100
0000
0010
0000
0001
0000
0000
0000
0010
0000
0010
0000
,
0001
0001
0010
0000
0000
0000
0100
0100
,
1000
0000
1000
0000
0001
0010
0000
0010
0001
0000
1000
0000
1001
0000
0001
0000
,
0100
0100
0001
1000
0010
1000
0000
0001
,
0010
0001
0000
1000
0100
1000
0001
0001
,
0010
0010
0001
0000
0000
0000
1000
1000
,
0100
0100
0010
0010
0001
0001
0100
0100
,
0001
0001
0100
0000
0000
0000
0001
0001
,
0100
0000
0010
0100
0010
0000
0100
0000
0001
0000
0000
0000
4000
0004
0000
0000
,
0000
0000
0000
0000
0000
0000
0000
0000
3000
0003
0000
0000
0001
0000
0000
0000
,
0020
0030
0000
0000
0000
0000
0000
0000
0020
0000
0030
0000
0000
0000
0000
0000
0020
0000
0000
0030
0000
0000
0000
0000
0120
0000
0000
0000
0000
0000
0000
0000
,
0032
2003
3200
2300
3020
0030
0201
0300
,
0200
0300
0002
0003
2000
3001
0200
0000
,
0302
2003
3200
2300
3020
0030
0200
0300
,
0200
0300
0020
0030
1000
0001
0020
0000
,
0032
2003
3200
2300
3020
0030
0200
0300
,
0200
0300
0002
0003
2000
3001
0200
0000
,
0302
2003
3200
2300
3020
0030
2000
0000
,
3002
0000
2003
0000
3MM2
0023
MM32
2003
,
3200
2300
3020
0030
0200
0300
0200
0300
,
0002
0003
2000
3001
0200
0000
0302
2003
,
3200
2300
3020
0030
0200
0300
0200
0300
,
0020
0030
2000
3001
0020
0000
0032
2003
,
3200
2300
3020
0030
0200
0300
0200
0300
,
0002
0003
2000
3001
0100
0001
0010
0001
,
1000
0001
0010
0001
0100
0001
0010
0001
,
1000
0001
0010
0100
0110
0000
0020
0030
,
0110
0000
0000
0000
0200
0300
0000
0000
0110
0000
0000
0000
0002
0003
0000
0000
,
0110
0000
0000
0000
0020
0030
0000
0000
0110
0000
0000
0000
0200
0000
0300
0000
,
0110
0000
0000
0000
0020
0030
0000
0000
0110
0000
0000
0000
0200
0300
0000
0000
,
1001
0000
0000
0000
0001
0000
0000
0001
0000
0000
0001
0000
1000
0000
0000
1000
,
0000
0000
1000
0000
0001
0000
0000
0001
0000
0000
0001
0000
0020
0030
0000
0000
,
1001
0000
0000
0000
0002
0003
0000
0000
1001
0000
0000
0000
2000
3000
0000
0000
,
1001
0000
0000
0000
0002
0003
0000
0000
0100
0000
0100
0000
0010
1000
0001
0000
,
0100
0010
0000
0100
0001
1000
0000
0100
0020
0000
0000
0000
0000
0000
0000
0000
,
0000
0000
0000
0000
,
0030
0000
0000
0000
;

//---------------dance-single - I. Pyles----------------
#NOTES:
     dance-single:
     I. Pyles:
     Hard:
     9:
     0.716,0.825,0.122,0.856,0.388,656.000,20.000,140.000,10.000,0.000:






0000
0000
0000
0000
,
0000
0000
0000
0000
,
0000
0000
0000
0000
,
0000
0000
0000
0000
,
0000
0000
0000
0000
,
0000
0000
0000
0000
,
0000
0000
0000
0000
,
0000
0000
0000
0000
,
0001
0000
0010
0000
0010
0000
0100
0010
0001
0010
0001
0000
1000
0000
0010
0000
,
1000
0000
0100
0000
0100
0000
0010
0100
1000
0100
1000
0000
0001
0000
0100
0000
,
0010
0000
1000
0000
1000
0000
0000
0010
0100
0010
0000
0000
1000
0000
0000
0000
,
0001
0000
0010
0000
0010
0000
0000
0100
0010
0100
0010
0000
0001
0000
1000
0000
,
0001
0000
0100
0000
0100
0000
0010
0100
0001
0100
0001
0000
1000
0000
0100
0000
,
1000
0000
0010
0000
0010
0000
0100
0010
1000
0010
1000
0000
0001
0000
0010
0000
,
0001
0000
0010
0000
0010
0000
0100
0010
0001
0010
0001
0000
1000
0000
0010
0000
,
1000
0000
0100
0000
0100
0000
0010
0100
1000
0100
1000
0000
0010
0000
0010
1000
,
0001
0000
0100
0000
0100
0000
0010
0100
0001
0100
0001
0000
1000
0000
0100
0000
,
1000
0001
1000
0001
0000
0000
1000
0010
1000
0010
0000
0000
0100
0000
0000
0001
0000
0000
0010
0000
0000
0000
0000
0000
,
0001
1000
0001
1000
0000
0000
0001
0100
0001
0100
0000
0000
0001
0000
0000
0001
0000
0000
1000
0000
0000
1000
0000
0000
,
0001
0000
1000
0000
0001
0000
1000
0000
0000
0000
0000
0000
0001
0000
0100
0000
0001
0000
0100
0000
0000
0000
0000
0000
0001
0000
1000
0000
0001
0000
1000
0000
0000
0000
0000
0000
0100
0000
0000
0000
0000
0000
0100
0000
0000
1000
0000
0000
,
0020
0000
0000
0000
0000
0000
0000
0030
,
1000
0001
1000
0001
1000
0001
1000
0001
,
1000
0010
0100
0001
0100
0010
1000
0001
1000
0100
0010
0001
0010
0100
1000
0001
,
4000
0004
0000
0000
0000
0000
0000
0000
0000
0000
0000
0000
0000
0000
0000
3000
0003
0000
0110
0000
0000
0000
0000
0000
,
1001
0000
0002
2003
3200
2300
3020
0030
,
0100
0000
0001
0010
0100
0000
1000
0000
0010
0000
1000
0100
0010
0000
0001
0000
,
0200
0000
0302
2003
3200
2300
3020
0030
,
0100
0000
0001
0100
0010
0000
1000
0000
0100
0000
1000
0010
0100
0000
0001
0000
,
0020
0000
0032
2003
3200
2300
3020
0030
,
0100
0000
0001
0010
0100
0000
1000
0000
0010
0000
1000
0100
0010
0000
0001
0000
,
0200
0000
0302
2003
3200
2300
3020
0030
,
0100
0000
0001
0100
0010
0000
1000
0000
0100
0000
1000
0010
M40M
0000
0304
0000
,
2MM3
0000
3002
0000
0203
0000
0302
0000
0023
0000
0030
0000
0100
0000
1000
0010
,
0100
0000
0001
0000
0010
0000
0001
0100
0010
0000
1000
0000
0200
0000
0000
0000
,
2300
0000
3002
0000
0203
0000
0302
0000
0023
0000
0030
0000
0100
0000
1000
0100
,
0010
0000
0001
0000
0100
0000
0001
0010
0100
0000
1000
0000
0020
0000
0000
0000
,
2030
0000
3002
0000
0203
0000
0302
0000
0023
0000
0030
0000
0100
0000
1000
0010
,
0100
0000
0001
0000
0010
0000
0001
0100
0010
0000
1000
0000
0200
0000
0000
0000
,
2300
0000
0000
3002
0000
0000
0203
0000
0000
0302
0000
0000
0023
0000
0000
0030
0000
0000
0001
0100
0001
0100
0000
0000
,
0001
0000
1000
0000
0001
0000
1000
0000
0000
0000
0000
0000
0001
0000
0000
0100
0000
0000
0010
0000
0000
1000
0000
0000
0001
0000
0000
0010
0000
0000
0100
0000
0000
0000
0000
0000
1001
0000
0000
0000
0000
0000
0000
0000
0000
0000
0000
0000
,
0002
0000
2003
0000
3200
0000
2300
0000
3M2M
0000
0030
0000
1001
0000
0001
0010
,
0100
0000
1000
0000
0010
0000
1000
0100
0010
0000
0001
0000
0200
0000
0000
0000
,
0320
0000
2030
0000
3200
0300
0200
0300
0200
0300
2000
0000
3001
0000
0010
0100
,
0010
0000
0001
0000
1000
0000
0010
0100
0010
0000
1000
0000
0200
0000
0000
0000
,
2300
0000
3002
0000
0203
0000
0300
0000
0020
0000
2030
0000
3002
0000
0023
0030
,
0020
0030
0020
0030
0200
0000
0000
0000
0320
0000
0000
0000
0032
0003
0000
2000
,
3000
0000
0002
0003
0000
2000
3000
0000
0002
0003
0000
2000
3000
0000
0002
0003
,
0000
2000
3000
0000
0002
0003
0000
2000
3000
0000
0000
0000
0001
0000
0001
0000
,
0100
0000
0000
0001
0000
0001
0100
0000
0001
0000
0000
0000
0100
0000
0000
0000
,
0010
0000
0000
0100
0000
0100
0010
0000
0100
0000
0000
0000
0001
0000
0001
0000
,
0010
0000
0000
0001
0000
0001
0010
0000
0001
0000
0000
0000
1000
0000
0000
0000
,
0001
0000
0000
1000
0000
1000
0001
0000
1000
0000
0000
0000
0001
0000
0001
0000
,
0100
0100
0001
1000
0010
1000
0000
0001
,
0010
0001
0000
1000
0100
1000
0001
0001
,
0010
0010
0001
0000
0000
0000
1000
1000
,
0100
0100
0010
0010
0001
0001
0100
0100
,
0001
0001
0100
0000
0000
0000
0001
0001
,
0010
0000
0100
0010
0100
0010
0001
0000
1000
0000
0001
0000
0010
0000
0010
0000
,
0001
0001
0010
0000
0000
0000
0100
0100
,
1000
0000
1000
0000
0001
0010
0000
0010
0001
0000
1000
0000
1001
0000
0001
0000
,
0100
0100
0001
1000
0010
1000
0000
0001
,
0010
0001
0000
1000
0100
1000
0001
0001
,
0010
0010
0001
0000
0000
0000
1000
1000
,
0100
0100
0010
0010
0001
0001
0100
0100
,
0001
0001
0100
0000
0000
0000
0001
0001
,
0100
0000
0010
0100
0010
0100
0001
0000
1000
0000
0010
0000
1000
0100
0010
0001
,
0010
0100
1000
0001
1000
0010
0100
0001
0100
0010
1000
0001
0100
0001
1000
0001
,
0020
0030
0000
0000
0000
0000
0000
0000
0020
0000
0030
0000
0000
0000
0000
0000
0020
0000
0000
0030
0000
0000
0000
0000
0120
0000
0000
0000
0000
0000
0000
0000
,
0032
0000
2003
0000
3200
0000
2300
0000
3020
0000
0030
0000
1001
0000
0001
0010
,
0100
0000
1000
0000
0010
0000
1000
0100
0010
0000
0001
0000
0200
0000
0000
0000
,
0302
0000
2003
0000
3200
0000
2300
0000
3020
0000
0030
0000
0100
0000
0001
0100
,
0010
0000
1000
0000
0100
0000
1000
0010
0100
0000
0001
0000
0020
0000
0000
0000
,
0032
0000
2003
0000
3200
0000
2300
0000
3020
0000
0030
0000
0100
0000
0001
0010
,
0100
0000
1000
0000
0010
0000
1000
0100
0010
0000
0001
0000
0200
0000
0000
0000
,
0302
0000
0000
2003
0000
0000
3200
0000
0000
2300
0000
0000
3020
0000
0000
0030
0000
0000
2000
0000
3100
0000
0010
0000
,
0002
0000
0013
0000
0100
0000
2000
0000
3010
0000
0100
0000
M0M4
0000
0000
0043
0000
0000
MM32
0000
0000
2003
0000
0000
,
3200
0000
2300
0000
3020
0000
0030
0000
0100
0000
0001
0010
0100
0000
1000
0000
,
0010
0000
1000
0100
0010
0000
0001
0000
0200
0000
0000
0000
0302
0000
2003
0000
,
3200
0000
2300
0000
3020
0000
0030
0000
0100
0000
0001
0100
0010
0000
1000
0000
,
0100
0000
1000
0010
0100
0000
0001
0000
0020
0000
0000
0000
0032
0000
2003
0000
,
3200
0000
2300
0000
3020
0000
0030
0000
0100
0000
0001
0010
0100
0000
1000
0000
,
0010
0000
1000
0100
0010
0000
0001
0000
0100
0000
0010
1000
0001
0000
0010
0000
,
0100
0000
0010
0001
1000
0000
0010
0000
0100
0000
0001
0010
0001
0000
0100
0000
,
0010
0000
1000
0100
1000
0000
0010
0000
0110
0000
0000
0000
0020
0000
0030
0000
,
0110
0000
0000
0000
0200
0300
0000
0000
0110
0000
0000
0000
0002
0003
0000
0000
,
0110
0000
0000
0000
0020
0030
0000
0000
0110
0000
0000
0000
0200
0000
0300
0000
,
0110
0000
0000
0000
0020
0030
0000
0000
0110
0000
0000
0000
0200
0300
0000
0000
,
1001
0000
0000
0000
0001
0000
0000
0001
0000
0000
0001
0000
1000
0000
0000
1000
,
0000
0000
1000
0000
0001
0000
0000
0001
0000
0000
0001
0000
0020
0030
0000
0000
,
1001
0000
0000
0000
0002
0003
0000
0000
1001
0000
0000
0000
2000
3000
0000
0000
,
1001
0000
0000
0000
0002
0003
0000
0000
0100
0000
0100
0000
0010
1000
0001
0000
,
0100
0010
0000
0100
0001
1000
0000
0100
0020
0000
0000
0000
0000
0000
0000
0000
,
0000
0000
0000
0000
,
0030
0000
0000
0000
;

//---------------dance-single - I. Pyles----------------
#NOTES:
     dance-single:
     I. Pyles:
     Challenge:
     11:
     0.841,1.000,0.379,0.789,0.615,770.000,62.000,129.000,10.000,0.000:












0000
0000
0000
0000
,
0000
0000
0000
0000
,
0000
0000
0000
0000
,
0000
0000
0000
0000
,
0000
0000
0000
0000
,
0000
0000
0000
0000
,
0000
0000
0000
0000
,
0000
0000
0000
0000
,
0001
0000
0010
0000
0010
0000
0100
0010
0001
0010
0001
0000
1000
0000
0010
0000
,
1000
0000
0100
0000
0100
0000
0010
0100
1000
0100
1000
0000
0001
0000
0100
0000
,
0010
0000
1000
0000
1000
0000
0000
0010
0100
0010
0000
0000
1000
0000
0000
0000
,
0001
0000
0010
0000
0010
0000
0000
0100
0010
0100
0010
0000
0001
0000
1000
0000
,
0001
0000
0100
0000
0100
0000
0010
0100
0001
0100
0001
0000
1000
0000
0100
0000
,
1000
0000
0010
0000
0010
0000
0100
0010
1000
0010
1000
0000
0001
0000
0010
0000
,
0001
0000
0010
0000
0010
0000
0100
0010
0001
0010
0001
0000
1000
0000
0010
0000
,
1000
0000
0100
0000
0100
0000
0010
0100
1000
0100
1000
0000
0010
0000
0010
1000
,
0001
0000
0100
0000
0100
0000
0010
0100
0001
0100
0001
0000
1000
0000
0100
0000
,
1000
0000
0100
0000
1000
0000
0001
0000
0000
0000
0000
0000
0010
0000
0100
0000
1000
0000
0001
0000
0000
0000
0000
0000
1000
0000
0000
0100
0000
0000
1000
0000
0000
0001
0000
0000
0010
0000
0000
0001
0000
0000
1000
0000
0000
0000
0000
0000
,
0001
0000
0010
0000
0001
0000
1000
0000
0000
0000
0000
0000
0100
0000
0010
0000
0001
0000
1000
0000
0000
0000
0000
0000
0001
0000
0000
0100
0000
0000
0001
0000
0000
0000
0000
0000
1000
0000
0000
0000
0000
0000
1000
0000
0000
0000
0000
0000
,
0001
0000
0100
0000
0001
0000
1000
0000
0000
0000
0000
0000
0100
0000
0010
0000
0001
0000
1000
0000
0000
0000
0000
0000
0001
0000
1000
0000
0100
0000
0010
0000
0000
0000
0000
0000
0100
0000
0000
0000
0000
0000
0100
0000
0000
1000
0000
0000
,
0020
0000
0000
0000
0000
0000
0000
0030
,
1000
0001
1000
0001
1000
0001
1000
0001
,
1000
0010
0100
0001
0100
0010
1000
0001
1000
0100
0010
0001
0010
0100
1000
0001
,
1000
0010
0100
0001
0100
0010
1000
0001
1000
0001
0010
0100
1000
0001
0010
0100
1000
0001
0100
0000
0000
0000
0000
0000
,
1001
0000
0002
2003
3200
2300
3020
0030
,
0100
0000
0001
0010
0100
0000
1000
0000
0010
0000
1000
0100
0010
0000
0001
0000
,
0200
0000
0302
2003
3200
2300
3020
0030
,
0100
0000
0001
0100
0010
0000
1000
0000
0100
0000
1000
0010
0100
0000
0001
0000
,
0020
0000
0032
2003
3200
2300
3020
0030
,
0100
0000
0001
0010
0100
0000
1000
0000
0010
0000
1000
0100
0010
0000
0001
0000
,
0200
0000
0302
2003
3200
2300
3020
0030
,
0100
0000
0001
0100
0010
0000
1000
0000
0100
0000
1000
0010
M40M
0000
0304
0000
,
2MM3
0000
3002
0000
0203
0000
0302
0000
0023
0000
0030
0000
0100
0000
1000
0010
,
0100
0000
0001
0000
0010
0000
0001
0100
0010
0000
1000
0000
0200
0000
0000
0000
,
2300
0000
3002
0000
0203
0000
0302
0000
0023
0000
0030
0000
0100
0000
1000
0100
,
0010
0000
0001
0000
0100
0000
0001
0010
0100
0000
1000
0000
0020
0000
0000
0000
,
2030
0000
3002
0000
0203
0000
0302
0000
0023
0000
0030
0000
0100
0000
1000
0010
,
0100
0000
0001
0000
0010
0000
0001
0100
0010
0000
1000
0000
0200
0000
0000
0000
,
2300
0000
0000
3002
0000
0000
0203
0000
0000
0302
0000
0000
0023
0000
0000
0030
0000
0000
0001
0100
0001
0100
0000
0000
,
0001
0000
1000
0000
0001
0000
1000
0000
0000
0000
0000
0000
0001
0000
0100
0000
0001
0000
0100
0000
0000
0010
0000
0000
1000
0000
0001
0000
1000
0000
0001
0000
1000
0000
0001
0000
0010
0000
0000
0000
0000
0000
0000
0000
0000
0000
0000
0000
,
0002
0000
2003
0000
3200
0000
2300
0000
3M2M
0000
0030
0000
1001
0000
0001
0010
,
0100
0000
1000
0000
0010
0000
1000
0100
0010
0000
0001
0000
0200
0000
0000
0000
,
0320
0000
2030
0000
3200
0300
0200
0300
0200
0300
2000
0000
3001
0000
0010
0100
,
0010
0000
0001
0000
1000
0000
0010
0100
0010
0000
1000
0000
0200
0000
0000
0000
,
2300
0000
3002
0000
0203
0000
0300
0000
0020
0000
2030
0000
3002
0000
0023
0030
,
0020
0030
0020
0030
0200
0000
0000
0000
0320
0000
0000
0000
0032
0003
0000
2000
,
3000
0000
0002
0003
0000
2000
3000
0000
0002
0003
0000
2000
3000
0000
0002
0003
,
0000
2000
3000
0000
0002
0003
0000
2000
3000
0000
0000
0000
0001
0000
0001
0000
,
0100
0000
0000
0001
0000
0001
0100
0000
0001
0000
0000
0000
0100
0000
0000
0000
,
0010
0000
0000
0100
0000
0100
0010
0000
0100
0000
0000
0000
0001
0000
0001
0000
,
0010
0000
0000
0001
0000
0001
0010
0000
0001
0000
0000
0000
1000
0000
0000
0000
,
0001
0000
0000
1000
0000
1000
0001
0000
1000
0000
0000
0000
0101
0000
0101
0000
,
0101
0000
0000
0101
0000
0000
0101
0000
0000
0001
0000
0000
1000
0000
0000
0000
0000
0000
0000
0000
0000
0001
0100
0001
,
1000
0000
0000
0010
1000
0010
0100
0001
0100
0001
0000
0000
1000
0001
1000
0001
0000
0000
0011
0000
0000
0011
0000
0000
,
0011
0011
0011
0000
0000
0000
1100
1100
,
1100
1100
1001
1001
1001
1001
0101
0101
,
0101
0101
0101
0001
1000
0000
0001
0001
,
0010
0000
0100
0010
0100
0010
0001
0000
1000
0000
0001
0000
0011
0000
0011
0000
,
0011
0011
0011
0000
0000
0000
1100
1100
,
1100
0000
1100
0000
0001
0010
0000
0010
0001
0000
1001
0000
1010
0000
0101
0000
,
0101
0000
0000
0101
0000
0000
0101
0000
0000
0001
0000
0000
1000
0000
0000
0000
0000
0000
0000
0000
0000
0001
0100
0001
,
1000
0000
0000
0010
1000
0010
0100
0001
0100
0001
0000
0000
1000
0001
1000
0001
0000
0000
0011
0000
0000
0011
0000
0000
,
0011
0011
0011
0000
0000
0000
1100
1100
,
1100
1100
1001
1001
1001
1001
0101
0101
,
0101
0101
0101
0001
1000
0000
0001
0001
,
0100
0000
0010
0100
0010
0100
0001
0000
1000
0000
0010
0000
1000
0100
0010
0001
,
0010
0100
1000
0001
1000
0010
0100
0001
0100
0010
1000
0001
0100
0001
1000
0001
,
0020
0030
0000
0000
0000
0000
0000
0000
0020
0000
0030
0000
0000
0000
0000
0000
0020
0000
0000
0030
0000
0000
0000
0000
0120
0000
0000
0000
0000
0000
0000
0000
,
0032
0000
2003
0000
3200
0000
2300
0000
3020
0000
0030
0000
1001
0000
0001
0010
,
0100
0000
1000
0000
0010
0000
1000
0100
0010
0000
0001
0000
0200
0000
0000
0000
,
0302
0000
2003
0000
3200
0000
2300
0000
3020
0000
0030
0000
0100
0000
0001
0100
,
0010
0000
1000
0000
0100
0000
1000
0010
0100
0000
0001
0000
0020
0000
0000
0000
,
0032
0000
2003
0000
3200
0000
2300
0000
3020
0000
0030
0000
0100
0000
0001
0010
,
0100
0000
1000
0000
0010
0000
1000
0100
0010
0000
0001
0000
0200
0000
0000
0000
,
0302
0000
0000
2003
0000
0000
3200
0000
0000
2300
0000
0000
3020
0000
0000
0030
0000
0000
2000
0000
3100
0000
0010
0000
,
0002
0000
0013
0000
0100
0000
2000
0000
3010
0000
0100
0000
M0M4
0000
0000
0043
0000
0000
MM32
0000
0000
2003
0000
0000
,
3200
0000
2300
0000
3020
0000
0030
0000
0100
0000
0001
0010
0100
0000
1000
0000
,
0010
0000
1000
0100
0010
0000
0001
0000
0200
0000
0000
0000
0302
0000
2003
0000
,
3200
0000
2300
0000
3020
0000
0030
0000
0100
0000
0001
0100
0010
0000
1000
0000
,
0100
0000
1000
0010
0100
0000
0001
0000
0020
0000
0000
0000
0032
0000
2003
0000
,
3200
0000
2300
0000
3020
0000
0030
0000
0100
0000
0001
0010
0100
0000
1000
0000
,
0010
0000
1000
0100
0010
0000
0001
0000
0100
0000
0010
1000
0001
0000
0010
0000
,
0100
0000
0010
0001
1000
0000
0010
0000
0100
0000
0001
0010
0001
0000
0100
0000
,
0010
0000
1000
0100
1000
0000
0010
0000
0100
0001
0010
0001
1000
0000
0100
0010
,
0100
0010
0100
1000
0001
0000
1000
0100
1000
0100
1000
0001
0010
0000
0100
0010
,
0100
0010
0100
1000
0010
0000
0100
0001
0100
0001
0100
0010
1000
0000
0001
0010
,
0001
0010
0001
1000
0100
0000
0010
0100
0010
0100
0010
0001
0100
0000
0001
0010
,
0001
0010
0001
1000
0100
0000
1000
0010
1000
0010
1000
0001
0100
0000
0010
0100
,
0010
0100
0010
1000
0001
0000
1000
0100
1000
0100
1000
0001
0010
0000
0100
0010
,
0100
0010
0100
1000
0010
0000
0100
0001
0100
0001
0100
0010
1000
0000
0001
0010
,
0001
0010
0001
1000
0100
0000
1000
0001
0100
0000
0100
0000
0010
1000
0001
0000
,
0100
0010
0000
0100
0001
1000
0000
0100
0020
0000
0000
0000
0000
0000
0000
0000
,
0000
0000
0000
0000
,
0030
0000
0000
0000
;
